#TITLE:We cannot get out of here forever;
#SUBTITLE:Seated With Liquor;
#ARTIST:Foreground Eclipse;
#TITLETRANSLIT:We cannot get out of here forever;
#SUBTITLETRANSLIT:Seated With Liquor;
#ARTISTTRANSLIT:Foreground Eclipse;
#GENRE:Touhou;
#CREDIT:Itsugo;
#BANNER:We cannot get out of here forever-bn.png;
#BACKGROUND:We cannot get out of here forever-bg.png;
#LYRICSPATH:We cannot get out of here forever.lrc;
#CDTITLE:Itsugo15 SimifileS.png;
#MUSIC:We cannot get out of here forever.ogg;
#OFFSET:-0.273;
#SAMPLESTART:57.940;
#SAMPLELENGTH:30.000;
#SELECTABLE:YES;
#LISTSORT:;
#BPMS:0.000=180.000;
#STOPS:;
#TICKCOUNT:0.000=6;
#BGCHANGES:8.000=We cannot get out of here forever-bg9.jpg=1.000=1=1=0,
28.000=We cannot get out of here forever-bg1.jpg=1.000=1=1=0,
44.000=We cannot get out of here forever-bg3.jpg=1.000=1=1=0,
60.000=We cannot get out of here forever-bg4.jpg=1.000=1=1=0,
76.000=We cannot get out of here forever-bg7.jpg=1.000=1=1=0,
92.000=We cannot get out of here forever-bg6.jpg=1.000=1=1=0,
108.000=We cannot get out of here forever-bg10.jpg=1.000=1=1=0,
124.000=We cannot get out of here forever-bg5.jpg=1.000=1=1=0,
140.000=We cannot get out of here forever-bg11.jpg=1.000=1=1=0,
156.000=We cannot get out of here forever-bg13.jpg=1.000=1=1=0,
172.000=We cannot get out of here forever-bg14.jpg=1.000=1=1=0,
184.000=We cannot get out of here forever-bg12.jpg=1.000=1=1=0,
204.000=We cannot get out of here forever-bg8.jpg=1.000=1=1=0,
220.000=We cannot get out of here forever-bg2.jpg=1.000=1=1=0,
236.000=We cannot get out of here forever-bg7.jpg=1.000=1=1=0,
252.000=We cannot get out of here forever-bg5.jpg=1.000=1=1=0,
260.000=We cannot get out of here forever-bg9.jpg=1.000=1=1=0,
276.000=We cannot get out of here forever-bg13.jpg=1.000=1=1=0,
292.000=We cannot get out of here forever-bg14.jpg=1.000=1=1=0,
316.000=We cannot get out of here forever-bg.png=1.000=0=1=0,
99999=-nosongbg-=1.000=0=0=0 // don't automatically add -songbackground-
;
#KEYSOUNDS:;
#ATTACKS:;

//---------------dance-single - Challenge Itsugo----------------
#NOTES:
     dance-single:
     Challenge Itsugo:
     Challenge:
     12:
     0.948,0.961,0.630,0.486,0.419:
0000
0000
0000
0000
,
0000
0000
0000
0000
,
1001
0000
0000
0000
0000
0000
0000
0000
0000
0001
1000
0010
0100
0000
0001
0000
,
0101
0100
0001
1000
0010
0100
0001
1000
,
0100
0010
0001
0100
0010
0001
0010
0100
,
0001
1000
0100
1000
0010
0100
0001
0010
,
0001
0000
0100
0000
0010
0000
1000
0000
0100
0000
0010
0000
0001
1000
0001
1000
,
1001
0001
0100
1000
0100
0001
0020
1000
,
M000
0130
0010
0001
1000
0100
0010
0100
,
1000
0001
0010
1000
0010
0001
0200
1000
,
M000
0000
0310
0000
0100
0000
0001
0000
1000
0000
0010
0100
0001
0000
0100
0010
,
1000
0010
1000
0001
0100
0010
1000
0001
,
0010
0100
1000
0010
0100
1000
0100
0010
,
1000
0001
0010
0001
0100
0010
1000
0100
,
1000
0000
0010
0000
0100
0000
0001
0000
0010
0000
0100
0000
1000
0001
1000
0001
,
1001
1000
0010
0001
0010
1000
0200
0001
,
000M
0310
0100
1000
0001
0010
0100
0010
,
0001
1000
0100
0001
0100
1000
0020
0001
,
000M
0000
0130
0000
0010
1000
0010
1000
0001
1000
0001
1000
0100
1000
0100
0010
,
0001
1000
0001
0100
0101
0000
0101
1000
,
1100
0000
0000
1010
0000
0000
0102
0000
2000
0000
0000
3003
1001
0000
0000
0000
,
0001
0000
0100
0000
0010
0000
1000
0000
2010
0000
0000
0010
0000
0000
0001
0000
,
0100
0000
3100
0010
0100
1000
1100
0001
,
0101
0001
1000
0010
1010
0000
1010
0001
,
0011
0000
0000
0101
0000
0000
2010
0000
0002
0000
0000
3003
1001
0000
0000
0000
,
1000
0010
0100
0001
2000
0000
0100
0000
,
3001
1000
0001
0000
0100
0000
0001
0100
0001
0010
0001
1000
0001
0000
0000
0000
,
1001
MMMM
0101
0001
1000
0100
1100
0100
,
1000
0010
1010
1000
0001
0010
0011
0001
,
0010
0100
0110
0100
1000
0001
1001
0001
,
0200
1300
0200
0310
2000
3001
0020
0130
,
0110
MMMM
1100
0100
0010
0001
0011
0010
,
0100
1000
1100
0100
1000
0010
1010
0010
,
0100
0001
1000
0000
0001
1000
0010
0000
1010
0000
1000
0010
1000
0000
0001
0000
,
1000
0100
1000
0010
0100
0001
0010
0001
0100
0010
1000
0100
0010
0001
0010
0100
,
2000
0100
0001
0100
,
3002
0000
0000
0000
0100
0000
0000
0000
1003
0000
0010
0100
0001
1000
0100
0000
,
1100
0000
1010
0000
0101
0000
0011
0000
1100
0000
0101
0000
,
1010
0000
0000
0000
0000
0000
0000
0000
0011
0000
0000
0000
0000
0000
0000
0000
1001
0000
0000
0000
0000
0000
0000
0000
0001
0000
0000
1000
0000
0000
0001
0000
0000
1000
0000
0000
0100
0000
0000
0000
0000
0000
0010
0000
0000
0000
0000
0000
,
0110
0200
1300
0002
0103
0020
0031
2000
,
3100
0020
1030
0002
0023
0000
0031
1000
,
1001
0002
0103
0020
1030
0200
0310
0001
,
0001
0010
0100
0000
0000
0000
0000
0000
0000
0000
0000
0000
0001
0010
0100
0000
0000
0000
0000
0000
0000
0000
0000
0000
0001
0010
0100
0000
0000
0000
0000
0000
1100
0000
0000
0000
0000
0000
0000
0000
0000
0000
0000
0000
0000
0000
0000
0000
0011
0000
0000
0000
0000
0000
0000
0000
0000
0000
0000
0000
0000
0000
0000
0000
,
1001
0001
0100
0010
1000
0010
0001
1000
,
0100
0001
1000
0100
0020
0100
0100
0001
,
0031
0010
1000
0010
0001
0010
0100
1000
,
0002
0100
1000
0100
2003
0100
0001
0100
,
3002
1000
1000
0100
0100
1003
0100
0010
,
0002
0010
1000
0010
2003
0010
0001
0010
,
3002
1000
1000
0010
0010
1003
0001
1000
,
1001
0000
0001
1000
0001
1000
0001
1000
0001
1000
0001
1000
0001
1000
0001
1000
,
1001
0001
0100
0020
1000
1030
1010
0000
,
1000
0010
0100
0002
0100
0103
0101
0000
,
0001
1000
0100
0010
0001
0010
0100
1000
,
1100
0001
0011
1000
1010
0001
0101
1000
,
1001
0001
0010
0100
0010
0001
1000
0001
,
1001
1000
0010
0100
0010
1000
0001
1000
,
0001
0100
0001
1000
0100
1000
0001
0010
0100
1000
0001
0100
0010
1000
0001
0100
,
0001
1000
0010
1000
0100
0010
0001
1000
0001
0010
0100
1000
0100
1000
0010
0100
,
0001
0000
0101
0000
0000
0000
0200
0000
0020
0000
0000
0330
0110
0000
0000
0000
,
0110
0000
1010
0000
0000
0000
2000
0000
0002
0000
0000
3003
1001
0000
0000
0000
,
1001
0011
0000
0020
0200
0330
0110
0000
,
1100
0000
0000
0001
0000
0000
0011
0000
0000
1000
0000
0000
0100
0000
1000
0000
0010
0000
0100
0000
0001
0000
0010
0000
,
0002
0000
0000
0000
1003
0000
0MM0
M00M
,
2000
0000
0000
0000
0000
0000
0000
3000
1001
0000
0000
0000
M00M
0000
0MM0
0000
,
1001
1000
0001
0010
0100
0010
1000
0001
,
0100
0010
0001
0100
0010
0001
1000
0100
,
0001
1000
0010
0100
0010
0001
0010
1000
,
0001
0000
0100
0000
1000
0000
0100
0000
0001
0000
1000
0000
0001
1000
0001
1000
,
1001
0001
0010
1000
0001
0100
0020
0001
,
M00M
1030
0010
0001
1000
0100
0001
1000
,
0010
0001
1000
0010
0100
1000
0200
0001
,
M00M
0000
1300
0000
0100
0000
0010
0000
1000
0010
1000
0001
1000
0000
0100
0010
,
0002
0000
0000
0000
0000
0020
0000
0000
0000
0000
0000
0030
0010
0000
0000
0000
,
1003
0000
0000
0001
0000
0000
0100
0001
0100
0000
0010
1000
0010
0000
1000
0000
,
0001
0000
0010
0000
0100
0000
1000
0000
0001
1000
0001
1000
0001
1000
0001
1000
,
0002
0000
0000
0100
0000
0000
0013
0000
0002
0003
0001
0000
2000
3000
0000
0000
,
0010
0000
0000
0100
0000
0000
0002
0000
0000
0000
0000
0000
0000
0000
0000
0000
0000
0000
0000
0000
0000
0000
0000
0000
0000
0000
0000
0000
0000
0000
0000
0000
,
2203
0000
0000
0000
0000
0000
0000
0000
0000
0000
0000
0000
0000
3300
0100
1000
,
0002
0003
0000
0000
0000
0000
0000
0000
0000
0000
0000
0000
0000
0000
0000
0000
0000
0000
0000
0000
0000
0000
0000
0000
0000
0000
0000
0000
0000
0000
0000
0000
;

//---------------dance-single - Beginner----------------
#NOTES:
     dance-single:
     Beginner:
     Beginner:
     3:
     0.107,0.249,0.000,0.126,0.000:
0000
0000
0000
0000
,
0000
0000
0000
0000
,
0000
0000
0000
0000
,
1000
0000
0000
0000
,
0000
0000
0000
0000
,
1000
0000
0000
0000
,
0000
0000
0000
0000
,
0001
0000
0000
0000
,
0000
0000
0000
0000
,
0001
0000
0000
0000
,
0000
0000
0000
0000
,
0010
0000
0000
0000
,
0000
0000
0000
0000
,
0010
0000
0000
0000
,
0000
0000
0000
0000
,
0100
0000
0000
0000
,
0000
0000
0000
0000
,
0100
0000
0000
0000
,
0000
0000
0000
0000
,
1000
0000
0000
0000
,
0010
0000
0000
0000
,
0100
0000
0000
0000
,
0001
0000
0000
0000
,
0010
0000
0000
0000
,
0100
0000
0000
0000
,
1000
0000
0000
0000
,
0001
0000
0000
0000
,
0100
0000
0000
0000
,
0100
0000
0000
0000
,
0001
0000
0000
0000
,
0001
0000
0000
0000
,
1000
0000
0000
0000
,
1000
0000
0000
0000
,
0100
0000
0000
0000
,
0010
0000
0000
0000
,
0002
0000
0000
0000
,
1003
0000
0000
0000
,
0001
0000
0100
0000
,
0010
0000
1000
0000
,
0001
0000
0000
0000
,
1000
0000
0000
0000
,
0100
0000
0000
0000
,
0020
0000
0032
0000
,
2003
0000
0000
0000
,
3001
0000
0000
0000
,
2000
0000
0000
0000
,
3001
0000
1000
0000
,
0002
0000
0000
0000
,
1003
0000
0001
0000
,
2000
0000
0000
0000
,
0002
0000
3003
0000
,
1000
0000
0000
0000
,
0010
0000
0000
0000
,
0100
0000
0000
0000
,
0001
0000
0001
0000
,
2000
0000
0000
0000
,
3100
0000
0000
0000
,
0020
0000
0000
0000
,
0000
0030
0000
0000
0000
0000
0000
0000
,
0001
0000
0000
0000
,
0001
0000
0000
0000
,
1000
0000
0000
0000
,
1000
0000
0000
0000
,
0020
0000
0000
0000
,
0230
0000
0000
0000
,
0301
0000
0000
0000
,
0100
0000
0000
0000
,
0010
0000
0000
0000
,
1000
0000
0000
0000
,
0100
0000
0000
0000
,
0010
0000
0000
0000
,
0001
0000
0000
0000
,
1000
0000
0000
0000
,
0002
0000
0000
0000
,
0000
0000
0000
0000
,
0000
0000
0000
0000
,
0000
0000
0000
0000
,
0000
0000
0000
0000
,
2003
0000
0000
0000
,
3000
0000
0000
0000
;

//---------------dance-single - Easy----------------
#NOTES:
     dance-single:
     Easy:
     Easy:
     5:
     0.169,0.285,0.036,0.180,0.000:
0000
0000
0000
0000
,
0000
0000
0000
0000
,
0000
0000
0000
0000
,
1000
0000
0000
0000
,
0001
0000
0000
0000
,
0100
0000
0000
0000
,
0010
0000
0000
0000
,
1000
0000
0000
0000
,
0100
0000
0000
0000
,
0010
0000
0000
0000
,
0001
0000
0000
0000
,
1000
0000
0000
0000
,
0001
0000
0000
0000
,
0010
0000
0000
0000
,
0100
0000
0000
0000
,
1000
0000
0000
0000
,
0010
0000
0000
0000
,
0100
0000
0000
0000
,
0001
0000
0000
0000
,
2000
0000
3100
0000
,
0001
0000
0100
0000
,
0010
0000
0000
0000
,
1000
0000
0000
0000
,
0002
0000
0013
0000
,
0001
0000
1000
0000
,
0010
0000
0100
0000
,
0002
0000
1003
0000
,
1001
0000
0000
0000
,
1000
0000
0000
0000
,
0100
0000
0000
0000
,
0010
0000
0000
0000
,
0001
0000
0000
0000
,
1000
0000
0000
0000
,
0010
0000
0000
0000
,
0100
0000
0000
0000
,
0002
0000
0103
0000
,
2000
0000
3100
0000
,
0002
0000
0000
0000
,
0000
0000
0103
0000
,
0010
0000
0010
0000
,
1000
0000
1000
0000
,
0001
0000
0001
0000
,
0010
0000
0100
0000
,
2000
0000
0100
0000
,
3001
0000
0200
0000
,
0010
0000
0301
0000
,
0002
0000
1000
0000
,
0010
0000
0013
0000
,
2000
0000
0001
0000
,
0010
0000
3010
0000
,
0002
0000
1003
0000
,
1001
0000
1000
0000
,
1100
0000
0001
0000
,
0101
0000
1000
0000
,
0010
0000
0100
0000
,
0002
0000
0000
0000
,
1003
0000
2000
0000
,
0200
0000
0000
0000
,
0000
3300
0000
0000
,
1000
0000
0000
0000
,
0001
0000
0000
0000
,
0100
0000
0000
0000
,
0010
0000
1000
0000
,
0002
0000
0000
0000
,
1003
0000
0200
0000
,
0310
0000
0001
0000
,
1000
0000
0010
0000
,
0100
0000
0001
0000
,
0100
0000
0010
0000
,
2000
0000
0001
0000
,
3100
0000
1000
0000
,
0002
0000
1000
0000
,
0103
0000
0001
0000
,
0020
0000
0000
0000
,
0000
0000
0000
0000
,
0000
0000
0000
0000
,
0000
0000
0000
0000
,
0000
0000
0000
0000
,
0230
0000
0000
0000
,
1300
0000
0000
0000
;

//---------------dance-single - Medium Itsugo----------------
#NOTES:
     dance-single:
     Medium Itsugo:
     Medium:
     7:
     0.369,0.498,0.162,0.351,0.018:
0000
0000
0000
0000
,
0000
0000
0000
0000
,
1001
0000
0000
0000
,
0001
0001
0010
0010
,
0100
0100
1000
1000
,
0001
0001
0100
0100
,
0010
0010
1000
1000
,
2010
0010
0100
3100
,
0012
0010
0100
0103
,
2010
0010
0001
3001
,
0012
0010
1000
1003
,
1001
1000
0100
0100
,
0010
0010
0001
0001
,
0100
0100
0010
0010
,
1000
1000
0100
0100
,
0010
0001
0020
0001
,
0130
1000
0200
0310
,
0001
1000
0002
0100
,
1003
0001
2000
0100
,
3100
0000
0010
0000
,
0001
1000
0001
0000
,
1000
0000
0010
0000
,
0200
0000
0301
0000
,
0101
0000
0001
0000
,
1000
0001
1000
0000
,
0001
0000
0010
0000
,
0200
0000
1300
0000
,
1100
0000
1000
0000
,
0001
1000
0001
0000
,
0100
0100
0010
0010
,
2000
0000
3010
0000
,
1010
0000
1000
0000
,
0001
1000
0001
0000
,
1000
1000
0001
0001
,
2002
0000
0000
3003
,
1002
0000
0010
0000
,
2003
0000
3010
0000
,
1000
0000
0100
0000
0010
0000
0001
0000
0000
0000
0000
0000
,
0001
0000
0010
0000
0100
0000
2000
0000
0000
3000
0000
0000
,
0002
0100
0100
0103
,
0020
1000
1000
1030
,
0200
0010
0010
0310
,
0110
0000
0110
0000
,
1002
0010
1000
0000
,
0203
0000
0320
0000
,
1000
0100
1030
0000
,
0002
0000
0023
0000
,
0230
1000
1300
0000
,
0200
0000
0320
0000
,
0032
1000
1003
0000
,
0020
0000
0100
0000
,
1030
0001
1000
0001
,
0010
0100
0010
0001
,
0100
1000
0100
0010
,
1000
1000
0001
0001
,
1002
0000
1003
0000
,
2001
0000
3001
0000
,
0201
0001
0010
0010
,
1000
1000
0010
0310
,
2000
3000
1000
1000
,
0002
0003
0001
0001
,
0020
0030
0010
0010
,
0100
1000
0100
0010
,
0002
0000
1000
0000
,
2003
0000
3001
0000
,
1001
1000
1000
0010
,
0010
0100
0100
0001
,
0001
1000
1000
0100
,
0100
0010
0010
0001
,
0001
1000
0010
0001
,
0010
0100
0001
1000
,
0100
0010
0001
0010
,
1000
0010
0001
1000
,
0200
0000
0000
0000
,
0000
0000
0000
0000
,
0000
0000
0000
0000
,
0000
0000
0000
0000
,
0000
0000
0000
0000
,
0320
0000
0000
0030
,
0001
0000
0000
0000
;

//---------------dance-single - Heavy Itsugo----------------
#NOTES:
     dance-single:
     Heavy Itsugo:
     Hard:
     9:
     0.578,0.640,0.387,0.513,0.086:
0000
0000
0000
0000
,
0000
0000
0000
0000
,
1001
0000
0000
0000
,
1000
0100
1000
0100
1000
0001
1000
0001
,
1000
0010
1000
0010
1000
0001
0100
0001
,
0100
0010
0100
0010
0100
0001
0100
0001
,
1000
0001
1000
0001
1000
0010
1000
0010
,
2000
0010
0100
0001
,
3020
0100
0001
1000
,
0230
0001
1000
0010
,
0301
0000
0100
0000
0001
1000
0001
0000
,
1000
0001
1000
0001
1000
0010
1000
0010
,
0100
0010
0100
0010
0100
0001
0100
0001
,
1000
0001
1000
0001
1000
0100
1000
0100
,
0010
0100
0010
0100
0010
0001
0010
0001
,
2000
0010
0100
0010
,
3002
0100
0010
0100
,
0203
0010
0001
0310
,
0020
1000
0100
1030
,
0001
0000
1001
0000
,
0001
0000
0010
0000
0100
0000
1000
0000
0000
1100
0000
0000
,
0011
0000
1001
0001
,
0200
0000
0310
1010
,
2002
0000
3003
0001
0011
0000
0000
0000
,
0100
0000
1000
0000
0001
0000
0100
0000
0000
0101
0000
0000
,
0200
0310
0020
1030
,
2000
3001
0002
1003
,
1001
0000
0001
0000
0001
0100
0010
0000
,
1000
0000
0100
0000
0010
0001
0100
0000
,
1000
0100
0001
0000
0010
1000
0010
0000
,
0001
1000
0010
1010
,
1001
0000
1000
0100
0010
0000
0001
0000
,
0100
1000
0100
0000
0001
1000
0001
0000
,
1001
0001
0011
0100
,
1100
1001
1010
0110
,
0102
1000
0100
1003
,
2010
0001
0010
3001
,
0010
0000
0100
0000
1000
0000
0001
0000
0100
0000
0010
0000
,
1000
0000
0010
0000
0100
0000
0002
0000
0000
2003
0000
0000
,
3001
0100
0010
1000
0001
0100
0010
1000
,
0001
0010
0100
1000
0001
0010
0200
0000
,
1300
0001
0010
0100
0010
0001
1000
0001
,
2001
0000
0000
0001
0000
0000
0001
0000
0001
0000
0000
0000
0010
0000
3000
0000
,
1002
0023
0230
2300
,
3002
0203
0320
1000
,
0230
0001
1000
0001
,
0320
2030
3002
0023
,
0230
1000
0001
1000
,
0320
0032
2003
3020
,
0230
0001
1000
0001
,
0310
4000
0000
0000
,
3001
0000
0000
0000
0010
0000
0000
0000
0000
0100
0000
0000
1000
0000
0000
0000
0000
0000
1100
0000
0000
0000
0000
0000
,
1000
0000
0000
0000
0010
0000
0000
0000
0000
0100
0000
0000
0001
0000
0000
0000
0000
0000
0101
0000
0000
0000
0000
0000
,
1000
0000
0000
0000
0100
0000
0000
0000
0000
0010
0000
0000
0001
0000
0000
0000
0000
0000
0011
0000
0000
0000
0000
0000
,
1100
0101
1010
0110
,
2002
0000
0000
0003
0100
0000
0000
0000
,
0002
0000
0000
3000
0100
0000
0000
0003
,
4004
0000
0000
0000
,
0000
0000
0000
0000
0000
0000
0000
3003
,
1001
0001
0000
0001
1000
0000
0100
0000
,
1100
1000
0000
1000
0001
0000
0100
0000
,
0101
0001
0000
0001
0100
0000
0010
0000
,
0110
1001
0110
1001
,
0220
0000
0000
0300
1000
0000
0000
0000
,
0230
0000
0000
0300
0202
0000
0303
0000
,
1001
1000
0001
0100
0010
1000
0100
1000
,
0010
0100
0001
0010
0001
0100
0001
1000
,
0100
1000
0010
0100
0001
0100
0010
1000
,
0100
0000
0010
0000
0001
0000
1000
0000
0010
0000
0100
0000
0001
0100
0001
0100
,
0002
1000
0010
0100
,
0023
1000
0100
0001
,
0230
0001
1000
0010
,
2300
0000
0000
0000
0010
0000
0000
0000
3001
1000
0001
1000
0001
0000
1000
0000
,
0202
0000
0000
0000
,
0000
0000
0000
0000
,
0000
0000
0000
0000
,
0000
0000
0000
0000
,
0000
0000
0000
0000
0000
0000
0000
0303
,
2020
0000
0000
0000
0000
0000
0000
0000
0000
0000
0000
0000
3030
0000
0010
1000
,
0010
0000
0000
0000
;
