#TITLE:恋のTwinkle☆Dance;
#SUBTITLE:Stories That Last Through The Sleepless Nights;
#ARTIST:Foreground Eclipse;
#TITLETRANSLIT:Twinkle Dance of Love;
#SUBTITLETRANSLIT:Stories That Last Through The Sleepless Nights;
#ARTISTTRANSLIT:Foreground Eclipse;
#GENRE:Touhou? Moe J-Roock;
#CREDIT:Nazrininator & Itsugo (Song Choice Only);
#BANNER:Twinkle Dance-bn.png;
#BACKGROUND:Twinkle Dance-bg.png;
#LYRICSPATH:Twinkle Dance.lrc;
#CDTITLE:Gift.png;
#MUSIC:Twinkle Dance.ogg;
#OFFSET:0.700;
#SAMPLESTART:72.613;
#SAMPLELENGTH:11.667;
#SELECTABLE:YES;
#LISTSORT:;
#DISPLAYBPM:180.000;
#BPMS:0.000=180.000,308.000=170.000,314.000=160.000,315.000=150.000,316.000=95.000,317.000=75.000,318.000=85.000,319.000=98.000,320.000=114.000,321.000=150.000,322.000=163.000,323.000=223.000,324.000=205.000,325.000=256.000,326.000=269.000,327.000=358.000,328.000=405.000,358.000=315.000,359.000=117.000,360.000=113.000,361.000=48.500,362.000=106.000,364.000=190.000;
#STOPS:;
#TICKCOUNT:0.000=6;
#BGCHANGES:12.000=Twinkle Dance-bg1.jpg=1.000=1=1=0,
28.000=Twinkle Dance-bg2.jpg=1.000=1=1=0,
44.000=Twinkle Dance-bg3.jpg=1.000=1=1=0,
60.000=Twinkle Dance-bg4.jpg=1.000=1=1=0,
76.000=Twinkle Dance-bg5.jpg=1.000=1=1=0,
92.000=Twinkle Dance-bg6.jpg=1.000=1=1=0,
108.000=Twinkle Dance-bg7.jpg=1.000=1=1=0,
124.000=Twinkle Dance-bg8.png=1.000=1=1=0,
140.000=Twinkle Dance-bg9.jpg=1.000=1=1=0,
156.000=Twinkle Dance-bg10.jpg=1.000=1=1=0,
172.000=Twinkle Dance-bg11.jpg=1.000=1=1=0,
188.000=Twinkle Dance-bg12.jpg=1.000=1=1=0,
204.000=Twinkle Dance-bg13.jpg=1.000=1=1=0,
220.000=Twinkle Dance-bg14.jpg=1.000=1=1=0,
236.000=Twinkle Dance-bg15.jpg=1.000=1=1=0,
252.000=Twinkle Dance-bg16.png=1.000=1=1=0,
268.000=Twinkle Dance-bg17.png=1.000=1=1=0,
284.000=Twinkle Dance-bg18.png=1.000=1=1=0,
300.000=Twinkle Dance-bg19.jpg=1.000=1=1=0,
308.000=Twinkle Dance-bg.png=1.000=1=1=0,
317.000=Twinkle Dance-bg1.jpg=1.000=1=1=0,
318.000=Twinkle Dance-bg2.jpg=1.000=1=1=0,
319.000=Twinkle Dance-bg3.jpg=1.000=1=1=0,
320.000=Twinkle Dance-bg4.jpg=1.000=1=1=0,
321.000=Twinkle Dance-bg5.jpg=1.000=1=1=0,
322.000=Twinkle Dance-bg6.jpg=1.000=1=1=0,
323.000=Twinkle Dance-bg7.jpg=1.000=1=1=0,
324.000=Twinkle Dance-bg8.png=1.000=1=1=0,
325.000=Twinkle Dance-bg9.jpg=1.000=1=1=0,
326.000=Twinkle Dance-bg10.jpg=1.000=1=1=0,
327.000=Twinkle Dance-bg11.jpg=1.000=1=1=0,
328.000=Twinkle Dance-bg12.jpg=1.000=1=1=0,
329.000=Twinkle Dance-bg13.jpg=1.000=0=1=0,
330.000=Twinkle Dance-bg14.jpg=1.000=0=1=0,
331.000=Twinkle Dance-bg15.jpg=1.000=0=1=0,
332.000=Twinkle Dance-bg16.png=1.000=0=1=0,
333.000=Twinkle Dance-bg17.png=1.000=0=1=0,
334.000=Twinkle Dance-bg18.png=1.000=0=1=0,
335.000=Twinkle Dance-bg19.jpg=1.000=0=1=0,
336.000=Twinkle Dance-bg1.jpg=1.000=0=1=0,
337.000=Twinkle Dance-bg2.jpg=1.000=0=1=0,
338.000=Twinkle Dance-bg3.jpg=1.000=0=1=0,
339.000=Twinkle Dance-bg4.jpg=1.000=0=1=0,
340.000=Twinkle Dance-bg5.jpg=1.000=0=1=0,
341.000=Twinkle Dance-bg6.jpg=1.000=0=1=0,
342.000=Twinkle Dance-bg7.jpg=1.000=0=1=0,
343.000=Twinkle Dance-bg8.png=1.000=0=1=0,
344.000=Twinkle Dance-bg9.jpg=1.000=0=1=0,
345.000=Twinkle Dance-bg10.jpg=1.000=0=1=0,
346.000=Twinkle Dance-bg11.jpg=1.000=0=1=0,
347.000=Twinkle Dance-bg12.jpg=1.000=0=1=0,
348.000=Twinkle Dance-bg13.jpg=1.000=0=1=0,
349.000=Twinkle Dance-bg14.jpg=1.000=0=1=0,
350.000=Twinkle Dance-bg15.jpg=1.000=1=1=0,
359.000=Twinkle Dance-bg16.png=1.000=1=1=0,
360.000=Twinkle Dance-bg17.png=1.000=1=1=0,
361.000=Twinkle Dance-bg18.png=1.000=1=1=0,
362.000=Twinkle Dance-bg19.jpg=1.000=1=1=0,
364.000=Twinkle Dance-bg5.jpg=1.000=1=1=0,
369.000=Twinkle Dance-bg.png=1.000=0=1=0,
99999=-nosongbg-=1.000=0=0=0 // don't automatically add -songbackground-
;
#KEYSOUNDS:;
#ATTACKS:;

//---------------dance-single - Nazrininator----------------
#NOTES:
     dance-single:
     Nazrininator:
     Hard:
     8:
     0.511,0.620,0.182,0.293,0.475:
0000
0000
0000
0000
,
0000
0000
0000
0000
,
0000
0000
0000
0000
,
2000
0000
3002
0000
,
0203
0000
0300
0000
,
0002
0000
0000
0000
0000
0000
0000
0000
1003
0000
0000
0100
0000
0000
0010
0000
,
0002
0000
1003
0M00
,
0001
0000
0000
0100
0000
0000
0010
0000
1000
0000
0000
0000
0001
0000
0000
0000
,
1000
0000
0000
0001
0000
0000
0010
0000
0100
0000
0000
0000
0001
0000
0000
0000
,
0200
0000
2300
0000
,
3002
0000
0000
0000
0003
M000
000M
0000
,
1000
0100
1000
0001
0100
0010
0100
0001
,
0100
0010
0100
0010
1000
0001
0010
0100
,
1000
0001
0100
0010
1000
0010
0100
0001
,
1000
0100
1000
0001
0010
0001
0100
0010
,
1000
0000
0000
0010
0000
0000
0MM0
0000
1000
0000
0001
0000
0010
0000
0001
0000
,
0100
0010
0100
0001
1000
0001
1000
0100
,
0010
0100
0010
0001
1000
0100
1000
0001
,
0010
0100
1000
0100
0010
0001
0010
0100
,
1001
0000
0000
0001
0000
0000
1000
0000
0001
0000
0000
1000
0000
0000
0001
0000
,
1000
0000
0000
0010
0000
0000
1000
0000
0010
0000
0000
1000
0000
0000
0010
0000
,
0100
0000
0000
0001
0000
0000
0100
0000
0001
0000
0000
0100
0000
0000
0001
0000
,
0200
0000
0000
0000
0300
0M00
0011
0000
,
1000
0000
0000
0010
0000
0000
1000
0000
0010
0000
0000
1000
0000
0000
0010
0000
,
0100
0000
0000
0001
0000
0000
0100
0000
0001
0000
0000
0100
0000
0000
0001
0000
,
0010
0000
0000
0001
0000
0000
0010
0000
0001
0000
0000
0010
0000
0000
0001
0000
,
0010
0001
0000
1000
0000
0001
0000
1000
,
0001
0000
0000
0010
0000
0000
0100
0000
1001
0000
0000
0000
0000
0000
0000
0000
,
1000
0000
0000
0100
0000
0000
0010
0000
0110
0000
0000
0000
0000
0000
0000
0000
,
0001
0000
0000
0010
0000
0000
0100
0000
1000
0000
0000
0100
0000
0000
0010
0000
,
2002
0000
3003
0000
,
1000
0000
0000
0010
0000
0000
0100
0000
1001
0000
0000
0000
0000
0000
0000
0000
,
0001
0000
0000
0100
0000
0000
0010
0000
0110
0000
0000
0000
0000
0000
0000
0000
,
1000
0000
0000
0010
0000
0000
0100
0000
0010
0000
0000
1000
0000
0000
0001
0000
,
1000
0000
0000
0100
0000
0000
0010
0000
0002
0000
0000
0000
0003
0000
0000
0000
,
4000
0000
0000
3010
,
1000
0000
0010
0100
0000
0001
0000
M000
,
0000
0000
0000
000M
0000
0000
M000
0000
,
0000
0M00
0000
1001
,
0001
0010
0001
1000
0100
1000
0010
0100
,
0001
1000
0010
0100
0001
0010
0100
1000
,
0100
0010
0001
1000
0100
1000
0001
0010
,
0001
0010
0100
1000
0100
1000
0100
0010
,
0001
0010
0100
1000
0000
0001
0100
0010
,
0000
1000
0100
1000
0000
0004
0000
0000
,
0003
1000
0M00
1000
0001
1000
0010
0100
,
0001
0010
0001
0000
0000
0000
1000
0010
1000
0000
0000
0000
0000
0000
0000
0000
,
1000
0010
0010
0100
0010
0010
1000
0010
,
0010
0010
0010
1000
0010
0010
0100
0010
,
1000
0100
0002
0000
0103
1000
0000
0001
,
0000
0100
0010
1000
0100
0010
0001
0010
,
0400
0000
0000
0000
0300
4000
0000
0000
,
3004
0000
0000
0043
0000
0000
0430
0000
,
1300
0010
1000
0100
0010
0100
1000
0001
,
1000
0001
0010
0100
2000
0000
3000
0000
,
1001
0000
0000
0001
0000
0000
1000
0000
0001
0000
0000
1000
0000
0000
0001
0000
,
1000
0000
0000
0010
0000
0000
1000
0000
0010
0000
0000
1000
0000
0000
0010
0000
,
0100
0000
0000
0010
0000
0000
0100
0000
0010
0000
0000
0100
0000
0000
0010
0000
,
0200
0000
0000
0000
0300
0M00
0101
0000
,
0001
0000
0000
1000
0000
0000
0001
0000
1000
0000
0000
0001
0000
0000
1000
0000
,
0001
0000
0000
0010
0000
0000
0001
0000
0010
0000
0000
0001
0000
0000
0010
0000
,
0100
0000
0000
1000
0000
0000
0100
0000
1000
0000
0000
0100
0000
0000
1000
0000
,
0100
1100
0000
1001
0000
0101
0000
0011
,
0001
0000
0000
1000
0000
0000
0001
0000
0100
0000
0000
0000
0110
0000
0000
0000
,
0010
0000
0000
1000
0000
0000
0100
0000
0010
0000
0000
0000
0110
0000
0000
0000
,
0100
0000
0000
1000
0000
0000
0001
0000
1000
0000
0000
0100
0000
0000
0010
0000
,
0002
0000
0003
0000
,
1000
0000
0000
0010
0000
0000
0100
0000
1001
0000
0000
0000
0MM0
0000
0000
0000
,
0001
0000
0000
0100
0000
0000
0010
0000
0110
0000
0000
0000
M00M
0000
0000
0000
,
1000
0000
0000
0100
0000
0000
0010
0000
0001
0000
0000
0010
0000
0000
0100
0000
,
1000
0000
0000
0100
0000
0000
0010
0000
0001
0000
0000
0000
1001
0000
0000
0000
,
1000
0000
0000
0100
0000
0000
0001
0000
0100
0000
0000
0000
1000
0000
0000
0000
,
0001
0000
0000
0100
0000
0000
1000
0000
0100
0000
0000
0000
0001
0000
0000
0000
,
1000
0000
0000
0010
0000
0000
0001
0000
0010
0000
0000
1000
0000
0000
0100
0000
,
0020
0000
0000
0030
,
0001
0000
0000
0010
0000
0000
0001
0000
1000
0000
0000
0000
0110
0000
0000
0000
,
1000
0000
0000
0100
0000
0000
1000
0000
0001
0000
0000
0000
0110
0000
0000
0000
,
2000
3200
0320
0032
,
0023
0230
2300
3200
,
0320
4032
00M0
0M00
,
00M0
0M00
00M0
0M00
,
00M0
0M00
00M0
0M00
,
00M0
0M00
00M0
0M00
,
00M0
0000
0000
0M00
0000
0000
00M0
0000
0000
0M00
0000
0000
00M0
0000
0000
0M00
,
0000
00M0
0M00
00M0
0M00
00M0
0M00
00M0
,
0M00
00M0
0M00
00M0
0M00
00M0
0M00
00M0
0M00
00M0
0M00
00M0
,
0M00
00M0
0M00
00M0
0M00
00M0
0M00
00M0
0M00
00M0
0M00
00M0
0M00
00M0
0M00
00M0
,
0M00
00M0
0M00
00M0
0M00
00M0
0M00
00M0
0M00
00M0
0M00
00M0
0M00
00M0
0M00
00M0
0M00
00M0
0M00
00M0
0M00
00M0
0M00
00M0
,
0M00
00M0
0M00
00M0
0M00
00M0
0M00
00M0
0M00
00M0
0M00
00M0
0M00
00M0
0M00
00M0
0M00
00M0
0M00
00M0
0M00
00M0
0M00
00M0
,
0M00
00M0
0M00
00M0
0M00
00M0
0M00
00M0
0M00
00M0
0M00
00M0
3M03
00M0
0M00
00M0
0M00
00M0
0M01
0000
0000
0000
0000
0000
,
1000
0000
0000
0000
0001
0000
0000
0000
1000
0001
0000
0000
0000
0000
0000
0000
,
0010
0000
0000
0000
0000
0000
0000
0000
0000
0000
0000
0000
0000
2002
0000
0000
0000
0000
0000
0000
0000
0000
0000
0000
0000
0000
0000
0000
0000
0000
0000
0000
0000
0000
0000
0000
0000
0000
0000
0000
0000
0000
0000
0000
0000
0000
0000
0000
,
3003
0000
0000
0MM0
0000
0000
0000
0000
0000
0000
0000
0000
0000
0000
0000
0000
;

//---------------dance-single - Nazrininator----------------
#NOTES:
     dance-single:
     Nazrininator:
     Challenge:
     13:
     0.921,1.000,0.372,0.127,0.851: // measure 1
0000
0000
0000
0000
,  // measure 2
0000
0000
0000
0000
,  // measure 3
0000
0000
0000
0000
,  // measure 4
1000
0100
1000
0100
1000
0000
0001
0000
0010
0001
0010
0001
0010
0000
0100
0000
,  // measure 5
1000
0100
1000
0100
1000
0000
0001
0000
0010
0001
0010
0001
0010
0000
0100
0000
,  // measure 6
1000
0010
1000
0010
1000
0000
0001
0000
0100
0001
0100
0001
0100
0000
0010
0000
,  // measure 7
1000
0010
1000
0010
1000
0000
0001
0000
0100
0001
0100
0001
0100
0000
0010
0000
,  // measure 8
1000
0100
0010
0001
1000
0000
0001
0000
0010
0100
1000
0001
0010
0000
0100
0000
,  // measure 9
1000
0100
0010
0001
1000
0000
0001
0000
0010
0100
1000
0001
0010
0000
0100
0000
,  // measure 10
1000
0010
0100
0001
1000
0000
0001
0000
0100
0010
1000
0001
0100
0000
0010
0000
,  // measure 11
1000
0010
0100
0001
1000
0000
0001
0000
0100
0010
1000
0001
0100
0000
0010
0000
,  // measure 12
1000
0100
0001
0100
1000
0100
0001
0100
,  // measure 13
1000
0100
0010
1000
0100
0010
1000
0100
,  // measure 14
1000
0010
0001
0010
1000
0010
0001
0010
,  // measure 15
1000
0010
0100
1000
0010
0100
1000
0010
,  // measure 16
1000
0000
0000
0100
0000
0000
MMMM
0000
0000
0000
0000
0000
1001
0000
0000
0000
,  // measure 17
1000
0000
0000
0100
0000
0000
0010
0000
0001
0000
0000
0000
0010
0000
0000
0000
,  // measure 18
0200
0000
2300
0000
,  // measure 19
3001
0100
0001
0100
0001
0000
0010
0000
0100
0000
1000
0000
0001
0000
0010
0000
,  // measure 20
1001
0000
0000
0001
0000
0000
0010
0000
1001
0000
0000
0001
0000
0000
0100
0000
,  // measure 21
1001
0000
0000
0001
0000
0000
0010
0000
1001
0000
0000
0001
0000
0000
0100
0000
,  // measure 22
1001
0000
0000
0001
0000
0000
0010
0000
0100
0000
0000
1000
0000
0000
0100
0000
,  // measure 23
0002
0000
0000
0000
0003
000M
0110
0000
,  // measure 24
1100
0000
0000
1000
0000
0000
0010
0000
1100
0000
0000
1000
0000
0000
0001
0000
,  // measure 25
1100
0000
0000
1000
0000
0000
0010
0000
1100
0000
0000
1000
0000
0000
0001
0000
,  // measure 26
1100
0000
0000
1000
0000
0000
0010
0000
0100
0000
0000
0001
0000
0000
0010
0000
,  // measure 27
1000
0110
0000
1100
0000
1001
0000
0011
,  // measure 28
0001
0000
1000
0000
0001
0010
0001
0000
1000
0000
0001
0000
1000
0100
1000
0000
,  // measure 29
0001
0000
1000
0000
0001
0100
0001
0000
1000
0000
0001
0000
1000
0010
1000
0000
,  // measure 30
0001
0000
1000
0000
0001
0010
0100
0000
1000
0000
0001
0000
1000
0100
0010
0000
,  // measure 31
0001
0000
1000
0000
0001
0100
0010
0000
1000
0000
0001
0000
1000
0010
0100
0000
,  // measure 32
0001
0000
1000
0000
0001
1000
0100
0000
1000
0000
0001
0000
1000
0001
0010
0000
,  // measure 33
0001
0000
1000
0000
0001
1000
0010
0000
1000
0000
0001
0000
1000
0001
0010
0000
,  // measure 34
0001
0000
1000
0000
0010
0100
0010
0000
1000
0000
0001
0000
0010
0100
0010
0000
,  // measure 35
0001
0000
1000
0000
0100
0010
0100
0000
1000
0000
0001
0000
0100
0010
0100
0000
,  // measure 36
0001
0010
0001
0010
0100
1000
0100
1000
0001
0010
0100
0010
0001
1000
0010
0100
,  // measure 37
0010
0100
0001
0010
0001
1000
0100
1000
0010
0100
0001
0010
0100
1000
0100
0010
,  // measure 38
0001
0000
1000
0001
0000
1000
0001
0000
1000
0100
0000
1000
0100
0000
0010
0001
,  // measure 39
0100
0010
1000
0100
0010
0001
0000
0010
0100
1000
0100
0010
0001
0010
0100
1000
,  // measure 40
0001
0010
0001
0010
0100
1000
0100
1000
0001
0010
0001
0010
0100
1000
0100
1000
,  // measure 41
0100
0010
0100
0010
0001
1000
0001
1000
0100
0010
0100
0010
0001
1000
0001
1000
,  // measure 42
0010
0100
0010
0100
0001
1000
0001
1000
0010
0100
0010
0100
0001
1000
0001
1000
,  // measure 43
0010
1000
0010
1000
0001
0100
0001
0100
0010
1000
0010
1000
0001
0100
0001
0100
,  // measure 44
0001
0010
0100
1000
0100
1000
0001
0010
,  // measure 45
0100
1000
0010
0100
0010
1000
0100
0010
,  // measure 46
0001
1000
0100
1000
0001
0010
0100
1000
,  // measure 47
0001
0010
0001
0000
1000
0000
0001
0100
0001
0000
0100
0000
0010
0000
1000
0000
,  // measure 48
0001
0000
0010
M00M
0010
0000
1000
0000
0010
M00M
0010
0000
0001
0000
0010
M00M
,  // measure 49
0010
0000
1000
0000
0010
M00M
0010
0000
0001
0000
0010
M00M
0010
0000
1000
0000
,  // measure 50
0001
0010
0100
1000
0100
1000
0001
0100
,  // measure 51
0010
1000
0010
1000
0001
0010
0100
1000
,  // measure 52
0004
0000
0000
0000
0003
0040
0000
0000
,  // measure 53
0430
0000
0000
4300
0000
0000
3004
0000
,  // measure 54
1003
0100
1000
0100
0010
0001
0010
0001
1000
0100
1000
0100
0010
0001
0010
0001
,  // measure 55
1000
0100
0010
0001
0010
0100
1000
0100
4000
0000
0000
0000
3000
0000
0000
0000
,  // measure 56
1001
0000
0000
0100
0000
0000
0010
0000
1001
0000
0000
0010
0000
0000
0100
0000
,  // measure 57
1001
0000
0000
0100
0000
0000
0010
0000
1001
0000
0000
0010
0000
0000
0100
0000
,  // measure 58
1001
0000
0000
0001
0000
0000
0010
0000
0100
0000
0000
1000
0000
0000
0100
0000
,  // measure 59
0002
0000
0000
0000
0003
000M
1100
0000
,  // measure 60
1010
0000
0000
0010
0000
0000
0100
0000
1010
0000
0000
1000
0000
0000
0100
0000
,  // measure 61
1010
0000
0000
0010
0000
0000
0100
0000
1010
0000
0000
1000
0000
0000
0100
0000
,  // measure 62
1010
0000
0000
0010
0000
0000
0100
0000
1000
0000
0000
0100
0000
0000
0010
0000
,  // measure 63
1000
0011
0000
1100
0000
0101
0000
1010
,  // measure 64
1000
0000
0000
0000
0001
0010
0001
0010
0001
0000
0000
0000
1001
0000
0000
0000
,  // measure 65
1000
0000
0000
0000
0001
0100
0010
0100
0001
0000
0000
0000
0110
0000
0000
0000
,  // measure 66
1000
0100
0010
0001
1000
0100
0010
0100
1000
0100
0010
0001
0010
0001
0010
0001
,  // measure 67
0010
1100
1001
1010
,  // measure 68
1000
0100
1000
0100
0010
0001
0010
0001
1000
0100
0010
0001
1000
0100
0010
0001
,  // measure 69
1000
0001
0010
0100
0010
0001
1000
0010
1000
0001
0010
0001
1000
0000
0000
0000
,  // measure 70
0001
0010
0001
0100
0010
0100
0001
1000
,  // measure 71
0001
0100
0010
1000
0010
0100
0001
0100
0010
1000
0010
0100
0001
0100
0010
1000
,  // measure 72
0001
0000
0010
0000
0100
0010
0001
0000
1000
0000
0100
0000
0010
0100
1000
0000
,  // measure 73
0001
0000
0100
0000
0010
0100
0001
0000
1000
0000
0010
0000
0100
0010
1000
0000
,  // measure 74
0001
0000
1000
0000
0100
0010
0100
0000
1000
0000
0001
0000
0100
0010
0100
0000
,  // measure 75
0001
0000
1000
0000
0010
0100
0010
0000
1000
0000
0001
0000
0010
0100
0010
0000
,  // measure 76
0001
0010
0100
0000
1000
0100
0010
0001
1000
0010
0100
0010
1000
0001
0100
0010
,  // measure 77
1000
0010
0100
0001
0010
0100
0010
0001
0100
0010
0100
0010
1000
0100
0010
0001
,  // measure 78
1000
0100
0010
0001
1000
0100
0010
0001
,  // measure 79
1000
0100
0010
0001
1000
0100
1000
0100
,  // measure 80
0010
0001
1001
0000
1001
0000
1001
0000
,  // measure 81
1001
1001
1001
1001
,  // measure 82
1001
1001
1001
1000
,  // measure 83
0001
1000
0001
1000
,  // measure 84
0001
1000
0001
1000
,  // measure 85
0001
1000
0001
1000
,  // measure 86
0001
1000
0001
1000
,  // measure 87
0001
1000
0001
1000
,  // measure 88
0001
0000
1000
0000
00M4
4M00
00M0
0M00
,  // measure 89
00M0
0M00
00M0
0M00
00M0
0M00
00M0
0M00
,  // measure 90
00M0
0M00
00M0
0M00
00M0
0M00
30M3
0000
,  // measure 91
1000
0000
0000
0000
0001
0000
0000
0000
1000
0001
0000
0000
0000
0000
0000
0000
,  // measure 92
1000
0000
0000
0000
0000
0000
0000
0000
0000
0000
0000
0000
0000
2222
0000
0000
0000
0000
0000
0000
0000
0000
0000
0000
0000
0000
0000
0000
0000
0000
0000
0000
0000
0000
0000
0000
0000
0000
0000
0000
0000
0000
0000
0000
0000
0000
0000
0000
,  // measure 93
3333
0000
0000
0000
;

//---------------dance-single - Jingle Bells----------------
#NOTES:
     dance-single:
     Jingle Bells:
     Edit:
     15:
     0.970,1.000,0.372,0.127,1.000:
0000
0000
0000
0000
,
0000
0000
0000
0000
,
0000
0000
0000
0000
,
1000
0100
1000
0100
1000
0000
0001
0000
0010
0001
0010
0001
0010
0000
0100
0000
,
1000
0100
1000
0100
1000
0000
0001
0000
0010
0001
0010
0001
0010
0000
0100
0000
,
1000
0010
1000
0010
1000
0000
0001
0000
0100
0001
0100
0001
0100
0000
0010
0000
,
1000
0010
1000
0010
1000
0000
0001
0000
0100
0001
0100
0001
0100
0000
0010
0000
,
1000
0100
0010
0001
1000
0000
0001
0000
0010
0100
1000
0001
0010
0000
0100
0000
,
1000
0100
0010
0001
1000
0000
0001
0000
0010
0100
1000
0001
0010
0000
0100
0000
,
1000
0010
0100
0001
1000
0000
0001
0000
0100
0010
1000
0001
0100
0000
0010
0000
,
1000
0010
0100
0001
1000
0000
0001
0000
0100
0010
1000
0001
0100
0000
0010
0000
,
1000
0100
0001
0100
1000
0100
0001
0100
,
1000
0100
0010
1000
0100
0010
1000
0100
,
1000
0010
0001
0010
1000
0010
0001
0010
,
1000
0010
0100
1000
0010
0100
1000
0010
,
1000
0000
0000
0100
0000
0000
MMMM
0000
0000
0000
0000
0000
1001
0000
0000
0000
,
1000
0000
0000
0100
0000
0000
0010
0000
0001
0000
0000
0000
0010
0000
0000
0000
,
0200
0000
2300
0000
,
3001
0100
0001
0100
0001
0000
0010
0000
0100
0000
1000
0000
0001
0000
0010
0000
,
1001
0000
0000
0001
0000
0000
0010
0000
1001
0000
0000
0001
0000
0000
0100
0000
,
1001
0000
0000
0001
0000
0000
0010
0000
1001
0000
0000
0001
0000
0000
0100
0000
,
1001
0000
0000
0001
0000
0000
0010
0000
0100
0000
0000
1000
0000
0000
0100
0000
,
0002
0000
0000
0000
0003
000M
0110
0000
,
1100
0000
0000
1000
0000
0000
0010
0000
1100
0000
0000
1000
0000
0000
0001
0000
,
1100
0000
0000
1000
0000
0000
0010
0000
1100
0000
0000
1000
0000
0000
0001
0000
,
1100
0000
0000
1000
0000
0000
0010
0000
0100
0000
0000
0001
0000
0000
0010
0000
,
1000
0110
0000
1100
0000
1001
0000
0011
,
0001
0000
1000
0000
0001
0010
0001
0000
1000
0000
0001
0000
1000
0100
1000
0000
,
0001
0000
1000
0000
0001
0100
0001
0000
1000
0000
0001
0000
1000
0010
1000
0000
,
0001
0000
1000
0000
0001
0010
0100
0000
1000
0000
0001
0000
1000
0100
0010
0000
,
0001
0000
1000
0000
0001
0100
0010
0000
1000
0000
0001
0000
1000
0010
0100
0000
,
0001
0000
1000
0000
0001
1000
0100
0000
1000
0000
0001
0000
1000
0001
0010
0000
,
0001
0000
1000
0000
0001
1000
0010
0000
1000
0000
0001
0000
1000
0001
0010
0000
,
0001
0000
1000
0000
0010
0100
0010
0000
1000
0000
0001
0000
0010
0100
0010
0000
,
0001
0000
1000
0000
0100
0010
0100
0000
1000
0000
0001
0000
0100
0010
0100
0000
,
0001
0010
0001
0010
0100
1000
0100
1000
0001
0010
0100
0010
0001
1000
0010
0100
,
0010
0100
0001
0010
0001
1000
0100
1000
0010
0100
0001
0010
0100
1000
0100
0010
,
0001
0000
1000
0001
0000
1000
0001
0000
1000
0100
0000
1000
0100
0000
0010
0001
,
0100
0010
1000
0100
0010
0001
0000
0010
0100
1000
0100
0010
0001
0010
0100
1000
,
0001
0010
0001
0010
0001
0010
0100
1000
0100
1000
0100
1000
0001
0010
0001
0010
0001
0010
0100
1000
0100
1000
0100
1000
,
0100
0010
0100
0010
0100
0010
0001
1000
0001
1000
0001
1000
0100
0010
0100
0010
0100
0010
0001
1000
0001
1000
0001
1000
,
0010
0100
0010
0100
0010
0100
0001
1000
0001
1000
0001
1000
0010
0100
0010
0100
0010
0100
0001
1000
0001
1000
0001
1000
,
0010
1000
0010
1000
0010
1000
0001
0100
0001
0100
0001
0100
0010
1000
0010
1000
0010
1000
0001
0100
0001
0100
0001
0100
,
0001
0010
0100
1000
0100
1000
0001
0010
,
0100
1000
0010
0100
0010
1000
0100
0010
,
0001
1000
0100
1000
0001
0010
0100
1000
,
0001
0010
0001
0000
1000
0000
0001
0100
0001
0000
0100
0000
0010
0000
1000
0000
,
0001
0000
0010
M00M
0010
0000
1000
0000
0010
M00M
0010
0000
0001
0000
0010
M00M
,
0010
0000
1000
0000
0010
M00M
0010
0000
0001
0000
0010
M00M
0010
0000
1000
0000
,
0001
0010
0100
1000
0100
1000
0001
0100
,
0010
1000
0010
1000
0001
0010
0100
1000
,
0004
0000
0000
0000
0003
0040
0000
0000
,
0430
0000
0000
4300
0000
0000
3004
0000
,
1003
0100
1000
0100
1000
0100
0010
0001
0010
0001
0010
0001
1000
0100
1000
0100
1000
0100
0010
0001
0010
0001
0010
0001
,
1000
0100
0010
0001
0010
0100
1000
0100
0010
0001
0010
0100
4000
0000
0000
0000
0000
0000
3000
0000
0000
0000
0000
0000
,
1001
0000
0000
0100
0000
0000
0010
0000
1001
0000
0000
0010
0000
0000
0100
0000
,
1001
0000
0000
0100
0000
0000
0010
0000
1001
0000
0000
0010
0000
0000
0100
0000
,
1001
0000
0000
0001
0000
0000
0010
0000
0100
0000
0000
1000
0000
0000
0100
0000
,
0002
0000
0000
0000
0003
000M
1100
0000
,
1010
0000
0000
0010
0000
0000
0100
0000
1010
0000
0000
1000
0000
0000
0100
0000
,
1010
0000
0000
0010
0000
0000
0100
0000
1010
0000
0000
1000
0000
0000
0100
0000
,
1010
0000
0000
0010
0000
0000
0100
0000
1000
0000
0000
0100
0000
0000
0010
0000
,
1000
0011
0000
1100
0000
0101
0000
1010
,
1000
0000
0000
0000
0001
0010
0001
0010
0001
0000
0000
0000
1001
0000
0000
0000
,
1000
0000
0000
0000
0001
0100
0010
0100
0001
0000
0000
0000
0110
0000
0000
0000
,
1000
0100
0010
0001
1000
0100
0010
0100
1000
0100
0010
0001
0010
0001
0010
0001
,
0010
1100
1001
1010
,
1000
0100
1000
0100
0010
0001
0010
0001
1000
0100
0010
0001
1000
0100
0010
0001
,
1000
0001
0010
0100
0010
0001
1000
0010
1000
0001
0010
0001
1000
0000
0000
0000
,
0001
0010
0001
0100
0010
0100
0001
1000
,
0001
0100
0010
1000
0010
0100
0001
0100
0010
1000
0010
0100
0001
0100
0010
1000
,
0001
0000
0010
0000
0100
0010
0001
0000
1000
0000
0100
0000
0010
0100
1000
0000
,
0001
0000
0100
0000
0010
0100
0001
0000
1000
0000
0010
0000
0100
0010
1000
0000
,
0001
0000
1000
0000
0100
0010
0100
0000
1000
0000
0001
0000
0100
0010
0100
0000
,
0001
0000
1000
0000
0010
0100
0010
0000
1000
0000
0001
0000
0010
0100
0010
0000
,
0001
0010
0100
0000
1000
0100
0010
0001
1000
0010
0100
0010
1000
0001
0100
0010
,
1000
0010
0100
0001
0010
0100
0010
0001
0100
0010
0100
0010
1000
0100
0010
0001
,
1000
0100
0010
0001
1000
0010
0100
0001
,
1000
0100
0010
0001
1000
0100
1000
0100
,
0010
0001
0000
1001
0000
0000
1001
0000
0000
1001
0000
0000
,
1001
1001
1001
1001
,
1001
1001
1001
1000
,
0001
1000
0001
1000
,
0001
1000
0001
1000
,
0001
1000
0001
1000
,
0001
1000
0001
1000
,
0001
1000
0001
1000
,
0001
0000
1000
0000
00M4
4M00
00M0
0M00
,
00M0
0M00
00M0
0M00
00M0
0M00
00M0
0M00
,
00M0
0M00
00M0
0M00
00M0
0M00
30M3
0000
,
1000
0000
0000
0000
0001
0000
0000
0000
1000
0001
0000
0000
0000
0000
0000
0000
,
1000
0000
0000
0000
0000
0000
0000
0000
0000
0000
0000
0000
0000
2222
0000
0000
0000
0000
0000
0000
0000
0000
0000
0000
0000
0000
0000
0000
0000
0000
0000
0000
0000
0000
0000
0000
0000
0000
0000
0000
0000
0000
0000
0000
0000
0000
0000
0000
,
3333
0000
0000
0000
;

//---------------dance-single - Nazrininator----------------
#NOTES:
     dance-single:
     Nazrininator:
     Medium:
     6:
     0.397,0.474,0.000,0.222,0.218:
0000
0000
0000
0000
,
0000
0000
0000
0000
,
0000
0000
0000
0000
,
2000
0000
3002
0000
,
0203
0000
0300
0000
,
0002
0000
0000
0000
0000
0000
0000
0000
1003
0000
0000
0100
0000
0000
0010
0000
,
0002
0000
2003
3000
,
0001
0000
0000
0100
0000
0000
0010
0000
1000
0000
0000
0000
0001
0000
0000
0000
,
1000
0000
0000
0010
0000
0000
0100
0000
0001
0000
0000
0000
0010
0000
0000
0000
,
2000
0000
3200
0000
,
0302
0000
0003
0000
,
1000
0001
1000
0000
0001
0010
0001
0000
,
1000
0100
1000
0000
0001
1000
0001
0000
,
1000
0100
0010
0000
0001
0010
0100
0000
,
1000
0010
0100
0000
0001
0100
0010
0000
,
1000
0000
0000
0100
0000
0000
0000
0000
0000
0000
0000
0000
1000
0000
0000
0000
,
0001
0000
0000
1000
0000
0000
0100
0000
0010
0000
0000
0000
0001
0000
0000
0000
,
2000
0000
3002
0000
,
0023
0000
0000
0030
0000
0000
0000
0000
,
1000
0000
0000
0100
0000
0000
1000
0000
0001
0000
0000
0010
0000
0000
0001
0000
,
1000
0000
0000
0001
0000
0000
1000
0000
0001
0000
0000
1000
0000
0000
0001
0000
,
1000
0000
0000
0100
0000
0000
0010
0000
0001
0000
0000
0010
0000
0000
0100
0000
,
2000
0000
3000
0001
,
1000
0000
0000
0010
0000
0000
1000
0000
0001
0000
0000
0100
0000
0000
0001
0000
,
0100
0000
0000
0010
0000
0000
0100
0000
0010
0000
0000
0100
0000
0000
0010
0000
,
1000
0000
0000
0010
0000
0000
0100
0000
0001
0000
0000
0100
0000
0000
0010
0000
,
1000
0001
0000
1000
0000
0001
0000
1000
,
0001
0000
0000
0010
0000
0000
0100
0000
1000
0000
0000
0000
0000
0000
0000
0000
,
0001
0000
0000
0100
0000
0000
0010
0000
1000
0000
0000
0000
0000
0000
0000
0000
,
0001
0000
0000
0010
0000
0000
0100
0000
1000
0000
0000
0100
0000
0000
0010
0000
,
0002
0000
0003
0000
,
1000
0000
0000
0100
0000
0000
0010
0000
0001
0000
0000
0000
0000
0000
0000
0000
,
1000
0000
0000
0010
0000
0000
0100
0000
0001
0000
0000
0000
0000
0000
0000
0000
,
1000
0000
0000
0100
0000
0000
0010
0000
0001
0000
0000
0010
0000
0000
0100
0000
,
1000
0000
0000
0010
0000
0000
0100
0000
0002
0000
0000
0000
0003
0000
0000
0000
,
4000
0000
0000
3010
,
1000
0000
0010
1000
0000
0010
0000
000M
,
0000
0000
0000
000M
0000
0000
000M
0000
,
0000
000M
0000
1000
,
0001
1000
0001
0000
1000
0001
1000
0000
,
0100
0010
0100
0000
0010
0100
0010
0000
,
0001
0100
0001
0000
1000
0010
1000
0000
,
0001
1000
0001
0000
1000
0001
1000
0000
,
0001
0010
0001
0010
0000
0001
0000
0000
,
0000
1000
0000
0000
0000
0002
0000
0000
,
1003
0100
1000
0010
,
1000
0100
1000
0100
1000
0000
0000
0000
,
0001
0010
0010
0001
,
1000
0010
0010
1000
,
0001
0010
0100
1000
,
0100
0010
0001
1000
,
0002
0000
0000
0000
0003
2000
0000
0000
,
3200
0000
0000
0320
0000
0000
0032
0000
,
1003
0010
1000
0000
0001
0100
0001
0000
,
1000
0100
1000
0100
2000
0000
3000
0000
,
0001
0000
0000
1000
0000
0000
0100
0000
1000
0000
0000
0001
0000
0000
0010
0000
,
0001
0000
0000
1000
0000
0000
0010
0000
1000
0000
0000
0001
0000
0000
0100
0000
,
0001
0000
0000
1000
0000
0000
0001
0000
1000
0000
0000
0001
0000
0000
1000
0000
,
0002
0000
0003
1000
,
0001
0000
0000
0100
0000
0000
0010
0000
0100
0000
0000
0001
0000
0000
0010
0000
,
0100
0000
0000
0010
0000
0000
0001
0000
1000
0000
0000
0100
0000
0000
1000
0000
,
0100
0000
0000
0010
0000
0000
0001
0000
0010
0000
0000
0100
0000
0000
1000
0000
,
0001
1000
0000
0001
0000
1000
0000
0001
,
1000
0000
0000
0100
0000
0000
1000
0000
0001
0000
0000
0000
0000
0000
0000
0000
,
1000
0000
0000
0010
0000
0000
1000
0000
0001
0000
0000
0000
0000
0000
0000
0000
,
1000
0000
0000
0100
0000
0000
1000
0000
0001
0000
0000
0100
0000
0000
0001
0000
,
2000
0000
3000
0000
,
0001
0000
0000
0010
0000
0000
0001
0000
1000
0000
0000
0000
0000
0000
0000
0000
,
0001
0000
0000
0100
0000
0000
0001
0000
1000
0000
0000
0000
0000
0000
0000
0000
,
0001
0000
0000
0010
0000
0000
0001
0000
1000
0000
0000
0010
0000
0000
1000
0000
,
0001
0000
0000
0010
0000
0000
0100
0000
1000
0000
0000
0000
0000
0000
0000
0000
,
0001
0000
0000
1000
0000
0000
0100
0000
0010
0000
0000
0000
0000
0000
0000
0000
,
0001
0000
0000
1000
0000
0000
0010
0000
0100
0000
0000
0000
0000
0000
0000
0000
,
0001
0000
0000
1000
0000
0000
0010
0000
0100
0000
0000
0001
0000
0000
1000
0000
,
0200
0000
0300
0000
,
1000
0000
0000
0100
0000
0000
0010
0000
0001
0000
0000
0000
0000
0000
0000
0000
,
1000
0000
0000
0010
0000
0000
0100
0000
0001
0000
0000
0000
0000
0000
0000
0000
,
1000
0100
0010
0100
,
1000
0100
0010
0001
,
1000
0002
0000
0000
,
0000
0000
0000
0000
,
0000
0000
0000
0000
,
0000
0000
0000
0000
,
0000
0000
0000
0000
,
0000
0000
0000
0000
,
0000
0000
0000
0000
,
0000
0000
0000
0000
,
0000
0000
0000
0000
,
0000
0000
0000
0000
,
0000
0000
0000
0003
,
0000
0000
0000
0000
,
1000
0000
0000
0000
0000
0000
0000
0000
0000
0000
0000
0000
0000
0002
0000
0000
0000
0000
0000
0000
0000
0000
0000
0000
0000
0000
0000
0000
0000
0000
0000
0000
0000
0000
0000
0000
0000
0000
0000
0000
0000
0000
0000
0000
0000
0000
0000
0000
,
0003
0000
0000
M000
0000
0000
0000
0000
0000
0000
0000
0000
0000
0000
0000
0000
;

//---------------dance-single - Nazrininator----------------
#NOTES:
     dance-single:
     Nazrininator:
     Easy:
     2:
     0.171,0.328,0.000,0.040,0.004:
0000
0000
0000
0000
,
0000
0000
0000
0000
,
0000
0000
0000
0000
,
1000
0000
0100
0000
,
0010
0000
0000
0000
,
0001
0000
1000
0001
,
1000
0000
0001
0000
,
1000
0100
1000
0000
,
0001
0010
0001
0000
,
1000
0000
0001
0000
,
1000
0000
0000
0000
,
0001
0000
1000
0000
,
0001
0000
0000
0000
,
0000
0000
0000
0000
,
0000
0000
0000
0000
,
1000
0000
0000
0001
,
1000
0000
0001
0010
,
0100
0000
1000
0000
,
0001
0000
0000
0000
,
1000
0000
0001
0000
,
1000
0000
0100
0000
,
0010
0000
0001
0000
,
1000
0000
0000
0000
,
0001
0000
1000
0000
,
0001
0000
0010
0000
,
0100
0000
1000
0000
,
0001
0000
0000
0000
,
1000
0000
0001
0000
,
1000
0000
0001
0000
,
1000
0000
0100
0000
,
0010
0000
0000
0000
,
0001
0000
1000
0000
,
0001
0000
1000
0000
,
0001
0000
0010
0000
,
0100
0000
1000
0000
,
0004
0000
0000
0003
,
0000
0000
0000
0000
,
0000
0000
0000
0000
,
0000
0000
0000
0001
,
1000
0000
0001
0000
,
1000
0000
0001
0000
,
0100
0000
0010
0000
,
0100
0000
0010
0000
,
1000
0000
0100
0000
,
0010
0000
0001
0000
,
1000
0000
0001
0000
,
1000
0000
0000
0001
0000
0000
0000
0000
,
1000
0100
1000
0100
,
0010
0001
0010
0001
,
1000
0100
1000
0000
,
0001
0010
0001
0000
,
2000
0000
0000
0000
,
3002
0000
0023
0000
,
0031
1000
0001
1000
,
0010
0100
0010
0000
,
1000
0000
0100
0000
,
1000
0000
0001
0000
,
1000
0000
0010
0000
,
1000
0000
0000
0000
,
0001
0000
0010
0000
,
0001
0000
1000
0000
,
0001
0000
0100
0000
,
0001
0000
0000
0000
,
1000
0000
0001
0000
,
1000
0000
0001
0000
,
1000
0000
0010
0000
,
0100
0000
0000
0000
,
0001
0000
1000
0000
,
0001
0000
1000
0000
,
0001
0000
0100
0000
,
0010
0000
0100
0000
,
0001
0000
1000
0000
,
0001
0000
0010
0000
,
0001
0000
1000
0000
,
0010
0000
0000
0000
,
1000
0000
0001
0000
,
1000
0000
0001
0000
,
1000
0000
0000
0010
,
0000
0000
1000
0000
,
0000
0001
0000
0000
,
0000
0000
0000
0000
,
0000
0000
0000
0000
,
0000
0000
0000
0000
,
0000
0000
0000
0000
,
0000
0000
0000
0000
,
0000
0000
0000
0000
,
0000
0000
0000
0000
,
0000
0000
0000
0000
,
0000
0000
0000
0000
,
0000
0000
0000
0000
,
0000
0000
0001
0000
,
1000
0000
0000
0000
0000
0000
0000
0000
0000
0000
0000
0000
0000
0002
0000
0000
0000
0000
0000
0000
0000
0000
0000
0000
0000
0000
0000
0000
0000
0000
0000
0000
0000
0000
0000
0000
0000
0000
0000
0000
0000
0000
0000
0000
0000
0000
0000
0000
,
0003
0000
0000
0000
;

//---------------dance-single - Nazrininator----------------
#NOTES:
     dance-single:
     Nazrininator:
     Beginner:
     1:
     0.084,0.108,0.008,0.008,0.000:
0000
0000
0000
0000
,
0000
0000
0000
0000
,
0000
0000
0000
0000
,
1000
0000
0000
0000
,
0001
0000
0000
0000
,
0100
0000
0000
0000
,
0010
0000
0000
0000
,
1000
0000
0000
0000
,
0100
0000
0000
0000
,
0010
0000
0000
0000
,
0001
0000
0000
0000
,
1000
0000
0000
0000
,
0100
0000
0000
0000
,
0000
0000
0000
0000
,
0000
0000
0000
0000
,
1000
0000
0000
0000
,
0001
0000
0000
0000
,
0010
0000
0000
0000
,
0001
0000
0000
0000
,
1000
0000
0000
0000
,
0100
0000
0000
0000
,
0010
0000
0000
0000
,
0001
0000
0000
0000
,
1000
0000
0000
0000
,
0100
0000
0000
0000
,
0010
0000
0000
0000
,
0100
0000
0000
0000
,
0010
0000
0000
0000
,
0001
0000
0000
0000
,
1000
0000
0000
0000
,
0100
0000
0000
0000
,
1000
0000
0000
0000
,
0001
0000
0000
0000
,
1000
0000
0000
0000
,
0001
0000
0000
0000
,
2000
0000
0000
3000
,
0000
0000
0000
0000
,
0000
0000
0000
0000
,
0000
0000
0000
0000
,
0001
0000
0000
0000
,
0010
0000
0000
0000
,
0100
0000
0000
0000
,
0010
0000
0000
0000
,
0001
0000
0000
0000
,
1000
0000
0000
0000
,
0001
0000
0000
0000
,
1000
0000
0000
0000
,
0010
0000
0000
0000
,
1000
0000
0000
0000
,
0001
0000
0000
0000
,
1000
0000
0000
0000
,
0001
0000
0000
0000
,
0010
0000
0000
0000
,
0100
0000
0000
0000
,
1000
0000
0000
0000
,
0001
0000
0000
0000
,
0010
0000
0000
0000
,
0100
0000
0000
0000
,
1000
0000
0000
0000
,
0001
0000
0000
0000
,
0100
0000
0000
0000
,
0010
0000
0000
0000
,
1000
0000
0000
0000
,
0001
0000
0000
0000
,
0010
0000
0000
0000
,
0001
0000
0000
0000
,
1000
0000
0000
0000
,
0100
0000
0000
0000
,
0010
0000
0000
0000
,
0001
0000
0000
0000
,
1000
0000
0000
0000
,
0001
0000
0000
0000
,
1000
0000
0000
0000
,
0010
0000
0000
0000
,
0100
0000
0000
0000
,
0001
0000
0000
0000
,
1000
0000
0000
0000
,
0001
0000
0000
0000
,
0000
0000
0000
0000
,
0000
1000
0000
0000
,
0000
0000
0000
0000
,
0000
0000
0000
0000
,
0000
0000
0000
0000
,
0000
0000
0000
0000
,
0000
0000
0000
0000
,
0000
0000
0000
0000
,
0000
0000
0000
0000
,
0000
0000
0000
0000
,
0000
0000
0000
0000
,
0000
0000
0000
0000
,
0000
0000
0000
0000
,
1001
0000
0000
0000
;
