#TITLE:träumerei;
#SUBTITLE:幻影ヲ駆ケル太陽 il sole penetra le illusioni;
#ARTIST:LiSA;
#TITLETRANSLIT:Traumerei;
#SUBTITLETRANSLIT:Gen`ei o Kakeru Taiyou;
#ARTISTTRANSLIT:Lisa;
#GENRE:Otaku's Dream 3rd Mix (Pad);
#CREDIT:Itsugo15;
#BANNER:Traumerei-bn.jpg;
#BACKGROUND:Traumerei-bg.jpg;
#LYRICSPATH:Traumerei.lrc;
#CDTITLE:Itsugo15 SimifileS.png;
#MUSIC:Traumerei.mp3;
#OFFSET:0.225;
#SAMPLESTART:42.725;
#SAMPLELENGTH:30.000;
#SELECTABLE:YES;
#LISTSORT:;
#BPMS:0.000=95.000,8.000=190.000,124.000=95.000,126.000=190.000,262.000=95.000;
#STOPS:;
#TICKCOUNT:0.000=6;
#BGCHANGES:0.500=Traumerei.avi=1.000=1=1=0,
267.000=Traumerei.avi=0.000=0=1=0,
99999=-nosongbg-=1.000=0=0=0 // don't automatically add -songbackground-
;
#KEYSOUNDS:;
#ATTACKS:;

//---------------dance-single - Itsugo15----------------
#NOTES:
     dance-single:
     Itsugo15:
     Challenge:
     11:
     0.843,1.000,0.982,0.216,0.183: // measure 1
0000
0000
0000
0000
,  // measure 2
0000
0000
0000
0000
,  // measure 3
1001
1000
0100
0010
0002
0000
0103
0010
,  // measure 4
1000
0001
0020
0000
0130
1000
0001
0010
,  // measure 5
0200
0000
1300
0001
0100
0010
2000
0000
,  // measure 6
3010
0000
0100
0000
0001
0000
1000
0000
0100
1000
0100
0000
1000
0001
0100
0000
,  // measure 7
0101
0000
0110
0000
0010
1000
0001
0000
,  // measure 8
1001
0000
1100
0000
0100
0010
0001
0010
,  // measure 9
0011
0000
1100
0000
0001
0100
0101
0000
,  // measure 10
1010
0000
0100
0001
0101
0000
1001
0000
,  // measure 11
1100
0000
1000
0000
0100
0010
0001
0000
,  // measure 12
0011
0000
0001
0000
0100
0010
1000
0000
,  // measure 13
1010
0000
1000
0100
0001
0100
1000
0001
,  // measure 14
0100
0000
0001
0000
0100
0000
0001
0000
1000
0100
1000
0100
0010
0001
1000
0000
,  // measure 15
1001
0000
0001
0001
0100
0010
1000
1010
,  // measure 16
0000
1001
1000
0001
0001
0100
0010
1000
,  // measure 17
0100
0100
0010
0001
1000
0010
0100
0110
,  // measure 18
0000
0110
0000
0100
0001
0010
0100
1000
,  // measure 19
0100
0001
0100
0010
0001
1000
0010
1010
,  // measure 20
0000
0011
0000
0001
1000
0010
0001
0010
,  // measure 21
0100
0001
1000
0100
0001
0100
1000
1100
,  // measure 22
0000
0000
1001
0000
0000
0000
0001
0100
0010
0000
1000
0000
1000
0000
0100
0000
,  // measure 23
1100
0000
0100
0020
0001
0000
0031
0000
,  // measure 24
0011
0002
0203
2300
,  // measure 25
3200
0000
0320
0030
2010
0000
0001
0000
,  // measure 26
3001
0010
0011
0210
,  // measure 27
1300
0000
1100
1000
0002
0000
1000
0000
,  // measure 28
1003
0000
0002
0000
0203
0000
0320
0030
,  // measure 29
0110
0000
0100
0001
0101
0000
0001
1000
,  // measure 30
1100
0100
0010
0001
1000
0010
0100
0001
,  // measure 31
1000
0010
0100
0000
0001
0100
0010
1000
0100
0010
0100
1000
0001
1000
0001
0100
,  // measure 32
0010
1000
0100
0020
0000
0130
1000
0001
1001
0000
0001
0000
0100
0000
0010
0000
,  // measure 33
1000
0100
0010
0001
0011
0000
0011
0001
,  // measure 34
1001
0000
1001
1000
1010
0000
0010
0100
,  // measure 35
0001
1000
0100
0010
0100
1000
0001
0100
,  // measure 36
0010
0000
1000
0000
0001
0000
0010
0100
0110
0000
0000
0000
0010
0000
0001
0000
,  // measure 37
1000
0000
0010
1000
0001
0010
0100
1000
,  // measure 38
0001
0100
0010
1000
1010
0000
1000
0001
,  // measure 39
1001
0000
0001
0011
0000
1000
1100
0100
,  // measure 40
0010
0100
1000
0100
0010
0100
1000
0001
1001
0000
0000
0000
0010
0000
0100
0000
,  // measure 41
0001
0010
0100
1000
1100
0000
1100
1000
,  // measure 42
1001
0000
1001
0001
0101
0000
0100
0010
,  // measure 43
1000
0001
0010
0100
0010
0001
1000
0010
,  // measure 44
0100
0001
1000
0100
1100
0000
0100
1000
,  // measure 45
0001
0000
0100
0001
1000
0100
0010
0001
,  // measure 46
1000
0010
0100
0001
0101
0000
0001
1000
,  // measure 47
1001
0000
0000
0000
1000
0000
1100
0000
0100
1000
0100
1000
0001
1000
0001
1000
,  // measure 48
0010
1000
0010
1000
0001
0000
0000
0000
1001
0000
0000
0000
0001
0000
0101
0000
,  // measure 49
0000
1000
1010
0000
0010
0110
0000
0100
,  // measure 50
0101
0000
1100
0000
0110
0000
0010
0011
,  // measure 51
0000
0100
1100
0000
0001
1001
0000
0100
,  // measure 52
0110
0000
1010
0000
0011
0000
0001
1100
,  // measure 53
0000
1000
0101
0000
0010
1100
0000
0100
,  // measure 54
0011
0000
1001
0000
0110
0000
1001
1001
,  // measure 55
0000
0110
0110
0000
0010
0001
0100
0010
,  // measure 56
1000
0100
1000
0001
1001
1000
0010
0100
,  // measure 57
0001
0010
0100
1000
1100
0000
1001
0001
,  // measure 58
0101
0000
1001
1000
1100
0000
0100
0010
,  // measure 59
0001
0100
0010
1000
0010
0100
0001
1000
,  // measure 60
0100
0000
0010
0000
0001
0000
1000
0010
1010
0000
0000
0000
1000
0000
0001
0000
,  // measure 61
0010
0000
0100
1000
0001
0100
0010
1000
,  // measure 62
0100
0010
0001
1000
1001
0000
0001
0100
,  // measure 63
0020
0000
0000
0000
1030
0000
0100
0000
0010
0001
0010
0100
0010
0001
1000
0001
,  // measure 64
1000
0010
0100
0000
0001
0000
0000
0000
0101
0000
0000
0000
1000
0000
1100
0000
,  // measure 65
0000
0100
0110
0000
0010
0011
0000
1000
,  // measure 66
1001
0110
2002
0000
,  // measure 67
0000
0000
0000
0000
0000
0000
0000
0000
0000
3003
M00M
0000
0000
0000
0000
0000
;

//---------------dance-single - Itsugo15----------------
#NOTES:
     dance-single:
     Itsugo15:
     Beginner:
     1:
     0.139,0.216,0.183,0.043,0.000:
0000
0000
0000
0000
,
0000
0000
0000
0000
,
1000
0000
0000
0000
,
0010
0000
0000
0000
,
0100
0000
0000
0000
,
0001
0000
0000
0000
,
0101
0000
0000
0000
,
0001
0000
0000
0000
,
0010
0000
0000
0000
,
0100
0000
1000
0000
,
1100
0000
0000
0000
,
1000
0000
0000
0000
,
0010
0000
0000
0000
,
0200
0000
0000
0000
,
0301
0000
0000
0000
,
1000
0000
0000
0000
,
0100
0000
0000
0000
,
0010
0000
0000
0000
,
0001
0000
0000
0000
,
1000
0000
0000
0000
,
0010
0000
0000
0000
,
0100
0000
0000
0000
,
0110
0000
0000
0000
,
1010
0000
0000
0000
,
1001
0000
0000
0000
,
0011
0000
0000
0000
,
0110
0000
0000
0000
,
1100
0000
0000
0000
,
1001
0000
0000
0000
,
0101
0000
0000
0000
,
0110
0000
0000
0000
,
2000
0000
3010
0000
,
0100
0000
0001
0000
,
0000
0000
1000
0000
,
0000
0000
0100
0000
,
0000
0000
0010
0000
,
0000
0000
0001
0000
,
0000
0000
1000
0000
,
0000
0000
0010
0000
,
0000
0000
0100
0000
,
0001
0000
0010
0000
,
0000
0000
0100
0000
,
0000
0000
1000
0000
,
0000
0000
0001
0000
,
0000
0000
0100
0000
,
0000
0000
0010
0000
,
0000
0000
1000
0000
,
0000
0000
1010
0000
,
0000
0000
1000
0000
,
0000
0000
1001
0000
,
0000
0000
0001
0000
,
0000
0000
0011
0000
,
0000
0000
0010
0000
,
0000
0000
0110
0000
,
0000
0000
0100
0000
,
0000
0000
1000
0000
,
0001
0000
0100
0000
,
0000
0000
0010
0000
,
0000
0000
1000
0000
,
0000
0000
0001
0000
,
0000
0000
0010
0000
,
0000
0000
0100
0000
,
0000
0000
1000
0000
,
0000
0000
1100
0000
,
0000
0000
0001
0000
,
0000
0000
0202
0000
,
0000
0000
0000
0000
0000
0303
0000
0000
;

//---------------dance-single - Itsugo15----------------
#NOTES:
     dance-single:
     Itsugo15:
     Easy:
     4:
     0.293,0.324,0.216,0.129,0.000:
0000
0000
0000
0000
,
0000
0000
0000
0000
,
0001
0000
0001
0000
,
0010
0000
0010
0000
,
0100
0000
0100
0000
,
1000
0000
1000
0000
,
1100
0000
1000
0000
,
0001
0000
0100
0000
,
0010
0000
1000
0000
,
0001
0000
0010
0000
,
0011
0000
0001
0000
,
1000
0000
0010
0000
,
0100
0000
0001
0000
,
1000
0000
0100
0000
,
1100
0000
1000
0000
,
0001
0000
0001
0000
,
0100
0000
0010
0000
,
1000
0000
1000
0000
,
0001
0000
0010
0000
,
0100
0000
0100
0000
,
1000
0000
0010
0000
,
0100
0000
0001
0000
,
0101
0000
0001
0000
,
1001
0000
1000
0000
,
1100
0000
0100
0000
,
0110
0000
0010
0000
,
0011
0000
0001
0000
,
1001
0000
1000
0000
,
1010
0000
0010
0000
,
0100
0000
0001
0000
,
2000
0000
0000
0000
,
3002
0000
0000
0003
0011
0000
0000
0000
,
0001
0010
0100
0000
,
1000
0001
0100
0000
,
0010
1000
0001
0001
,
1000
1000
1001
0000
,
0001
0010
0100
0000
,
1000
0010
0100
0000
,
0002
0000
2003
0000
,
3200
0000
0000
0300
1100
0000
0000
0000
,
1000
0100
0010
0000
,
0001
1000
0010
0000
,
0100
0001
1000
1000
,
0001
0001
1001
0000
,
1000
0100
0010
0000
,
0001
0100
0010
0000
,
2000
0000
3002
0000
,
0013
0000
0000
0000
0011
0000
0000
0001
,
0000
0000
1000
0000
0000
0010
0000
0000
,
0100
0000
0100
0000
0100
0000
0000
0010
,
0000
0000
1000
0000
0000
0001
0000
0000
,
0010
0000
0010
0000
0010
0000
0000
0001
,
0000
0000
1000
0000
0000
0010
0000
0000
,
0100
0000
0001
0000
1000
0000
0000
0100
,
0000
0000
0010
0000
0000
0001
0000
0000
,
1000
0010
1010
0000
,
1000
0010
0100
0000
,
0001
1000
0100
0000
,
0010
0001
1000
1000
,
0001
0001
1001
0000
,
1000
0010
0100
0000
,
0001
0010
0100
0000
,
2000
0000
3002
0000
,
0203
0000
0000
0300
0101
0000
0000
0001
,
0000
0000
1000
0000
0000
1001
0000
0000
,
0001
0010
0022
0000
,
0000
0000
0000
0033
;

//---------------dance-single - Itsugo15----------------
#NOTES:
     dance-single:
     Itsugo15:
     Hard:
     9:
     0.681,0.719,0.561,0.270,0.027:
0000
0000
0000
0000
,
0000
0000
0000
0000
,
1000
0010
1000
0001
0020
0000
0031
0010
,
0001
1000
0020
0000
1030
0100
1000
0001
,
0200
0000
0301
0100
0001
1000
0200
0000
,
1300
0001
0100
0010
1000
0000
0001
0000
,
1001
0000
0011
0000
0001
0010
0001
0000
,
1000
0000
1001
0000
0001
1000
0010
0000
,
0100
0001
1000
0000
0001
0010
0100
0000
,
1000
0001
0100
0000
0010
1000
0001
0000
,
1001
0000
1100
0000
1000
0100
1000
0000
,
0001
0000
1001
0000
0001
1000
0010
0000
,
0100
0001
1000
0000
0100
0010
0001
0000
,
0010
0000
0100
0000
1000
0000
0001
0000
0100
0000
0001
0100
0001
0000
1000
0000
,
1001
0000
1001
0000
0001
0010
0100
0110
,
0000
0110
0000
0100
1000
0100
0010
0000
,
0001
1000
0001
0000
1000
0010
0100
0110
,
0000
0110
0000
0100
0001
1000
0100
0000
,
1000
0001
1000
0000
0001
1000
0010
1010
,
0000
0101
0000
0001
1000
0100
0010
0000
,
0100
1000
0100
0000
1000
0001
0100
0101
,
0000
1010
0000
1000
0001
0010
0100
0000
,
0210
0010
0010
0010
,
0320
0032
2003
3020
,
0230
0010
0010
0010
,
0320
0100
0100
0100
,
0230
0302
2003
0001
,
3002
1000
0013
0100
,
1000
0000
0001
0100
0010
0000
1000
0001
,
0020
0100
1000
0031
,
1000
0010
1000
0001
0010
0100
1000
0100
,
0010
0001
0010
0100
0000
1000
0000
0001
1001
0000
0000
0000
0101
0000
0000
0000
,
1001
0000
2100
0000
3010
0000
0100
0001
,
1000
0100
0010
0001
1000
0000
0010
1000
,
0001
0000
0010
0001
1000
0010
0100
0010
,
1000
0001
1000
0100
1100
0000
1000
0001
,
0100
0000
0001
1000
0100
0010
0001
0100
,
0010
1000
0001
0100
0101
0000
0001
1000
,
1001
0000
1000
0200
0000
0310
0000
0001
,
2000
0000
0010
3000
1010
0000
1001
0000
,
0011
0000
1002
0000
1003
0000
0001
0100
,
0001
0010
0100
1000
0001
0000
0100
0001
,
1000
0000
0100
1000
0001
0100
0010
1000
,
0001
0010
0100
1000
1100
0000
1000
0001
,
0100
0000
0001
1000
0100
0010
0001
0100
,
0010
1000
0001
0010
0011
0000
0001
1000
,
1001
0000
0001
0020
0000
0130
0000
1000
,
0002
0000
0100
0003
0101
0000
0100
0010
,
0000
0010
1000
0000
1000
0001
0000
0001
,
0010
0000
0011
0000
0110
0000
0100
1000
,
0000
1000
0010
0000
0010
0100
0000
0100
,
0001
0000
0101
0000
1001
0000
1000
0100
,
0000
0010
0001
0000
1000
0010
0000
0100
,
0001
0000
0101
0000
1010
0000
1000
0001
,
0000
0010
0001
0000
1000
0001
0100
0000
,
0010
1000
0001
0000
1001
0000
0011
0000
,
1100
0000
0201
0000
0301
0000
0100
0010
,
1000
0001
0010
0100
1000
0000
0001
0100
,
0010
0000
1000
0001
0010
0100
1000
0100
,
0010
0001
1000
0100
1100
0000
1000
0001
,
0100
0000
0001
1000
0100
0010
0001
0100
,
0010
1000
0001
0010
0011
0000
0001
1000
,
1001
0000
0001
0100
0000
0100
0010
1000
,
0010
0100
0001
0000
0101
0000
0000
1001
,
0000
0000
1100
0000
0000
0110
0000
0000
,
0011
1010
2002
0000
,
0000
0000
0000
0000
0000
3003
0000
0000
;

//---------------dance-single - itsugo15----------------
#NOTES:
     dance-single:
     itsugo15:
     Medium:
     6:
     0.529,0.612,0.550,0.032,0.022:
0000
0000
0000
0000
,
0000
0000
0000
0000
,
1000
0010
1000
0010
1000
0000
0001
1000
,
0001
1000
0001
0000
0010
0001
0010
0001
,
0010
0000
0001
1000
0001
1000
0001
0000
,
1000
0010
0100
0001
2000
0000
3001
0000
,
1001
0001
0010
0010
,
0001
0100
0010
0010
,
1000
0001
0001
0010
,
0100
0100
1000
0001
,
1001
1000
0010
0010
,
0100
0001
1000
0100
,
0010
0100
1000
1000
,
0001
0100
0010
1000
,
0010
1000
0010
0000
1000
0001
1000
0000
,
0100
0000
0010
0000
0001
0010
0001
0000
,
1000
0001
1000
0000
0010
1000
0010
0000
,
0100
0000
0001
0000
0100
0001
1000
0000
,
0001
0010
0001
0000
1000
0001
1000
0000
,
0100
0000
1000
0000
0001
0100
0010
0000
,
1000
0010
1000
0000
0001
1000
0001
0000
,
0010
0100
1000
0001
,
1001
0001
0100
0000
,
0101
0100
0010
0000
,
0110
0010
1000
0000
,
1010
1000
0001
0000
,
1001
0001
0010
0000
,
0011
0010
0100
1000
,
1100
0001
0101
1000
,
1010
0001
0011
0001
,
0100
0001
0100
0000
0010
1000
0010
0000
,
1000
0001
1000
0001
0000
0010
0000
0100
0110
0000
0000
0000
0010
0000
0000
0000
,
0011
0000
0001
0000
1001
0000
1000
0010
,
0100
0000
0100
0010
1000
0000
0001
1000
,
0001
0010
0100
1000
,
1100
0000
0001
0000
0101
0000
0100
0001
,
1000
0001
0010
0100
,
1000
0001
1001
0001
,
0011
1000
1010
0001
,
1000
0001
1000
0001
1001
0000
1000
0000
,
1010
0000
0010
0000
0110
0000
0010
0100
,
0001
0000
0001
1000
0100
0000
1000
0001
,
1000
0010
0100
0001
,
0101
0000
1000
0000
1100
0000
0100
1000
,
0001
1000
0010
0100
,
0001
1000
1001
1000
,
1010
0000
0010
0100
0000
0100
0001
0000
,
1000
0001
1000
0000
1001
0000
0000
0011
,
0000
0000
0110
0000
0000
0100
0000
0000
,
1000
0000
0010
0000
1010
0000
0000
0110
,
0000
0000
0101
0000
0000
0001
0000
0000
,
1000
0000
0100
0000
1100
0000
0000
0011
,
0000
0000
1001
0000
0000
0001
0000
0000
,
0100
0000
0010
0000
0110
0000
0000
1010
,
0000
0000
1001
0000
0001
0010
0100
0000
,
1000
0001
0100
0000
0101
0000
1000
0000
,
1100
0000
0001
0000
0011
0000
0010
0100
,
1000
0000
1000
0001
0100
0000
0001
1000
,
0001
0010
0100
1000
,
1100
0000
0001
0000
0101
0000
0100
0001
,
1000
0001
0010
0100
,
1000
0001
1001
0001
,
0011
0000
0010
0100
0000
1000
0001
0100
,
0001
1000
0100
0000
1100
0000
0000
0110
,
0000
0000
0011
0000
0000
1001
0000
0000
,
1000
0010
2020
0000
,
0000
0000
0000
3030
;
