#TITLE:The Everlasting Guilty Crown;
#SUBTITLE:ギルティクラウン;
#ARTIST:EGOIST;
#TITLETRANSLIT:The Everlasting Guilty Crown;
#SUBTITLETRANSLIT:Guilty Crown;
#ARTISTTRANSLIT:Egoist;
#GENRE:Otaku's Dream 2nd Mix (Pad);
#CREDIT:Itsugo;
#BANNER:The Everlasting Guilty Crown-bn.png;
#BACKGROUND:The Everlasting Guilty Crown-bg.png;
#LYRICSPATH:The Everlasting Guilty Crown.lrc;
#CDTITLE:Itsugo15 SimifileS.png;
#MUSIC:The Everlasting Guilty Crown.ogg;
#OFFSET:2.103;
#SAMPLESTART:49.567;
#SAMPLELENGTH:30.000;
#SELECTABLE:YES;
#LISTSORT:;
#BPMS:0.000=86.010,12.000=172.020,72.000=86.010,74.000=172.020,134.000=86.010,136.000=172.020,232.000=86.010;
#STOPS:;
#TICKCOUNT:0.000=6;
#BGCHANGES:3.625=The Everlasting Guilty Crown.avi=1.000=0=1=0,
239.000=The Everlasting Guilty Crown-bg.jpg=1.000=1=0=0,
99999=-nosongbg-=1.000=0=0=0 // don't automatically add -songbackground-
;
#KEYSOUNDS:;
#ATTACKS:;

//---------------dance-single - Itsugo15----------------
#NOTES:
     dance-single:
     Itsugo15:
     Challenge:
     10:
     0.740,1.000,0.031,0.309,0.283:
0000
0000
0000
0000
,
0000
0000
0000
0000
,
0000
0000
0000
0000
,
1000
0001
0010
0010
0001
1000
0010
0010
,
1000
0001
0100
0100
0001
1000
0100
0100
,
0010
0001
0100
0010
1000
0001
0100
1000
,
0100
0010
1000
0001
0010
0100
0001
0100
,
1000
0000
0100
0000
0010
0000
0001
1000
0100
0000
0010
0000
0001
0000
1000
0010
,
0100
0000
0001
0000
1000
0000
0100
0010
0001
0000
0010
0000
0100
0000
1000
0001
,
0200
0000
0000
0020
0300
0000
2000
0030
0200
3000
0000
0002
0300
0000
0203
0000
,
0020
0300
0000
2000
0030
0000
0020
3000
0002
0030
0000
2000
0003
0000
0002
3003
,
1001
0001
0100
0010
1000
0100
0010
0001
,
1000
0100
0001
0100
1000
0001
0100
0010
,
1000
0010
0001
0010
1000
0001
0100
0010
,
1000
0100
1000
0010
0100
0001
0010
0001
,
0100
0100
0010
1000
0001
0001
0010
0001
,
1000
1000
0001
1000
0010
0010
0100
0100
,
0002
0010
1000
0100
,
2003
0000
0000
0000
3200
0000
0320
0000
0031
0000
1000
0000
0100
1000
0100
0000
,
1000
0000
0001
0000
0100
0001
0100
0000
0010
0000
1000
0000
0010
1000
0010
0000
,
1000
0000
0001
0000
0010
0001
0010
0000
0100
0000
1000
0000
0001
1000
0001
0000
,
0100
0000
0010
0000
1000
0010
1000
0000
0001
0000
0010
0000
0100
0010
0100
0000
,
0010
0000
0001
0000
1000
0001
1000
0000
0010
0000
0100
0000
0001
1000
0100
0000
,
0010
0000
0001
0000
1000
0010
0100
0000
0001
0000
0001
0000
1000
0000
1000
0000
,
0100
0010
0001
1000
0100
1000
0001
0100
0010
0000
1000
0000
0001
1000
0001
0000
,
1000
0000
0100
0000
0010
0100
0010
0000
0001
0000
1000
0000
0010
1000
0010
0000
,
0100
0000
0001
0000
1000
0001
1000
0000
0100
0000
0010
0000
0001
1000
0010
0000
,
1000
0000
0001
0000
0100
0001
1000
0000
0100
0000
0100
0000
0001
0000
0001
0000
,
0100
0000
1000
0000
0001
0010
0100
1000
0002
0000
0000
0000
0103
0000
2000
0000
,
0000
3001
0020
0000
1030
0200
0000
0301
,
1000
1000
0010
0010
0001
0001
0100
0100
,
1000
1000
0001
0001
0010
0010
1000
1000
,
0001
0000
0001
0000
0010
0000
0010
0000
0100
1000
0010
0100
0001
0010
0001
0100
,
0010
1000
0100
0010
0001
0010
0100
1000
0004
0000
0000
0000
0403
0000
0340
0000
,
1030
1000
0100
0100
0001
0001
0100
0100
,
0010
0001
1000
0100
0010
1000
0010
0001
,
1000
1000
0010
0010
0001
0001
1000
1000
,
0100
0001
1000
0020
0000
0130
0001
0000
,
0101
0000
1100
0100
0020
0000
0031
0100
,
2000
0000
3100
0020
0000
1030
0001
0010
,
0100
1000
0001
0200
0000
1300
0100
0001
,
0100
0010
1000
0001
0010
1000
0010
0001
,
1000
1000
0010
0010
0001
0001
1000
1000
,
0100
0001
1000
0010
0100
0001
0100
0010
,
1000
1000
0100
0100
0001
0001
0100
1000
,
0001
0010
0100
2000
0000
3001
0100
0010
,
1000
1000
0001
0010
0001
0001
1000
0010
,
0010
0100
0001
1000
1000
0100
0010
0001
,
0001
1000
0010
0001
0010
0100
0001
0100
,
1000
0100
0001
1000
0010
0100
0001
1000
,
0100
0100
0010
0001
1000
1000
0010
0100
,
0100
0001
1000
0100
0100
0010
0001
1000
,
1000
0010
0100
0010
1000
0001
0010
0001
,
0100
0001
0010
0100
1000
0001
0010
0100
,
1000
0010
1000
0001
1000
0100
1000
0001
,
0100
0001
1000
0001
0010
0001
1000
0001
,
0100
0001
0100
0001
1000
0001
1000
0001
0010
0001
0010
0001
0010
0100
0010
0100
,
1000
0100
1000
0001
1000
0001
0100
0001
0100
0001
0100
0010
1000
0100
1000
0010
,
0100
0002
0000
0000
0000
0000
0000
0000
0000
0000
0000
0000
0000
0000
0000
0000
0000
0000
0000
0000
0000
0000
0000
0000
0000
0000
0000
0000
0000
0000
0000
0000
,
0000
0003
0000
0000
0000
0000
0000
0000
0000
0000
0000
0000
0000
0000
0000
0000
;

//---------------dance-single - Itsugo15----------------
#NOTES:
     dance-single:
     Itsugo15:
     Beginner:
     2:
     0.099,0.149,0.000,0.082,0.000: // measure 1
0000
0000
0000
0000
,  // measure 2
0000
0000
0000
0000
,  // measure 3
0000
0000
0000
0000
,  // measure 4
0001
0000
0000
0000
,  // measure 5
0100
0000
0000
0000
,  // measure 6
0010
0000
0000
0000
,  // measure 7
1000
0000
0000
0000
,  // measure 8
0002
0000
0000
0000
,  // measure 9
0023
0000
0000
0000
,  // measure 10
0230
0000
0000
0000
,  // measure 11
2300
0000
0000
0000
,  // measure 12
3001
0000
0000
0000
,  // measure 13
1000
0000
0000
0000
,  // measure 14
0100
0000
0000
0000
,  // measure 15
0010
0000
0000
0000
,  // measure 16
0001
0000
0000
0000
,  // measure 17
0100
0000
0000
0000
,  // measure 18
0010
0000
0000
0000
,  // measure 19
2000
0000
3001
0000
,  // measure 20
0000
0000
0010
0000
,  // measure 21
0000
0000
0100
0000
,  // measure 22
0000
0000
1000
0000
,  // measure 23
0000
0000
0001
0000
,  // measure 24
0000
0000
0100
0000
,  // measure 25
0000
0000
0010
0000
,  // measure 26
0000
0000
1000
0000
,  // measure 27
0000
0000
0100
0000
,  // measure 28
0000
0000
1000
0000
,  // measure 29
0000
0000
0010
0000
,  // measure 30
0000
0000
0100
0000
,  // measure 31
0000
0000
0001
0000
,  // measure 32
0000
0000
0010
0000
,  // measure 33
0000
0000
0001
0000
,  // measure 34
0000
0000
2000
0000
,  // measure 35
3010
0000
0010
0000
,  // measure 36
0100
0000
0000
0000
,  // measure 37
0001
0000
0001
0000
,  // measure 38
1000
0000
0000
0000
,  // measure 39
0100
0000
0000
0000
,  // measure 40
0010
0000
0000
0000
,  // measure 41
0001
0000
0000
0000
,  // measure 42
0100
0000
0000
0000
,  // measure 43
0010
0000
0010
0000
,  // measure 44
1000
0000
0000
0000
,  // measure 45
0001
0000
0001
0000
,  // measure 46
0010
0000
0000
0000
,  // measure 47
0200
0000
0000
0000
,  // measure 48
0000
0000
0000
0000
,  // measure 49
1300
0000
0000
0000
,  // measure 50
0001
0000
0000
0000
,  // measure 51
0200
0000
0000
0000
,  // measure 52
0000
0000
0000
0000
,  // measure 53
0310
0000
0000
0000
,  // measure 54
1000
0000
0000
0000
,  // measure 55
0001
0000
0000
0000
,  // measure 56
0010
0000
0000
0000
,  // measure 57
0100
0000
0000
0000
,  // measure 58
1000
0000
0000
0000
,  // measure 59
0001
0000
0000
0000
;

//---------------dance-single - Itsugo15----------------
#NOTES:
     dance-single:
     Itsugo15:
     Easy:
     4:
     0.228,0.358,0.010,0.216,0.000:
0000
0000
0000
0000
,
0000
0000
0000
0000
,
0000
0000
0000
0000
,
0001
0000
1000
0000
,
0010
0000
1000
0000
,
0001
0000
0010
0000
,
0100
0000
1000
0000
,
0002
0000
0000
0000
,
2003
0000
0000
0000
,
3020
0000
0000
0000
,
0230
0000
0000
0000
,
0301
0000
1000
0000
,
0100
0000
1000
0000
,
0001
0000
0010
0000
,
0001
0000
0100
0000
,
0010
0000
1000
0000
,
0100
0000
1000
0000
,
0010
0000
0100
0000
,
0002
1000
1003
0100
,
0000
0010
0000
0001
,
0000
1000
0000
0100
,
0000
1000
0000
0010
,
0000
0100
0000
0001
,
0000
0100
0000
0010
,
0000
1000
0000
0001
,
0000
0010
0000
0100
,
0000
1000
0000
0100
,
0000
0010
0000
0001
,
0000
0100
0000
0010
,
0000
1000
0000
0001
,
0000
0010
0000
0100
,
0000
1000
0000
0001
,
0000
0100
0020
0000
,
0000
0000
2030
0010
,
3001
0001
1000
1000
,
0100
0010
0001
1000
,
0010
0010
0100
0100
,
0001
1000
0100
0010
,
0002
0000
2003
0000
,
3020
0000
0230
0000
,
0301
0100
0010
0000
,
1000
0100
0010
0000
,
0001
0001
1000
1000
,
0100
0010
0001
1000
,
0010
0010
0100
0100
,
0001
0010
0100
1000
,
0002
0000
0203
0000
,
0320
0000
2030
0000
,
3001
0000
1000
0000
,
0100
0000
0010
0001
,
2000
0000
3020
0000
,
0230
0000
0302
0000
,
1003
0000
0100
0000
,
0010
0000
0001
1000
,
0010
0000
0100
0000
,
0001
0000
1000
0000
,
0002
1000
1000
1000
,
2003
0001
0001
3001
,
1001
0000
0000
0000
;

//---------------dance-single - Itsugo15----------------
#NOTES:
     dance-single:
     Itsugo15:
     Medium:
     6:
     0.366,0.422,0.196,0.134,0.000:
0000
0000
0000
0000
,
0000
0000
0000
0000
,
0000
0000
0000
0000
,
1001
0001
1000
0010
,
1010
0010
0100
0001
,
0101
0001
1001
1000
,
1100
0100
0010
0001
,
2000
0000
0000
3010
0020
0000
0000
0130
,
0200
0000
0000
0301
0002
0000
0000
1003
,
1000
0100
0010
0001
,
0010
0100
1000
0001
,
1001
0001
0100
0010
,
0010
1000
1000
0100
,
0001
0100
1000
0001
,
0100
1000
0100
0010
,
1000
1000
0001
0001
,
0010
0010
0100
1000
,
0002
1000
0000
1000
,
2003
0000
3010
0100
0001
0000
0101
0000
,
1000
1010
0010
0100
,
0001
0010
0100
1100
,
0010
0011
0001
1000
,
0100
1000
0001
0100
,
1000
0100
0001
0100
,
0010
1000
0001
0010
,
1000
0010
0001
0001
,
1000
1000
0100
0010
,
0001
1000
0010
0100
,
1000
0001
0010
0100
,
0001
1000
0100
0010
,
0001
1000
0100
0100
,
0010
0010
0001
0001
,
1000
1000
2002
0000
,
0000
0000
0003
3001
,
1000
0100
0001
1000
,
0100
0001
1000
1000
,
0001
0100
1000
0001
,
0100
1000
0001
0001
,
1001
1000
1100
0001
,
0101
0100
0110
1000
,
0001
0010
1000
0010
,
0001
0100
1000
0100
,
0001
0010
1000
0001
,
0010
1000
0001
0001
,
1000
0010
0001
1000
,
0010
0001
1000
1000
,
2001
0100
0100
3100
,
1002
0100
0100
0103
,
2001
0010
0010
3010
,
1002
0010
1000
0103
,
0010
1000
0100
0001
,
0100
1000
0001
0100
,
1000
0100
0010
1000
,
0001
0010
0100
0001
,
0100
0100
1000
1000
,
0001
0001
0100
0100
,
0010
1000
0001
0010
,
0001
1000
0010
0100
,
0002
0000
0003
0000
;

//---------------dance-single - Itsugo15----------------
#NOTES:
     dance-single:
     Itsugo15:
     Hard:
     8:
     0.566,0.567,0.021,0.463,0.021:
0000
0000
0000
0000
,
0000
0000
0000
0000
,
0000
0000
0000
0000
,
0001
1000
0010
0100
0000
0000
0001
1000
,
0100
0010
0000
0000
0001
1000
0100
0010
,
0001
0010
0100
1000
0000
0000
0001
0100
,
0010
1000
0000
0000
0010
0100
0001
1000
,
0200
0000
0000
0010
0320
0000
0000
0001
,
0032
0000
0000
1000
2003
0000
0000
3010
,
0010
0000
0000
0100
0000
0000
0001
0000
1000
0000
0000
0100
0000
0000
0010
0000
,
0001
0000
0000
1000
0000
0000
0010
0000
0100
0000
0000
0001
0000
0000
1000
0000
,
1001
0001
0010
0100
0000
0000
1000
0010
,
0100
0001
0000
1000
0010
0100
0001
1000
,
0100
0010
0001
1000
0000
0000
0100
0010
,
0001
1000
0000
0000
0100
0010
0001
1000
,
0010
0100
0001
0010
0100
1000
0100
0010
,
0001
1000
0010
0100
0001
1000
0100
0010
,
0002
0010
1000
0100
,
2003
0000
3200
0320
0031
1000
0010
1000
,
0001
0010
0001
0100
0010
1000
0100
0010
,
0001
1000
0001
0100
1000
0100
0010
1000
,
0001
0010
0100
0010
0001
1000
0100
0010
,
0100
0001
0100
0010
0001
1000
0001
0100
,
0010
1000
0001
0010
0001
1000
0010
1000
,
0100
1000
0001
0100
0001
0010
0100
1000
,
0100
0010
0001
1000
0010
0100
0001
0100
,
0010
1000
0001
0010
0100
1000
0001
0010
,
0100
1000
0001
0100
0010
1000
0001
0100
,
0010
1000
0001
0010
0200
0300
1000
1000
,
0000
0010
0010
0000
0100
0100
0000
0001
,
1000
0001
1000
0100
0001
0100
1000
0010
,
0001
0010
1000
0001
0100
1000
0100
0001
,
0010
1000
0010
0001
4000
0000
0000
0000
,
0000
0000
0000
0000
3002
0000
0200
0003
,
0320
0032
0203
0320
,
0031
1000
0100
0010
0001
0001
0010
0100
,
2000
3020
0230
2300
,
3010
0001
1000
1000
0100
0010
0001
1000
,
1001
0000
0001
0100
0020
0000
1030
0100
,
0020
0000
0031
1000
0000
1000
0001
0100
,
0010
0001
0010
0100
0000
1000
0100
0001
,
0100
0010
1000
0001
0010
0100
1000
0001
,
0200
0320
2030
3002
,
0013
0100
1000
1000
0100
0010
0001
1000
,
0020
0230
0302
2003
,
3100
0010
0001
0001
0100
0010
1000
0010
,
0200
0302
2003
3200
,
0320
0032
2003
3020
,
0230
0302
0203
0320
,
2030
0000
3002
0000
0013
0100
1000
0001
,
0200
0010
0010
1000
,
1000
0010
0010
0001
,
0001
0010
0310
1000
,
0001
0000
0010
0000
0001
0000
1000
0100
,
0010
0001
1000
0001
,
0010
0001
0100
0010
,
1000
0010
0100
0010
1000
0100
0010
0100
,
1000
0001
0100
0001
1000
0001
0010
0100
,
1000
0000
0000
0000
;
