#TITLE:TERMINATED;
#SUBTITLE:境界線上のホライゾン;
#ARTIST:茅原実里;
#TITLETRANSLIT:Terminated;
#SUBTITLETRANSLIT:kyoukai Senjou no Horizon;
#ARTISTTRANSLIT:Chihara Minori;
#GENRE:Otaku's Dream 3rd Mix (Pad);
#CREDIT:Itsugo15;;
#BANNER:TERMINATED-bn.jpg;
#BACKGROUND:TERMINATED-bg.jpg;
#LYRICSPATH:TERMINATED.lrc;
#CDTITLE:Itsugo15 SimifileS.png;
#MUSIC:TERMINATED.mp3;
#OFFSET:-1.172;
#SAMPLESTART:59.520;
#SAMPLELENGTH:30.000;
#SELECTABLE:YES;
#LISTSORT:;
#BPMS:0.000=156.050;
#STOPS:;
#TICKCOUNT:0.000=6;
#BGCHANGES:-2.200=TERMINATED.avi=1.000=1=1=0,
225.000=TERMINATED.avi=0.000=0=1=0,
99999=-nosongbg-=1.000=0=0=0 // don't automatically add -songbackground-
;
#KEYSOUNDS:;
#ATTACKS:;

//---------------dance-single - Itsugo----------------
#NOTES:
     dance-single:
     Itsugo:
     Challenge:
     10:
     0.833,0.819,0.585,0.455,0.433: // measure 1
0000
0000
0000
0000
,  // measure 2
0000
0000
0000
0000
,  // measure 3
0000
0000
0000
0000
,  // measure 4
0000
0000
0000
0000
,  // measure 5
1001
1000
0001
0010
1000
0010
0100
1000
,  // measure 6
0100
0001
1000
0001
0100
0010
0001
0100
,  // measure 7
0010
1000
0001
0010
1000
0010
0001
0022
,  // measure 8
0033
0001
0001
1000
1000
0010
0010
0100
,  // measure 9
0200
0000
0000
0302
0000
0000
2003
0000
,  // measure 10
3200
0302
0023
2030
,  // measure 11
3002
0000
0013
0100
0000
0110
0000
1001
,  // measure 12
0000
4004
0000
0000
0000
0000
0000
3003
,  // measure 13
1000
0001
1000
0001
1000
0001
1000
0001
,  // measure 14
1000
0010
1000
0010
1000
0010
1000
0010
,  // measure 15
0100
0001
0100
0001
0100
0001
0100
0001
,  // measure 16
0100
0010
0100
0010
0100
0010
0100
0010
,  // measure 17
0100
1000
0100
0010
0100
0001
1000
0100
,  // measure 18
0010
0100
0001
0100
0010
0100
1000
0100
,  // measure 19
0010
0100
0010
0001
1000
0001
1000
0010
,  // measure 20
0100
0000
0001
0000
0100
0000
0010
0000
1000
0000
0001
0010
0100
1000
0100
0010
,  // measure 21
0001
0000
1000
0000
1001
0000
0001
0000
0100
0001
0100
0001
0100
0000
0010
0000
,  // measure 22
1000
0000
0001
0000
1001
0000
1000
0000
0100
1000
0100
1000
0100
0000
0010
0000
,  // measure 23
0001
0000
0100
0000
0101
0000
0100
0000
0010
1000
0010
1000
0010
0000
1000
0000
,  // measure 24
0001
0000
0010
0000
0011
0000
0010
0000
0100
1000
0100
1000
0100
0000
0010
0000
,  // measure 25
0110
0000
0010
0001
1000
0000
0001
0000
1001
0000
1000
0010
0100
0000
0001
0000
,  // measure 26
0101
0000
0100
0010
1000
0000
0001
0000
1001
0000
1000
0100
0010
0001
0010
0100
,  // measure 27
2M00
0000
3000
1MM1
0000
M1M1
0000
M22M
,  // measure 28
0330
0000
0010
0000
1000
0000
0100
0000
0010
0000
0001
0010
0100
1000
0100
0010
,  // measure 29
0001
0000
1000
0001
0100
0000
0010
0000
0110
0000
0010
1000
0001
0000
0010
0000
,  // measure 30
0011
0000
0010
0001
1000
0000
0100
0000
1100
0000
1000
0001
0100
0000
0010
0000
,  // measure 31
0110
0000
0010
1000
0001
0000
0010
0000
0011
0000
0010
0100
1000
0000
0100
0000
,  // measure 32
1100
0000
1000
0100
1000
0000
0001
0100
0001
0000
1000
0010
1000
0000
0001
0010
,  // measure 33
0002
1003
0010
1000
0001
0100
0001
1000
,  // measure 34
0200
0310
0001
0100
0010
1000
0100
0010
,  // measure 35
0002
0000
0000
0000
0000
0000
0000
0000
0000
0000
0000
0000
0000
0000
0000
0003
,  // measure 36
0011
0000
0000
1001
0000
0000
0202
0000
0303
0000
0002
0000
2000
0000
3003
0000
,  // measure 37
2200
0000
3300
0220
0330
0020
0002
0033
,  // measure 38
1001
0000
0000
0110
0000
0000
1001
0000
0001
1000
0010
0100
0001
1000
0100
0010
,  // measure 39
0001
0000
0010
0000
0011
0000
0001
1000
0010
0000
1000
0000
1010
0000
0010
0100
,  // measure 40
0001
0000
0100
0000
0101
0000
0001
1000
0100
0000
1000
0010
0100
0000
0010
1000
,  // measure 41
0002
0000
0013
0200
0000
1300
0010
0100
,  // measure 42
0001
0000
0100
0000
0010
0000
1000
0100
0010
0100
1000
0001
0100
0010
1000
0001
,  // measure 43
0010
0000
0100
1000
0100
0000
0010
0000
0110
0000
0010
0001
1000
0000
0010
0000
,  // measure 44
1010
0000
0001
0000
0101
0000
1000
0000
1100
0000
0100
1000
0100
0010
0001
1000
,  // measure 45
0010
0000
0100
0001
1000
0000
0100
0000
1100
0000
0100
1000
0010
0000
0100
0000
,  // measure 46
0110
0000
0000
0101
0000
0000
1100
0000
0000
0100
0010
0001
1000
0010
0100
0001
,  // measure 47
1000
0000
0100
0000
1100
0000
1000
0001
0100
0000
0001
0000
0101
0000
0100
0010
,  // measure 48
1000
0000
0010
0000
1010
0000
1000
0001
0010
0000
0001
0100
0010
0000
0100
0001
,  // measure 49
2000
0000
0000
0000
3100
0000
1000
0000
0010
0100
0001
0000
1000
0000
0100
0000
,  // measure 50
1100
0000
0000
0110
0000
0000
0022
0000
0000
0033
0001
0010
0100
0000
1000
0000
,  // measure 51
1100
0000
0100
0000
1000
0000
0001
0100
0010
0000
1000
0000
1010
0000
0010
0100
,  // measure 52
0001
0000
1000
0000
1001
0000
1000
0001
0010
0000
0100
1000
0001
0000
0100
0010
,  // measure 53
1000
0000
0010
1000
0010
0000
1000
0000
1010
0000
1000
0001
1000
0000
0001
0000
,  // measure 54
1001
0000
0001
0010
0001
0000
0010
0000
0011
0000
0010
0100
1000
0000
0100
0010
,  // measure 55
0002
0203
0320
2030
0000
3002
0023
0230
,  // measure 56
1300
0100
0010
0001
0010
0100
1000
0001
0100
0000
0220
0000
0000
0000
0000
0000
,  // measure 57
0330
0000
0000
0000
;

//---------------dance-single - Itsugo----------------
#NOTES:
     dance-single:
     Itsugo:
     Hard:
     8:
     0.512,0.637,0.271,0.347,0.141:
0000
0000
0000
0000
,
0000
0000
0000
0000
,
0000
0000
0000
0000
,
0000
0000
0000
0000
,
1000
0010
1000
0001
1000
0010
0100
0001
,
1000
0100
0010
0001
1000
0001
0010
0001
,
0100
0001
0100
0010
1000
0010
0100
0002
,
0000
0000
0103
0100
0010
0010
1000
1000
,
0002
0000
0000
0023
0000
0000
0230
0000
,
2300
3002
0203
0302
,
2003
0000
3100
1000
0000
0001
0100
0020
,
0000
0000
0000
0000
,
1030
0001
1000
0100
,
1000
0001
0100
0001
,
0010
0001
0100
0010
,
1000
0100
0010
0001
,
1000
0010
0001
0010
,
0100
0001
1000
0100
,
0001
0000
0001
0100
1000
0000
1000
0010
,
0001
0000
0001
0010
1000
0001
1000
0100
,
0010
0001
1000
0100
0000
1000
0010
0100
,
0001
0000
1000
0010
0000
0100
0010
1000
,
0001
0000
0010
0100
0000
1000
0001
0100
,
0010
0000
1000
0001
0000
0010
0100
1000
,
0100
0000
0010
0001
1000
0000
0010
1000
,
0001
0000
0010
0100
1000
0100
0010
0001
,
0011
0000
0001
1001
0000
0101
0000
0220
,
0000
0000
0330
0010
,
1000
0000
0000
1000
0000
0000
0100
0000
0010
0000
0000
0010
0000
0000
0001
0000
,
1000
0000
0000
1000
0000
0000
0010
0000
0100
0000
0000
0100
0000
0000
0001
0000
,
0010
0000
0000
0010
0000
0000
0100
0000
1000
0000
0000
1000
0000
0000
0001
0000
,
0100
0000
0000
0100
0000
0000
0010
0000
1000
0000
0000
1000
0000
0000
0001
0000
,
0020
0230
2300
3001
,
1001
0000
1000
0020
0000
0130
0001
0000
,
0202
0000
0000
0000
0000
0000
0000
0303
,
1001
0000
0001
1000
0000
0100
0010
0000
,
0220
0000
0330
1001
0000
0001
0100
0000
,
0101
0000
0000
0110
0000
0000
1010
0000
0000
0000
0010
1000
0010
1000
0010
1000
,
0002
0000
0000
0000
0013
0000
0100
0000
0000
0000
1000
0000
0000
0000
0001
0100
,
0001
0000
1000
0100
0000
0020
0000
0030
,
0110
0000
0100
2000
0000
3001
0100
0020
,
0000
0000
1000
0000
1030
0001
0010
0100
,
1000
0000
0000
1000
0000
0000
0001
0000
0100
0000
0000
0010
0000
0000
1000
0000
,
1010
0000
1001
0000
0011
0000
0001
0010
,
0001
0000
0000
0001
0000
0000
1000
0000
0010
0000
0000
0010
0000
0000
0100
0000
,
0110
0000
0000
1001
0000
0000
0110
0000
0000
0000
0010
0000
0001
0000
1000
0000
,
1001
0000
0000
0000
1000
0000
0020
0000
0000
0000
0130
0000
0001
0000
1000
0001
,
1000
0000
0100
0020
0000
0031
1000
0000
,
1001
0000
0001
0200
0000
0310
1000
0000
,
1010
0000
0000
1001
0000
0000
0011
0000
0000
0000
0010
0000
0100
0000
0000
0000
,
2000
0000
3001
0100
0000
0010
1000
0001
,
0010
0000
0000
0010
0000
0000
0001
0000
1000
0000
0000
1000
0000
0000
0010
0000
,
0100
0000
0000
0001
0000
0000
1000
0000
0100
0000
0000
1000
0000
0000
0001
0000
,
0100
0000
0000
0010
0000
0000
1000
0000
0001
0000
0000
0010
0000
0000
0100
0000
,
1000
0100
0010
0002
0000
1003
0010
0200
,
0000
0000
0000
0000
0300
2002
0000
0000
,
3003
0000
0000
0000
;

//---------------dance-single - Itsugo----------------
#NOTES:
     dance-single:
     Itsugo:
     Medium:
     6:
     0.382,0.455,0.141,0.314,0.033:
0000
0000
0000
0000
,
0000
0000
0000
0000
,
0000
0000
0000
0000
,
0000
0000
0000
0000
,
1000
1000
0010
0010
,
0100
0001
1000
0100
,
0010
0010
0001
0001
,
0011
0001
1000
0010
,
0200
0000
0000
0302
0000
0000
2003
0000
,
3200
0320
0032
2003
,
3010
0000
1000
0001
0000
0010
0100
2000
,
0000
0000
0000
0000
0000
0000
0000
3000
,
1000
1000
1000
1000
,
0001
0001
0001
0001
,
0100
0100
0100
0100
,
0010
0010
0010
0010
,
1000
0100
0010
0100
,
1000
1000
0001
0001
,
0100
0010
0100
0001
,
0010
0100
1000
0001
,
0100
0100
0010
1000
,
0001
0001
0010
0100
,
1000
1000
0010
0100
,
0001
0001
0100
0010
,
1000
0100
0010
0100
,
1000
0010
0100
0001
,
0101
0000
0000
1001
0000
1100
0000
2002
,
0000
0000
3003
0000
,
1000
0000
1000
0010
0000
0010
0100
0000
,
0001
0000
0001
0010
0000
0010
0100
0000
,
1000
0000
1000
0001
0000
0001
1000
0000
,
0010
0000
1000
0001
0000
0001
1000
0000
,
0001
0010
0100
1000
,
0002
0000
0103
0020
0000
0000
1030
0000
,
2020
0000
0000
0000
0000
0000
0000
3030
,
1000
0000
0000
0001
0000
0000
0010
0000
,
0022
0000
0033
0001
0000
0000
1000
0000
,
0010
0000
0000
0200
0000
0000
0020
0000
0000
0000
0000
0000
0330
0000
0000
0000
,
0110
0000
0100
0002
0000
0013
0000
0000
,
0011
0000
0100
2000
0000
0002
0000
3003
,
1001
0000
1000
0010
0000
0100
0001
2000
,
0000
0000
0000
3001
0100
0000
0010
0000
,
1000
0000
0000
1000
0000
0000
0100
0000
0010
0000
0000
0000
0001
0000
0000
0000
,
1000
0002
0203
0300
,
0010
0000
0000
0010
0000
0000
0100
0000
0001
0000
0000
0100
0000
0000
0001
0000
,
1000
0000
0000
1000
0000
0000
0200
0000
0000
0000
0000
0000
0000
0000
0300
0000
,
1000
1000
0100
0100
,
0010
0010
0001
0001
,
0100
0010
1000
0100
,
1100
0000
0000
0101
0000
0000
2002
0000
0000
0000
3003
0000
0001
0000
0000
0000
,
0010
0010
0100
0100
,
1000
1000
0010
0100
,
0001
0000
1000
1000
0100
0000
0100
0100
,
0010
0000
0010
0010
0001
0000
0001
0001
,
1000
0010
0100
0001
0000
0010
0100
2000
,
0000
0000
0000
0000
0000
3002
0000
0000
,
0003
0000
0000
0000
;

//---------------dance-single - Itsugo----------------
#NOTES:
     dance-single:
     Itsugo:
     Easy:
     4:
     0.204,0.303,0.022,0.076,0.011:
0000
0000
0000
0000
,
0000
0000
0000
0000
,
0000
0000
0000
0000
,
0000
0000
0000
0000
,
1000
0000
0000
0000
,
0010
0000
0000
0000
,
0100
0000
0000
0000
,
0001
0000
0000
0000
,
1000
0000
0000
0000
,
0100
0000
0000
0000
,
0010
0000
0000
0000
0000
0000
0000
0002
,
0000
0000
0000
0000
,
1003
0000
1000
0000
,
0010
0000
0010
0000
,
0100
0000
0100
0000
,
0001
0000
0001
0000
,
1000
0000
0100
0000
,
1000
0000
0001
0000
,
0100
0000
0001
0000
,
0010
0000
0001
0000
,
1000
1000
1000
0000
,
0010
0010
0010
0000
,
0100
0100
0100
0000
,
0001
0001
0001
0000
,
0010
0010
0100
0100
,
1000
1000
0001
0001
,
1001
0000
0000
0001
0000
0100
0000
0101
,
0000
0000
0001
0000
,
1000
0000
1000
0000
,
0100
0000
0100
0000
,
0010
0000
0010
0000
,
0001
0000
0001
0000
,
0100
0000
0010
0000
,
1000
0000
0100
0000
,
0020
0000
0000
0000
,
0031
0000
1000
0000
,
0020
0000
0000
0000
0000
0030
0000
0000
,
1000
0000
0001
0000
,
0010
0000
0010
0001
,
0100
0000
0100
0010
,
1000
0000
0100
0010
,
0001
0000
1000
0010
,
0100
0000
0001
0001
,
1000
0000
1000
1000
,
0100
0000
1000
0000
,
0001
0000
0000
0100
0000
0000
0010
0000
0000
0000
0000
0000
0010
0000
0000
0000
,
1000
0000
1000
0001
,
0010
0000
0010
0100
,
1000
0000
0001
0100
,
0010
0000
0000
0010
0000
0000
1000
0000
0000
0000
0000
0000
1000
0000
0000
0000
,
0100
0100
0010
0010
,
0100
0000
1000
1000
,
0001
0001
0100
0100
,
0010
0010
1000
1000
,
0200
0000
0000
0320
0000
0000
0000
0032
,
0000
0000
0000
0000
0000
2003
0000
3000
;

//---------------dance-single - Itsugo----------------
#NOTES:
     dance-single:
     Itsugo:
     Beginner:
     2:
     0.087,0.121,0.000,0.022,0.000:
0000
0000
0000
0000
,
0000
0000
0000
0000
,
0000
0000
0000
0000
,
0000
0000
0000
0000
,
0001
0000
0000
0000
,
0000
0000
0000
0000
,
1000
0000
0000
0000
,
0010
0000
0000
0000
,
0100
0000
0000
0000
,
0001
0000
0000
0000
,
1000
0000
0000
0000
0000
0000
0000
0200
,
0000
0000
0000
0000
,
0310
0000
0000
0000
,
0010
0000
0000
0000
,
0001
0000
0000
0000
,
0001
0000
0000
0000
,
1000
0000
0000
0000
,
1000
0000
0000
0000
,
0010
0000
0000
0000
,
0100
0000
0000
0000
,
0001
0000
0001
0000
,
1000
0000
0000
0000
,
1000
0000
1000
0000
,
0001
0000
0000
0000
,
0010
0000
0000
0000
,
0100
0000
0000
0000
,
1000
0000
0000
0000
0000
0000
0000
0001
,
0000
0000
0000
0000
,
1000
0000
0000
0000
,
0010
0000
0000
0000
,
0100
0000
0000
0000
,
0001
0000
0000
0000
,
0010
0000
0000
0000
,
0100
0000
0000
0000
,
1000
0000
0000
0000
,
1000
0000
0000
0000
,
0010
0000
0000
0000
,
0010
0000
0000
0000
,
0100
0000
0000
0000
,
0100
0000
0000
0000
,
0001
0000
0000
0000
,
0001
0000
0000
0000
,
1000
0000
0000
0000
,
0100
0000
0000
0000
,
1000
0000
0000
0000
,
0010
0000
0000
0000
,
0010
0000
0000
0000
,
0100
0000
0000
0000
,
0001
0000
0000
0000
,
1000
0000
0000
0000
,
0001
0000
0000
0000
,
0001
0000
0000
0000
,
1000
0000
0000
0000
,
0010
0000
0000
0000
,
0100
0000
0000
0000
0000
0000
0000
0001
,
0000
0000
0000
0000
0000
2000
3000
0000
;
