#TITLE:ストロボナイツ;
#SUBTITLE:Re ~package~;
#ARTIST:kz feat. 初音ミク;
#TITLETRANSLIT:Strobo Nights;
#SUBTITLETRANSLIT:Re ~Package~;
#ARTISTTRANSLIT:Kz feat. Hatsune Miku;
#GENRE:Vocaloid;
#CREDIT:Itsugo15;
#BANNER:strobo nights bn.png;
#BACKGROUND:strobo nights bg.png;
#LYRICSPATH:Strobo Nights.lrc;
#CDTITLE:Itsugo15 SimifileS.png;
#MUSIC:Strobo Nights.ogg;
#OFFSET:-0.490;
#SAMPLESTART:94.099;
#SAMPLELENGTH:15.359;
#SELECTABLE:YES;
#LISTSORT:;
#BPMS:0.000=125.000;
#STOPS:;
#TICKCOUNT:0.000=6;
#BGCHANGES:4.000=Strobo Nights.avi=1.000=1=0=0,
99999=-nosongbg-=1.000=0=0=0 // don't automatically add -songbackground-
;
#KEYSOUNDS:;
#ATTACKS:;

//---------------dance-single - Challenge Itsugo----------------
#NOTES:
     dance-single:
     Challenge Itsugo:
     Challenge:
     9:
     0.598,0.633,0.426,0.419,0.371: // measure 1
0000
0000
0000
0000
,  // measure 2
100M
0000
0000
0010
0000
0000
0100
0000
0000
0001
0100
0001
1000
0000
0100
0000
,  // measure 3
10M0
0000
0000
0010
0000
0000
0100
0000
0000
0001
0100
0001
1000
0000
0100
0000
,  // measure 4
10M0
0000
0000
0010
0000
0000
0100
0000
0000
0001
0100
0001
1000
0000
0100
0000
,  // measure 5
100M
0000
0000
0010
0000
0000
0100
0000
0000
0001
0100
0001
1000
0000
0010
0000
,  // measure 6
M100
0000
0000
0001
0000
0000
0010
0000
0000
0100
1000
0100
1000
0000
0010
0000
,  // measure 7
010M
0000
0000
0001
0000
0000
0010
0000
0000
0100
1000
0100
1000
0000
0010
0000
,  // measure 8
010M
0000
0000
0001
0000
0000
0010
0000
0000
0100
1000
0100
1000
0000
0010
0000
,  // measure 9
M100
0000
0000
0001
0000
0000
0010
0000
1200
0000
0000
0000
0010
0000
0300
0000
,  // measure 10
2000
3000
0001
0100
0020
1000
0000
0001
,  // measure 11
0000
1030
0000
0100
2000
3000
0002
0003
,  // measure 12
0020
0030
0100
1000
0020
0100
0000
1000
,  // measure 13
0000
0130
0000
0001
1000
0001
0010
2000
,  // measure 14
0000
3000
0010
0000
0001
1000
0010
0002
,  // measure 15
0000
0003
0020
0030
0200
0300
0002
0003
,  // measure 16
2000
0010
0000
0100
0000
3001
0100
0020
,  // measure 17
0000
1000
0000
0001
0000
0130
0002
0003
,  // measure 18
2000
0100
0000
0010
0000
0001
0000
3100
,  // measure 19
0000
0010
0200
0300
2000
3000
0020
0030
,  // measure 20
0002
0003
0200
0300
1000
0001
0100
0020
,  // measure 21
0000
1000
0000
0001
0000
0130
0002
0003
,  // measure 22
0020
0000
0030
0100
2000
0000
3000
0001
,  // measure 23
0200
0300
0020
0030
2000
3000
0002
0003
,  // measure 24
0020
0000
0000
0000
0030
0000
0000
0000
0100
0000
0000
0000
200M
00M0
0M0M
00M0
0M0M
00M0
0M0M
00M0
0M0M
00M0
0M0M
00M0
0M0M
00M0
0M0M
00M0
3M0M
00M0
0M0M
00M0
,  // measure 25
1M01
0000
0000
0000
0000
0000
1001
0000
0000
0000
0000
0000
0001
0000
1000
0010
0000
0000
0100
0000
0000
0001
0000
0000
,  // measure 26
0101
0000
0000
0001
0000
0000
0001
0000
0000
0100
0010
1000
0100
0000
0001
0000
,  // measure 27
0100
0000
0000
0100
0000
0000
0100
0000
0000
0010
0001
1000
0100
0010
0001
0000
,  // measure 28
1000
0000
0000
1000
0000
0000
1000
0000
0000
0010
0100
0001
0010
0000
1000
0000
,  // measure 29
0010
0000
0000
0010
0000
0000
0010
0000
0011
0000
1000
0000
1100
0000
0001
0000
,  // measure 30
1001
0000
0000
1001
0000
0000
1001
0000
0000
1000
0001
1000
0100
0000
0010
0000
,  // measure 31
0110
0000
0000
0110
0000
0000
0110
0000
0000
0010
0001
1000
0100
0010
0001
0000
,  // measure 32
0011
0000
0000
1001
0000
0000
0101
0000
0000
0001
0100
0010
1000
0000
0100
0000
,  // measure 33
1100
0000
0000
1001
0000
0000
1010
0000
1001
0000
0000
0000
0110
0000
0000
0000
,  // measure 34
1001
0001
1000
0100
0010
0100
1000
1100
,  // measure 35
0000
0100
0010
0001
1000
0010
0100
0100
,  // measure 36
0110
0010
0001
0010
0100
0010
1000
1010
,  // measure 37
0000
0010
1000
0001
0010
0100
0010
0001
,  // measure 38
0011
0010
0001
1000
0010
0100
0001
0101
,  // measure 39
0000
0100
0010
1000
0001
0010
0100
1000
,  // measure 40
1100
0000
1000
0001
0010
1000
0010
0001
,  // measure 41
2000
0000
0000
0001
0000
0000
3001
0000
0000
1000
0100
0010
0001
1000
0100
0010
,  // measure 42
0002
0000
2003
0000
3100
0010
0001
0011
,  // measure 43
0000
0010
0001
0010
1000
0010
0100
1000
,  // measure 44
1100
0100
0010
0100
0001
0100
1000
1100
,  // measure 45
0100
1000
0010
0001
0010
1000
0001
0001
,  // measure 46
1001
0001
0100
0010
1000
0100
0010
0110
,  // measure 47
0010
0100
1000
0001
0100
0010
1000
0001
,  // measure 48
1001
1000
0100
1000
0010
0100
0001
0010
,  // measure 49
0002
0000
0000
1000
0000
0000
1003
0000
0001
1000
0001
0000
1100
0000
0001
0000
,  // measure 50
2001
0000
3100
1000
0020
0100
0100
0100
,  // measure 51
0130
0001
2000
3001
0020
0031
2000
3100
,  // measure 52
1200
0000
0310
0001
2000
0001
0001
0001
,  // measure 53
3001
0010
0001
1000
0001
0100
0001
2000
,  // measure 54
0001
0000
0100
0000
3001
0100
0001
2000
,  // measure 55
0100
3002
0023
0230
,  // measure 56
2300
0000
0001
0000
0100
0000
3010
0201
,  // measure 57
0000
0000
0001
0000
0301
1000
0100
1000
,  // measure 58
0002
0000
0103
0010
2000
0001
0001
0001
,  // measure 59
3010
0100
0002
1003
0200
0310
0002
1003
,  // measure 60
0020
0000
0230
0000
0301
0100
0010
2010
,  // measure 61
0000
0100
0001
3020
,  // measure 62
0230
0000
0301
1000
0200
0000
0310
0001
,  // measure 63
1000
1001
1010
1001
,  // measure 64
0011
0000
0000
0000
0000
0000
0000
0000
0001
0000
0000
0000
200M
00M0
0M0M
00M0
0M0M
00M0
0M0M
00M0
0M0M
00M0
0M0M
00M0
0M0M
00M0
0M0M
00M0
3M0M
00M0
0M0M
00M0
,  // measure 65
1M01
0000
0000
0000
0000
0000
1001
0000
0000
0000
0000
0000
0001
0000
1000
0010
0000
0000
0100
0000
0000
0001
0000
0000
,  // measure 66
1MM1
0000
0000
1000
0000
0000
0001
0000
0000
0100
0010
1000
0010
0000
0100
0000
,  // measure 67
0001
0000
0000
1000
0000
0000
0100
0000
0000
0010
0001
1000
0010
0100
0001
0000
,  // measure 68
1000
0000
0000
0001
0000
0000
1000
0000
0000
0010
0100
0001
0100
0000
0010
0000
,  // measure 69
1000
0000
0000
0001
0000
0000
1000
0000
1100
0000
0001
0000
0101
0000
1000
0000
,  // measure 70
1001
0000
0000
0011
0000
0000
1010
0000
0000
1000
0001
1000
0100
0000
0010
0000
,  // measure 71
0110
0000
0000
1100
0000
0000
0011
0000
0000
0010
0001
1000
0100
0010
0001
0000
,  // measure 72
0011
0000
0000
1001
0000
0000
0101
0000
0000
0001
0100
0010
1000
0000
0100
0000
,  // measure 73
1100
0000
0000
1001
0000
0000
1010
0000
1001
0000
0000
0000
0110
0000
0000
0000
,  // measure 74
1001
0000
0000
1000
0000
0000
1000
0000
0000
1000
0100
0010
0001
0000
0000
0000
;

//---------------dance-single - Beginner Itsugo----------------
#NOTES:
     dance-single:
     Beginner Itsugo:
     Beginner:
     1:
     0.074,0.127,0.034,0.007,0.000:
0000
0000
0000
0000
,
0000
0000
0000
0000
,
0000
0000
0000
0000
,
0000
0000
0000
0000
,
0000
0000
0000
0000
,
1000
0000
0000
0000
,
1000
0000
0000
0000
,
0001
0000
0000
0000
,
0001
0000
0000
0000
,
1000
0000
0000
0000
,
0010
0000
0000
0000
,
0100
0000
0000
0000
,
0001
0000
0000
0000
,
1000
0000
0000
0000
,
0100
0000
0000
0000
,
0010
0000
0000
0000
,
0001
0000
0000
0000
,
1000
0000
0000
0000
,
0010
0000
0000
0000
,
0100
0000
0000
0000
,
0001
0000
0000
0000
,
0001
0000
0000
0000
,
0100
0000
0000
0000
,
0010
0000
0000
0000
,
1000
0000
0000
0000
,
1001
0000
0000
0000
,
1000
0000
0000
0000
,
1000
0000
0000
0000
,
0100
0000
0000
0000
,
0100
0000
0000
0000
,
0010
0000
0000
0000
,
0010
0000
0000
0000
,
0001
0000
0000
0000
,
0001
0000
0000
0000
,
0100
0000
0000
0000
,
0010
0000
0000
0000
,
1000
0000
0000
0000
,
0001
0000
0000
0000
,
0010
0000
0000
0000
,
0100
0000
0000
0000
,
0010
0000
0000
0000
,
0001
0000
0000
0000
,
1000
0000
0000
0000
,
0010
0000
0000
0000
,
0100
0000
0000
0000
,
0001
0000
0000
0000
,
0100
0000
0000
0000
,
0010
0000
0000
0000
,
1000
0000
0000
0000
,
1010
0000
0000
0000
,
1000
0000
0000
0000
,
0001
0000
0000
0000
,
0010
0000
0000
0000
,
0100
0000
0000
0000
,
0010
0000
0000
0000
,
0001
0000
0000
0000
,
1000
0000
0000
0000
,
1001
0000
0000
0000
,
0001
0000
0000
0000
,
0100
0000
0000
0000
,
0010
0000
0000
0000
,
1000
0000
0000
0000
,
0100
0000
0000
0000
,
0010
0000
0000
0000
,
0110
0000
0000
0000
,
1001
0000
0000
0000
,
0001
0000
0000
0000
,
0100
0000
0000
0000
,
0010
0000
0000
0000
,
1000
0000
0000
0000
,
0100
0000
0000
0000
,
0010
0000
0000
0000
,
0001
0000
0000
0000
,
2000
0000
0000
3000
;

//---------------dance-single - Hard Itsugo----------------
#NOTES:
     dance-single:
     Hard Itsugo:
     Hard:
     7:
     0.422,0.405,0.151,0.330,0.089:
0000
0000
0000
0000
,
1000
0000
0000
0010
0000
0000
1000
0000
0000
0000
0001
0000
1000
0000
0001
0000
,
1000
0000
0000
0100
0000
0000
1000
0000
0000
0000
0001
0000
1000
0000
0001
0000
,
1000
0000
0000
0010
0000
0000
0100
0000
0000
0000
0001
0000
1000
0000
0001
0000
,
1000
0000
0000
0100
0000
0000
0010
0000
0000
0000
0001
0000
1000
0000
0001
0000
,
1000
0000
0000
0010
0000
0000
1000
0000
0000
0000
0001
0000
1000
0000
0001
0000
,
1000
0000
0000
0100
0000
0000
1000
0000
0000
0000
0001
0000
1000
0000
0001
0000
,
1000
0000
0000
0010
0000
0000
0100
0000
0000
0000
0001
0000
1000
0000
0001
0000
,
1000
0000
0000
0100
0000
0000
0010
0000
0001
0000
0000
0000
1000
0000
0000
0000
,
1002
0100
1000
0103
,
2001
0100
0001
3100
,
1002
0100
0010
1003
,
2001
0100
0010
3001
,
1001
0000
0100
0000
0001
0100
0001
0100
,
0020
2030
3200
0320
,
0032
0000
0010
0000
1000
0000
0013
0001
,
2000
0000
3000
1100
,
1001
0000
1000
0010
0200
0000
0001
0000
,
0310
0002
0203
0320
,
2030
0000
3020
0000
0130
0001
1000
0100
,
0020
0001
0100
0031
,
2000
0000
3002
0000
,
0103
0010
1000
0001
,
0020
0000
0200
0000
,
1331
0000
0000
0000
,
1000
0000
0000
1000
0000
0000
1000
0000
0000
0000
0010
0000
0100
0000
0000
0000
,
0001
0000
0000
0001
0000
0000
0001
0000
0000
0000
0010
0000
0100
0000
1000
0000
,
0001
0000
0000
0001
0000
0000
0001
0000
0000
0000
0100
0000
0010
0000
0000
0000
,
1000
0000
0000
1000
0000
0000
1000
0000
0010
0000
0100
0000
0010
0000
0100
0000
,
0001
0000
0000
0001
0000
0000
0001
0000
0000
0000
1000
0000
0100
0000
0000
0000
,
1000
0000
0000
1000
0000
0000
1000
0000
0000
0000
0100
0000
0010
0000
0001
0000
,
1000
0000
0000
1000
0000
0000
1000
0000
0000
0000
0010
0000
0100
0000
0000
0000
,
0001
0000
0000
0001
0000
0000
0001
0000
0101
0000
0000
0000
1100
0000
0000
0000
,
1001
0000
0001
0000
0001
1000
0001
1000
,
0000
0100
0010
0001
0000
1000
0001
0100
,
0010
0100
0001
0100
0010
0100
0001
1000
,
0000
0100
1000
0010
0000
0100
0002
0000
,
1003
0000
1000
0000
0100
0010
0001
1000
,
0000
1000
0010
0100
0000
0010
1000
0001
,
0000
0010
0100
1000
0100
0010
0001
1000
,
0100
0000
0000
0100
0000
0000
0200
0000
0000
0000
0000
0000
0300
0000
0000
0000
,
0110
0000
0010
0000
0001
0010
0001
1000
,
0000
0100
1000
0010
0000
0100
0001
0010
,
0100
1000
0100
1000
0001
1000
0001
0100
,
0000
0010
1000
0100
0000
0010
0002
0000
,
0013
0000
0001
0000
1000
0001
1000
0200
,
0000
0000
0320
0000
0032
0000
1003
0002
,
0000
0000
0203
0000
0310
2000
0000
0002
,
0000
3003
1001
1000
,
1010
0000
0010
0100
0002
0000
1000
0000
,
1003
0100
0010
0001
,
0011
0000
0010
0001
2000
0000
0001
0000
,
3001
0000
1000
0000
0010
1000
0010
2000
,
0000
0000
3010
0000
0100
0001
0100
0002
,
0000
1003
0100
0010
,
0002
0000
0010
0000
0013
0000
0001
0010
,
0200
0000
0300
1100
,
1001
0000
1000
0010
1000
0000
0100
1000
,
0100
0010
0001
1000
,
0010
0000
0100
0000
0001
0100
0010
2000
,
0001
0001
3001
1001
,
2200
0000
3300
1000
0100
0000
0010
0001
,
0020
0032
2003
3020
,
0230
0000
0302
2000
0000
0000
0000
3003
,
1001
1000
0100
0010
,
0001
0000
0000
0001
0000
0000
0001
0000
0000
0000
0100
0000
0010
0000
0000
0000
,
1000
0000
0000
1000
0000
0000
1000
0000
0000
0000
0100
0000
0010
0000
0001
0000
,
1000
0000
0000
1000
0000
0000
1000
0000
0000
0000
0010
0000
0100
0000
0000
0000
,
0001
0000
0000
0001
0000
0000
0001
0000
0100
0000
0010
0000
0100
0000
0010
0000
,
1000
0000
0000
1000
0000
0000
1000
0000
0000
0000
0001
0000
0010
0000
0000
0000
,
0001
0000
0000
0001
0000
0000
0001
0000
0000
0000
0010
0000
0100
0000
1000
0000
,
0001
0000
0000
0001
0000
0000
0001
0000
0000
0000
0100
0000
0010
0000
0000
0000
,
1000
0000
0000
1000
0000
0000
1000
0000
1010
0000
0000
0000
0011
0000
0000
0000
,
1000
0000
0000
0001
0000
0000
2000
0000
0000
0000
0001
0000
3001
0000
0000
0000
;

//---------------dance-single - Medium Itsugo----------------
#NOTES:
     dance-single:
     Medium Itsugo:
     Medium:
     6:
     0.291,0.326,0.268,0.103,0.000:
0000
0000
0000
0000
,
1000
0000
1000
0000
,
0010
0000
0010
0000
,
0100
0000
0100
0000
,
0001
0000
0001
0000
,
1000
0000
0100
0000
,
0010
0000
0001
0000
,
1000
0000
0010
0000
,
0100
0000
0001
0000
,
0101
0000
0000
0000
,
1001
0000
0000
0000
,
1100
0000
0000
0000
,
0110
0000
0000
0000
,
0001
0000
0000
0000
,
1000
0000
0000
0000
,
0010
0000
0000
0000
,
0200
0000
0300
0000
,
0101
0000
0000
0000
,
0110
0000
0000
0000
,
1010
0000
0000
0000
,
1001
0000
0000
0000
,
1000
0000
0100
0000
,
0010
0000
0001
0000
,
0010
0000
0200
0000
,
1300
0000
0000
0000
,
1100
1000
0001
0100
,
0101
0100
0010
1000
,
1010
1000
0100
0010
,
0110
0001
0011
1000
,
1010
0010
0100
0001
,
0101
0100
0001
1000
,
1001
1000
0100
0010
,
0110
1000
1100
0001
,
0101
0000
0100
0000
0001
0100
0010
0000
,
0010
0100
0001
0000
1000
0100
0010
0000
,
0110
0000
0100
0000
1000
0001
0100
0000
,
0010
1000
0001
0000
0010
0100
1000
0000
,
1100
0000
0100
0000
1000
0010
0100
0000
,
0100
0010
1000
0000
0001
0010
0100
0000
,
0110
0000
0010
0000
0001
1000
0010
0000
,
0100
0001
1000
0100
,
1100
0000
1000
0000
0100
1000
0001
0000
,
0001
1000
0100
0000
0010
0001
1000
0000
,
1001
0000
1000
0000
0010
0100
0001
0000
,
1000
0100
0010
0000
0001
1000
0100
0000
,
1100
0000
1000
0000
0100
0010
0001
0000
,
1000
0001
0010
0000
0100
1000
0001
0000
,
1001
0000
0001
0000
0100
0010
1000
0000
,
0002
0000
1000
1003
,
1001
0000
0001
0000
0100
0001
0100
0000
,
0001
1000
0010
0100
,
0010
0000
1000
0000
0010
1000
0010
0000
,
1000
0001
1000
0000
0001
0000
0010
0000
,
0020
0031
0010
0001
,
2000
3002
2003
3020
,
0230
0000
0000
0301
,
2000
0000
0000
0001
,
3001
0000
1000
0000
0010
1000
0010
0000
,
1000
0001
0100
0010
,
0100
0000
0002
0000
0000
0103
0001
0100
,
0001
1000
0100
0010
,
0002
0000
2003
3001
,
0100
0010
1000
0001
,
0020
0000
0000
0000
0200
0000
0000
0330
,
0110
0000
0000
0000
,
1001
0001
1000
0010
,
1010
0010
0100
0001
,
0101
0001
0010
0100
,
0110
1000
1100
0001
,
0101
0100
0010
1000
,
1010
0010
1000
0001
,
1001
0001
0010
0100
,
0110
0001
0011
1000
,
1001
0000
0000
0000
;

//---------------dance-single - Easy Itsugo----------------
#NOTES:
     dance-single:
     Easy Itsugo:
     Easy:
     3:
     0.122,0.201,0.021,0.076,0.000:
0000
0000
0000
0000
,
0001
0000
0000
0000
,
0001
0000
0000
0000
,
0001
0000
0000
0000
,
0001
0000
0000
0000
,
1000
0000
0000
0000
,
1000
0000
0000
0000
,
1000
0000
0000
0000
,
2000
0000
0000
0000
,
3001
0000
0000
0000
,
0100
0000
0000
0000
,
0010
0000
0000
0000
,
1000
0000
0000
0000
,
0001
0000
0000
0000
,
0010
0000
0000
0000
,
0100
0000
0000
0000
,
0200
0000
0300
0000
,
1000
0000
0000
0000
,
0010
0000
0000
0000
,
0100
0000
0000
0000
,
0001
0000
0000
0000
,
0100
0000
0000
0000
,
0010
0000
0000
0000
,
2000
0000
0000
0000
,
3001
0000
0000
0000
,
1000
0000
1000
0000
,
0100
0000
0100
0000
,
0010
0000
0001
0000
,
1000
0000
0001
0000
,
0100
0000
0100
0000
,
0010
0000
0010
0000
,
1000
0000
0001
0000
,
0010
0000
0100
0000
,
1000
0000
0000
0000
1000
0000
0000
0001
,
0000
0000
0000
0000
,
0001
0000
0000
0000
0001
0000
0000
0100
,
0000
0000
0000
0000
,
0100
0000
0000
0000
0100
0000
0000
0010
,
0000
0000
0000
0000
,
0010
0000
0010
0000
,
2000
0000
0000
0000
,
3001
0000
0000
0000
0001
0000
0000
1000
,
0000
0000
0000
0000
,
1000
0000
0000
0000
1000
0000
0000
0010
,
0000
0000
0000
0000
,
0010
0000
0000
0000
0010
0000
0000
0100
,
0000
0000
0000
0000
,
0100
0000
0100
0000
,
0002
0000
0000
0003
,
1001
0000
1000
0000
,
0100
0000
0010
0000
,
0001
0000
1000
0000
,
0010
0000
0100
0000
,
0002
0000
0100
0000
,
2003
0000
0100
0000
,
3002
0000
0000
0000
,
2000
0000
3003
0000
,
1001
0000
0001
0000
,
0010
0000
0100
0000
,
1000
0000
0001
0000
,
0100
0000
0010
0000
,
1000
0000
0001
0000
,
0010
0000
0100
0000
,
2000
0000
0002
3003
,
1001
0000
0000
0000
,
0001
0000
0001
0000
,
0010
0000
0010
0000
,
0100
0000
1000
0000
,
0001
0000
1000
0000
,
0010
0000
0010
0000
,
0100
0000
0100
0000
,
0001
0000
1000
0000
,
0100
0000
0010
0000
,
0001
0000
0000
0000
;
