#TITLE:Spirit Inspiration;
#SUBTITLE:絶園のテンペスト ~THE CIVILIZATION BLASTER~;
#ARTIST:Nothing`s Carved In Stone;
#TITLETRANSLIT:Spirit Inspiration;
#SUBTITLETRANSLIT:Zetsuen no Tempest ~The Civilization Blaster~;
#ARTISTTRANSLIT:Nothing`s Carved In Stone;
#GENRE:Otaku's Dream 3rd Mix (Pad);
#CREDIT:Itsugo;
#BANNER:Spirit Inspiration-bn.jpg;
#BACKGROUND:Spirit Inspiration-bg.jpg;
#LYRICSPATH:Spirit Inspiration.lrc;
#CDTITLE:Itsugo15 SimifileS.png;
#MUSIC:Spirit Inspiration.mp3;
#OFFSET:1.430;
#SAMPLESTART:33.230;
#SAMPLELENGTH:30.000;
#SELECTABLE:YES;
#LISTSORT:;
#BPMS:0.000=150.000;
#STOPS:;
#TICKCOUNT:0.000=6;
#BGCHANGES:3.000=Spirit Inspiration.avi=1.000=1=1=0,
223.000=Spirit Inspiration.avi=0.000=0=1=0,
99999=-nosongbg-=1.000=0=0=0 // don't automatically add -songbackground-
;
#KEYSOUNDS:;
#ATTACKS:;

//---------------dance-single - Itsugo----------------
#NOTES:
     dance-single:
     Itsugo:
     Beginner:
     2:
     0.103,0.187,0.169,0.011,0.000:
0000
0000
0000
0000
,
0000
0000
0000
0000
,
0000
0000
0000
0000
,
0000
0000
0000
0000
,
1000
0000
0000
0000
,
0000
0000
1000
0000
,
0000
0000
0000
0000
,
0001
0000
0000
0000
,
0000
0000
0001
0000
,
0000
0000
0000
0000
,
1001
0000
0000
0000
,
1000
0000
0000
0000
,
1000
0000
0000
0000
,
0010
0000
0000
0000
,
0010
0000
0000
0000
,
0100
0000
0000
0000
,
0100
0000
0000
0000
,
0001
0000
0000
0000
,
0001
0000
0000
0000
,
0010
0000
0000
0000
,
0100
0000
0000
0000
,
1000
0000
0000
0000
,
1100
0000
0000
0000
,
0001
0000
0000
0000
,
0100
0000
0000
0000
,
0101
0000
0000
0000
,
0100
0000
0000
0000
,
0010
0000
0000
0000
,
0110
0000
0000
0000
,
0010
0000
0000
0000
,
1000
0000
0000
0000
,
1010
0000
0000
0000
,
1000
0000
0100
0000
,
0010
0000
0001
0000
,
0011
0000
0000
0000
,
0000
0000
0001
0000
,
0000
0000
0000
0000
,
1000
0000
0000
0000
,
0000
0000
1001
0000
,
0000
0000
0000
0000
,
0011
0000
0000
0000
,
0000
0000
1001
0000
,
0000
0000
0000
0000
,
1010
0000
0000
0000
,
0000
0000
1001
0000
,
0000
0000
0000
0000
,
0110
0000
0000
0000
,
0000
0000
0011
0000
,
0000
0000
0000
0000
,
0101
0000
0000
0000
,
0000
0000
0100
0000
,
0010
0000
1000
0000
,
1010
0000
0000
0000
,
1000
0000
0000
0000
,
0001
0000
0000
0000
,
0020
0000
0000
0030
0000
0000
0000
0000
;

//---------------dance-single - Itsugo----------------
#NOTES:
     dance-single:
     Itsugo:
     Hard:
     8:
     0.605,0.716,0.440,0.180,0.051:
0000
0000
0000
0000
,
0000
0000
0000
0000
,
0000
0000
0000
0000
,
0000
0000
0000
0000
,
1000
0010
1000
0000
0100
0010
0000
0001
,
0000
0010
0100
0000
1000
0001
0100
0000
,
0010
1000
0000
0010
0000
0100
0001
0000
,
1000
0100
0010
0000
0001
1000
0000
0010
,
0000
0100
0001
0000
0010
0100
1000
0000
,
0010
0100
0000
0001
0000
0100
0010
0000
,
0110
0100
0001
0000
1000
0000
0100
0020
,
0000
0031
1000
0000
0010
1000
0001
0000
,
1001
0000
0001
0100
0000
0100
0001
0000
,
1000
0100
0010
0000
0110
0000
0010
0001
,
0000
0001
1000
0000
0020
0000
0130
0002
,
0000
1003
0200
0000
0000
1300
0100
0000
,
1100
0100
1000
0000
0001
0000
0010
0200
,
0000
1300
0001
0000
0100
0001
1000
0000
,
1001
0000
1000
0010
0000
0010
1000
0000
,
0001
0010
0100
0000
0110
0000
0100
1000
,
0000
1000
0001
0000
0200
0000
0310
2000
,
0000
3001
0020
0030
0044
0000
0000
0033
,
0011
0000
0001
0100
0010
0100
0001
1000
,
0100
0001
0100
0010
0110
0000
0010
0001
,
1000
0001
0010
0100
1000
0010
1000
0100
,
1100
0000
1000
0001
0100
1000
0100
0010
,
1000
0100
0001
0100
0020
0000
0000
0032
,
0000
0000
0000
0000
0010
0000
0000
0000
1000
0000
0003
0000
1000
0001
1000
0000
,
1001
0001
0100
0010
0100
0001
1000
0100
,
0001
0100
1000
0001
1001
1000
0010
0100
,
0010
1000
0100
0010
0001
0010
0100
1000
,
1100
0100
1000
0001
0010
0100
1000
0001
,
0010
0001
1000
0010
1010
1000
0001
1001
,
0001
0000
0010
0000
0011
0000
0010
0000
0100
0000
1000
0100
1000
0100
1000
0000
,
1100
0000
1001
0000
0001
0100
0000
0101
,
0000
0000
0001
0100
0001
0000
0000
0000
0110
0000
0000
0000
1010
0000
0000
0000
,
1000
0000
0001
0000
0000
0000
1001
0000
0000
0000
0001
1000
0001
0000
0000
0000
,
0011
0000
0110
0000
0100
1000
0000
1100
,
0000
0000
1000
0100
1000
0000
0000
0000
2002
0000
0000
0000
0000
0000
0000
0000
,
0000
0000
0000
0000
0000
0000
0000
0000
0000
0000
0000
3003
1001
0000
0000
0000
,
1100
0100
1000
0010
0100
0010
1000
0001
,
0010
1000
0010
0100
0110
0010
0100
1000
,
0001
1000
0100
0010
0001
0100
0001
0010
,
0011
0010
0001
1000
0010
0001
0010
0100
,
0001
0010
1000
0010
0200
0000
0000
2300
,
0000
0000
0000
0000
0100
0000
0000
0000
0001
0000
3000
0000
0001
1000
0001
0000
,
1001
1000
0010
0100
0010
1000
0001
0010
,
1000
0010
0001
1000
1001
0001
0100
0010
,
0100
0001
0010
0100
1000
0100
0010
0001
,
0011
0010
0001
1000
0100
0010
0001
1000
,
0100
1000
0001
0100
0101
0001
1000
1001
,
1000
0000
0100
0000
1100
0000
0100
0000
0010
0000
0001
0010
0100
1000
0100
0000
,
0010
0001
0100
0000
0010
0100
0000
0001
,
0000
1000
0100
0000
0010
0001
1000
0000
,
0010
0100
0000
0001
0000
0100
0010
0000
,
0110
0110
1001
0000
0000
0000
0000
0000
;

//---------------dance-single - Itsugo----------------
#NOTES:
     dance-single:
     Itsugo:
     Easy:
     4:
     0.167,0.188,0.000,0.079,0.000:
0000
0000
0000
0000
,
0000
0000
0000
0000
,
0000
0000
0000
0000
,
0000
0000
0000
0000
,
1000
0000
0010
0000
,
0100
0000
0001
0000
,
1000
0000
0100
0000
,
0010
0000
0100
0000
,
1000
0000
0001
0000
,
0100
0000
0010
0000
,
1000
0000
1000
0000
,
0001
0000
0010
0000
,
0010
0000
0001
0000
,
0100
0000
0100
0000
,
0010
0000
1000
0000
,
0100
0000
0010
0000
,
0001
0000
0001
0000
,
1000
0000
0010
0000
,
0010
0000
1000
0000
,
0100
0000
0100
0000
,
1000
0000
0001
0000
,
0100
0000
0020
0000
,
1030
0000
1000
0000
,
0001
0000
0001
0000
,
0010
0000
0010
0000
,
0100
0000
0100
0000
,
1000
0000
0002
0000
,
2000
0000
3003
0000
,
0001
0000
0001
0000
,
1000
0000
1000
0000
,
0010
0000
0010
0000
,
0100
0000
0100
0000
,
0001
0000
1000
0000
,
0100
0000
0010
0000
,
0001
0000
0000
0000
,
0001
0000
1000
0000
,
0000
0000
1000
0000
,
0001
0000
0000
0000
,
0100
0000
0020
0000
,
0000
0000
0000
0030
,
0100
0000
0100
0000
,
0001
0000
1000
0000
,
1000
0000
0100
0000
,
0010
0000
0010
0000
,
0001
0000
2000
0000
,
0002
0000
3003
0000
,
0001
0000
0001
0000
,
0100
0000
0010
0000
,
0010
0000
1000
0000
,
0001
0000
0001
0000
,
0010
0000
0100
0000
,
1000
0000
0001
0000
,
1000
0000
1000
0000
,
0010
0000
0010
0000
,
0100
0000
0100
0000
,
0001
2000
3000
0000
;

//---------------dance-single - Itsugo----------------
#NOTES:
     dance-single:
     Itsugo:
     Medium:
     6:
     0.417,0.498,0.248,0.135,0.000:
0000
0000
0000
0000
,
0000
0000
0000
0000
,
0000
0000
0000
0000
,
0000
0000
0000
0000
,
1000
0010
1000
0000
0010
0000
0100
0001
,
0000
0001
1000
0000
0001
1000
0001
0000
,
0010
0000
0100
1000
0000
1000
0100
0000
,
0010
0100
0010
0000
0001
0000
1000
0001
,
0000
0001
1000
0000
0010
0100
0001
0000
,
0100
0000
0100
0010
0000
0010
0100
0000
,
0110
0000
0100
0000
0001
0000
1000
0002
,
0000
0003
0100
0000
0100
0000
0010
0000
,
1000
0000
0100
0010
0000
0010
0100
0000
,
0100
0000
0100
0000
1000
0000
1000
0001
,
0000
0001
0100
0000
0020
0000
0000
2000
,
0030
0000
3002
0000
0000
0003
0000
0000
,
1001
0000
0001
0000
0010
0000
0100
2000
,
0000
3000
0100
0000
0010
0000
0001
0000
,
1000
0000
0010
0100
0000
0100
0010
0000
,
1000
0000
0001
0000
0010
0000
0001
0100
,
0000
0100
0001
0000
1000
0000
0100
0010
,
0000
0001
1000
0000
0002
0000
0000
0000
,
1003
0000
0010
0100
0000
0001
0000
0010
,
0000
0001
1000
0000
1001
0000
0001
1000
,
0000
0100
0000
0010
0000
0001
0010
0000
,
0011
0000
0100
1000
0000
0001
0000
0100
,
0000
0010
1000
0000
0002
0000
0000
2000
,
0000
0000
3003
0001
,
0101
0000
0100
0010
0000
1000
0000
0100
,
0000
0010
0100
0000
0110
0000
0010
0100
,
0000
1000
0000
0001
0000
0100
0001
0000
,
0101
0000
0100
0010
0000
1000
0000
0100
,
0000
1000
0001
0000
1001
0000
1000
0001
,
0000
0100
0010
0000
1000
0100
0000
0010
,
0001
0000
0010
0000
0000
0001
0000
1000
,
0000
0010
0100
0000
0001
0000
1000
0000
,
0000
0100
0000
0010
0000
0001
1000
0000
,
0010
0000
0100
0000
0000
0001
0000
1000
,
0000
0100
0010
0000
0220
0000
0000
0000
,
0000
0000
0330
1001
,
1000
0000
0001
0100
0000
1000
0000
0100
,
0000
0001
0000
1000
0100
0000
0010
0001
,
0000
1000
0000
0010
0000
0100
0001
0000
,
0101
0000
0100
0010
0000
0010
0000
1000
,
0000
0001
0000
0010
0200
0000
0000
2000
,
0000
0000
3300
1100
,
0110
0000
0010
0001
0000
0010
0000
1000
,
0000
0010
0000
0100
1000
0000
0001
0100
,
0000
0010
0000
1000
0000
0001
0010
0000
,
0011
0000
0001
0010
0000
0100
0000
0010
,
0000
0001
0000
1000
1001
0000
0001
0101
,
0000
0100
0110
0000
0010
1010
0000
1000
,
1001
0000
0001
0000
0010
0100
0000
1000
,
0000
0001
0100
0000
0100
0010
1000
0000
,
0100
0010
0000
0001
0000
1000
0100
0000
,
1100
1100
1001
0000
0000
0000
0000
0000
;

//---------------dance-single - Itsugo----------------
#NOTES:
     dance-single:
     Itsugo:
     Challenge:
     11:
     0.862,1.000,0.349,0.372,0.496: // measure 1
0000
0000
0000
0000
,  // measure 2
0000
0000
0000
0000
,  // measure 3
0000
0000
0000
0000
,  // measure 4
0000
0000
0000
0000
,  // measure 5
1000
0001
1000
0000
0010
0000
0100
0000
0001
0000
1000
0000
0100
0000
0010
0000
,  // measure 6
0001
0000
0100
0000
0010
0000
1000
0000
0100
1000
0100
0000
1000
0000
0001
0000
,  // measure 7
0100
0010
1000
0001
0010
0100
1000
0100
,  // measure 8
0010
0001
0010
0000
0001
0000
1000
0000
0010
0000
0100
0000
0001
0000
1000
0000
,  // measure 9
0100
0000
0001
0000
0100
0000
1000
0000
0001
0100
0001
0000
1000
0000
0010
0000
,  // measure 10
0100
0001
0100
1000
0100
0010
1000
0001
,  // measure 11
1001
0001
0020
0000
0031
1000
0010
0200
,  // measure 12
0000
0301
0100
0010
1000
0001
0020
0000
,  // measure 13
0130
1000
0001
0200
0000
0310
1000
0010
,  // measure 14
0001
0010
2000
0000
3001
0010
0100
2000
,  // measure 15
0000
3001
0100
0010
0110
0000
1000
1001
,  // measure 16
0000
0010
0210
0000
1300
0001
0010
0100
,  // measure 17
1000
0100
0020
0000
0031
1000
0010
0200
,  // measure 18
0000
0301
1000
0100
1000
0001
0200
0000
,  // measure 19
0310
1000
0001
0020
0000
0130
1000
0100
,  // measure 20
0010
0001
2000
0000
3010
0100
0001
0020
,  // measure 21
0000
1030
0010
0001
0011
0000
1000
1100
,  // measure 22
0000
0000
0001
0000
1001
0000
0000
0000
1000
0100
1000
0001
0100
0001
1000
0100
,  // measure 23
0010
0000
0001
0000
1000
0001
1000
0000
0010
0000
0100
0000
0001
0100
0001
0000
,  // measure 24
1000
0100
1000
0000
0001
0100
0001
0000
1001
0000
1000
0000
0001
0010
0001
0000
,  // measure 25
1000
0010
1000
0000
0001
0010
0001
0000
1000
0010
1000
0000
0001
0010
0001
0000
,  // measure 26
1001
0000
1000
0000
0010
0100
0001
0000
1000
0100
0010
0000
0001
1000
0010
0000
,  // measure 27
0100
0001
1000
0000
0100
0000
0010
0000
0002
0000
0000
0000
2003
0000
0020
0000
,  // measure 28
3000
0000
0100
0000
0100
0000
0100
0000
0130
0000
1000
0000
0001
1000
0001
1000
,  // measure 29
1001
0001
0100
1000
0100
0001
0010
0100
,  // measure 30
2000
0000
0000
0000
3200
0000
0000
0000
0320
0000
0000
0000
0032
0000
0000
0003
0011
0000
0000
0000
0010
0000
0000
0000
0100
0000
1000
0000
0001
0000
0000
0000
,  // measure 31
0100
0010
1000
0000
0001
0010
0100
0000
1000
0001
0100
0000
0010
1000
0001
0000
,  // measure 32
1001
0000
1000
0000
0100
1000
0100
0000
1000
0001
1000
0000
0001
0100
0001
0000
,  // measure 33
0100
0010
0100
0000
0010
1000
0010
0000
1001
0000
0100
0000
0010
0000
1001
0000
,  // measure 34
0100
0000
0010
0000
1001
0000
0100
0000
0010
0000
0001
0010
0100
1000
0100
0010
,  // measure 35
0001
0000
1000
0000
0011
0000
0001
0010
0001
0000
1000
0000
0001
0100
0010
0000
,  // measure 36
0100
0010
1000
0001
1000
0000
0001
0000
1010
0000
1000
0010
1000
0000
0001
0000
,  // measure 37
1000
0100
0010
0000
0100
0010
0001
1000
0001
0000
1000
0010
0100
0000
0001
0000
,  // measure 38
0101
0000
0001
1000
0001
0000
1000
0010
0100
0000
0001
0000
0100
0010
1000
0000
,  // measure 39
0001
0010
0100
1000
0100
0010
0002
2000
0000
0000
0000
0000
0000
0000
0000
0000
,  // measure 40
0000
0000
0000
0000
0000
0000
0000
0000
0000
0000
0000
0000
0000
0000
0000
0000
0000
0000
0000
0000
0000
0000
0000
3003
1111
0000
0000
0000
0000
0000
0000
0000
,  // measure 41
0101
0001
0100
1000
0100
0001
0010
0100
,  // measure 42
2000
0000
0000
0000
3200
0000
0000
0000
0320
0000
0000
0000
0032
0000
0000
0003
0011
0000
0000
0000
0010
0000
0000
0000
0100
0000
1000
0000
0001
0000
0000
0000
,  // measure 43
0100
0010
1000
0000
0001
0010
0100
0000
1000
0001
0100
0000
0010
1000
0001
0000
,  // measure 44
1001
0000
1000
0000
0100
1000
0100
0000
1000
0001
1000
0000
0001
0100
0001
0000
,  // measure 45
0100
0010
0100
0000
0010
1000
0010
0000
2000
0000
0000
0000
3002
0000
0200
0000
,  // measure 46
0003
0000
0010
0000
0010
0000
0010
0000
0310
0000
0001
0000
1000
0001
1000
0001
,  // measure 47
1001
1000
0010
0001
0010
1000
0100
0010
,  // measure 48
0002
0000
0000
0000
0023
0000
0000
0000
0230
0000
0000
0000
2300
0000
0000
3000
1100
0000
0000
0000
0100
0000
0000
0000
0010
0000
0001
0000
1000
0000
0000
0000
,  // measure 49
0010
0100
0001
0000
1000
0100
0010
0000
0001
1000
0010
0000
0100
0001
1000
0000
,  // measure 50
1001
0000
0001
0000
0010
0001
0010
0000
0001
1000
0001
0000
1000
0010
1000
0000
,  // measure 51
0010
0100
0010
0000
0100
0001
0100
0000
0101
0100
0010
1000
0010
0100
0110
0010
,  // measure 52
1000
0001
0100
0010
0110
0100
0001
1000
0100
0010
0001
0010
0100
1000
0100
0010
,  // measure 53
0001
1000
0001
0000
0100
0000
0010
0000
1000
0000
0001
0000
0010
0000
0100
0000
,  // measure 54
1000
0000
0010
0000
0100
0000
0001
0000
0010
0001
0010
0000
0001
0000
1000
0000
,  // measure 55
0010
0100
0001
1000
0100
0010
0001
0010
,  // measure 56
0011
0111
1111
0000
0000
0000
0000
0000
;
