#TITLE:Snow fairy;
#SUBTITLE:フェアリーテイル;
#ARTIST:FUNKIST;
#TITLETRANSLIT:Snow Fairy;
#SUBTITLETRANSLIT:Fairy Tail;
#ARTISTTRANSLIT:Funkist;
#GENRE:Otaku's Dream 2nd Mix (Pad);
#CREDIT:Itsugo15;
#BANNER:Snow Fairy-bn.jpg;
#BACKGROUND:Snow Fairy-bg.jpg;
#LYRICSPATH:Snow Fairy.lrc;
#CDTITLE:Itsugo15 SimifileS.png;
#MUSIC:Snow Fairy.ogg;
#OFFSET:1.410;
#SAMPLESTART:52.725;
#SAMPLELENGTH:30.000;
#SELECTABLE:YES;
#LISTSORT:;
#BPMS:0.000=105.900,4.000=106.000,8.000=105.900,12.000=106.000,16.000=105.900,20.000=106.000,24.000=105.900,28.000=106.000,32.000=105.900,36.000=106.000,40.000=105.900,44.000=106.000,48.000=105.900,52.000=106.000,56.000=105.900,60.000=106.000,64.000=105.900,68.000=106.000,72.000=105.900,76.000=106.000,80.000=105.900,84.000=106.000,88.000=105.900,92.000=106.000,96.000=105.900,100.000=106.000,104.000=105.900,108.000=106.000,112.000=105.900,116.000=106.000,120.000=105.900,124.000=106.000,128.000=105.900,132.000=106.000,136.000=105.900,140.000=106.000,144.000=105.900,148.000=106.000,152.000=105.900,156.000=106.000,160.000=105.900,164.000=106.000,168.000=105.900;
#STOPS:;
#TICKCOUNT:0.000=6;
#BGCHANGES:3.500=Snow Fairy.avi=1.000=1=1=0,
157.000=Snow Fairy.avi=0.000=0=1=0,
99999=-nosongbg-=1.000=0=0=0 // don't automatically add -songbackground-
;
#KEYSOUNDS:;
#ATTACKS:;

//---------------dance-single - Itsugo----------------
#NOTES:
     dance-single:
     Itsugo:
     Challenge:
     10:
     0.570,0.648,0.399,0.255,0.538: // measure 1
0000
0000
0000
0000
,  // measure 2
0000
0000
0000
0000
,  // measure 3
0000
0000
0000
0000
,  // measure 4
0000
0000
0000
0000
,  // measure 5
0000
0000
0000
0000
,  // measure 6
1000
0001
0100
0001
1000
0100
0010
0001
1000
0010
0100
0001
0010
0100
1000
0001
,  // measure 7
0010
0100
1000
0002
0000
0003
1000
0020
0000
0000
0000
0000
0030
0000
0100
0000
,  // measure 8
0001
0010
0001
0100
0010
1000
0100
1000
1001
0000
0000
0101
0000
0000
1000
0000
,  // measure 9
1010
0000
0010
0000
0110
0000
0010
0000
1010
0000
0010
0000
0110
0100
0001
0000
,  // measure 10
0010
0000
1000
0000
0010
0000
0100
1000
0001
0000
0100
0000
0010
1000
0001
0010
,  // measure 11
0011
0001
1001
0001
0011
0010
0110
0100
,  // measure 12
1000
0001
1000
0000
0010
0000
0100
0000
0001
0100
0001
0000
1000
0010
1000
0001
,  // measure 13
0100
0010
1000
0000
0101
0000
0001
0000
1001
0000
0001
0000
0011
0010
0100
0000
,  // measure 14
1000
0000
0100
0000
0010
0100
1000
0001
0100
0000
0010
0000
0001
0010
1000
0001
,  // measure 15
0100
0000
0001
0000
1001
0000
1000
0000
1001
0000
0001
1000
0000
0001
1000
0000
,  // measure 16
0100
0000
0010
0000
0110
0000
0010
0000
0001
1000
0000
1000
0001
0010
0100
1000
,  // measure 17
0002
0000
0000
0100
0000
0000
1000
0000
0000
0013
0000
0000
0001
0000
0010
0000
,  // measure 18
0200
0000
0000
1000
0000
0000
0010
0000
0000
0301
0000
0000
0100
0000
1000
0000
,  // measure 19
0020
0000
0000
0100
0000
0000
1000
0000
0000
0031
0000
0000
0010
0000
0100
0000
,  // measure 20
0002
0000
0000
0010
0000
0000
1000
0000
0000
0103
0000
0000
0001
0000
0010
0000
,  // measure 21
0200
0000
0000
0001
0000
0000
1000
0000
0000
0310
0000
0000
0100
0000
1000
0000
,  // measure 22
0020
0000
0130
0001
0010
0000
1000
0000
0010
0000
0001
0000
1000
0000
0010
0000
,  // measure 23
1010
0000
0010
0001
1000
0100
0001
0000
0101
0000
0100
1000
0001
0010
1000
0000
,  // measure 24
0001
0000
0000
0000
0000
0000
0100
0000
0000
0001
0000
0000
0010
0000
0000
0000
0000
0000
0200
0000
0000
0000
0000
0000
2300
0000
0000
0000
0000
0000
3002
0000
0000
0000
0000
0000
0023
0000
0000
0000
0000
0000
0230
0000
0000
0000
0300
0000
,  // measure 25
0110
0000
0100
0001
0100
1000
0001
0000
1001
0000
1000
0100
1000
0010
0100
0000
,  // measure 26
0110
0000
0010
1000
0010
0001
0010
0100
0000
1000
0100
0000
0001
0000
1000
0000
,  // measure 27
1001
0000
0001
0010
0001
0100
0010
0000
0110
0000
0100
0001
0100
1000
0100
0001
,  // measure 28
1000
0000
0010
0000
1000
0001
0000
0010
0001
0000
0011
0000
0010
0100
1000
0001
,  // measure 29
0200
0000
0000
0310
0010
0000
1000
0000
0001
0000
0000
1001
0000
0000
1000
0000
,  // measure 30
1100
0000
0000
0000
0000
0000
0011
0000
0000
0000
0000
0000
0101
0000
0000
0000
0010
0000
1000
0000
0000
0000
0001
0000
0010
0000
0100
0000
0000
0000
0000
2000
,  // measure 31
0000
0000
0000
0000
3000
1000
0100
0010
,  // measure 32
0001
0010
0100
1000
0002
0000
0203
0000
,  // measure 33
0310
1000
0100
1000
0001
0100
0001
1000
0001
0010
0100
1000
0001
0100
0010
1000
,  // measure 34
0001
0010
0001
0200
0000
0000
0310
2000
0000
0000
0000
0000
3000
0000
0001
0000
,  // measure 35
0010
0100
1000
0001
0010
0001
0100
0010
0110
0000
0000
0000
0000
0000
0100
0000
,  // measure 36
0101
0000
0000
1001
0000
0000
1000
0000
1100
0000
0000
0011
0000
0000
0001
0000
,  // measure 37
0101
0000
0000
1010
0000
0000
1000
0000
0001
0000
0010
0100
0000
1000
0000
0002
,  // measure 38
0000
0003
0100
0001
2000
0000
3200
0000
,  // measure 39
0020
0000
0000
0000
,  // measure 40
1331
0000
0000
0000
;

//---------------dance-single - Itsugo----------------
#NOTES:
     dance-single:
     Itsugo:
     Beginner:
     1:
     0.063,0.086,0.033,0.022,0.000:
0000
0000
0000
0000
,
0000
0000
0000
0000
,
0000
0000
0000
0000
,
0000
0000
0000
0000
,
0000
0000
0000
0000
,
1001
0000
0000
0000
,
0001
0000
0000
0000
,
0010
0000
0000
0000
,
0100
0000
0000
0000
,
1000
0000
0000
0000
,
0001
0000
0000
0000
,
0100
0000
0000
0000
,
0010
0000
0000
0000
,
1000
0000
0000
0000
,
0001
0000
0000
0000
,
1001
0000
0000
0000
,
1000
0000
0000
0000
,
0100
0000
0000
0000
,
0010
0000
0000
0000
,
0001
0000
0000
0000
,
1000
0000
0000
0000
,
0010
0000
0000
0000
,
0100
0000
0000
0000
,
0001
0000
0000
0000
,
1000
0000
0000
0000
,
1000
0000
0000
0000
,
0100
0000
0000
0000
,
0100
0000
0000
0000
,
0010
0000
0000
0000
,
0010
0000
0000
0000
,
0002
0000
0003
0000
,
1000
0000
0000
0000
,
0010
0000
0000
0000
,
0100
0000
0000
0000
,
0001
0000
0000
0000
,
1001
0000
0000
0000
,
1000
0000
0000
0000
,
0100
0000
0000
0000
,
0020
0000
0000
0000
,
0031
0000
0000
0000
;

//---------------dance-single - Itsugo----------------
#NOTES:
     dance-single:
     Itsugo:
     Easy:
     4:
     0.114,0.173,0.100,0.055,0.000:
0000
0000
0000
0000
,
0000
0000
0000
0000
,
0000
0000
0000
0000
,
0000
0000
0000
0000
,
0000
0000
0000
0000
,
1001
0000
1000
0000
,
0100
0000
1000
0000
,
0001
0000
0100
0000
,
0101
0000
0001
0000
,
0000
0000
0000
0000
,
1001
0000
1000
0000
,
0000
0000
0000
0000
,
1001
0000
0010
0000
,
0000
0000
0000
0000
,
1001
0000
0100
0000
,
1001
0000
1001
0000
,
1000
0000
0010
0000
,
0100
0000
0001
0000
,
1000
0000
0100
0000
,
0010
0000
0001
0000
,
1000
0000
0010
0000
,
0100
0000
0001
0000
,
0100
0000
0010
0000
,
1000
0000
0002
0000
,
1003
0000
0100
0000
,
0010
0000
0000
0000
,
0001
0000
0100
0000
,
0010
0000
0000
0000
,
1000
0000
0001
0000
,
0010
0000
0100
0000
,
2000
0000
0000
3000
0000
0000
0000
0000
,
0001
0000
1000
0000
,
0020
0000
0000
0000
,
0130
0000
0001
0000
,
2000
0000
3100
0000
,
1100
0000
1001
0000
,
0001
0000
0100
0000
,
0010
0000
1000
0000
,
0002
0000
0000
0000
,
0013
0000
0000
0000
;

//---------------dance-single - Itsugo----------------
#NOTES:
     dance-single:
     Itsugo:
     Medium:
     6:
     0.261,0.303,0.211,0.166,0.000:
0000
0000
0000
0000
,
0000
0000
0000
0000
,
0000
0000
0000
0000
,
0000
0000
0000
0000
,
0000
0000
0000
0000
,
1001
0001
1000
1000
,
0010
0100
0001
1000
,
1100
0000
0100
0000
0020
0000
0000
0030
,
0011
0001
1000
0010
,
1010
0010
0100
0001
,
0101
0001
1000
0010
,
1010
0000
0010
0000
0100
0001
1000
0000
,
1100
0000
0100
0000
0010
0000
0001
0010
,
0001
0000
1000
0010
0100
0001
1000
0100
,
0010
0011
0001
1000
,
0010
0110
1000
0001
,
0020
0000
0230
0000
,
1300
0001
0010
0100
,
2000
0000
3020
0000
,
1030
0010
0100
0001
,
2000
0000
3002
0000
,
0013
0100
1000
0001
,
0100
0100
0001
1000
,
0200
0320
0032
2003
,
3010
0100
0001
0100
,
1000
0100
0010
1000
,
0001
0010
0100
1000
,
0100
0001
0100
0010
,
0110
0001
0011
1000
,
1100
0001
0101
1001
,
2000
0100
0010
3001
,
0010
0100
1000
0002
,
0103
0010
1000
0100
,
0100
1000
0010
0100
,
0001
1000
1001
0000
,
1000
0000
1100
0000
0001
0000
0102
0003
,
1000
1010
0001
0010
,
0100
1000
0100
0010
,
0002
0000
0000
0000
0000
0000
0000
0003
,
1100
0000
0000
0000
;

//---------------dance-single - Itsugo----------------
#NOTES:
     dance-single:
     Itsugo:
     Hard:
     8:
     0.451,0.519,0.377,0.155,0.067:
0000
0000
0000
0000
,
0000
0000
0000
0000
,
0000
0000
0000
0000
,
0000
0000
0000
0000
,
0000
0000
0000
0000
,
1001
0001
0010
0100
1000
0100
0010
0001
,
1000
0010
0100
0001
0100
0010
0010
1000
,
0100
0000
0010
0000
0100
0000
1000
0000
1100
0000
0000
0101
0000
0000
1001
0000
,
0001
0001
0100
0100
0010
0010
1000
0100
,
0010
1000
0001
1000
0010
0100
1000
0001
,
0100
0100
0010
0010
1000
0100
1000
0010
,
1000
0000
0001
0000
0010
0000
0100
0000
1000
0000
0001
0000
0100
0010
0100
0000
,
0001
0010
0100
0100
1000
1000
0001
0010
,
0100
0010
0100
0000
0010
0000
0001
0000
1000
0000
0010
0100
0001
0000
1000
0000
,
0001
0010
0022
0033
2002
3003
1000
0010
,
1010
0000
2002
3003
0001
0010
0100
1000
,
1001
0000
0001
0100
0000
0010
1000
0001
,
0011
0000
0010
0100
0000
1000
0010
0100
,
0101
0000
0001
0100
0000
0010
1000
0001
,
1001
0000
0010
0100
0000
1000
0001
0100
,
0101
0000
0100
0010
0000
1000
0100
0010
,
0110
0100
1000
0010
0010
0100
0001
0010
,
0100
0100
1000
0010
0010
0100
0001
0010
,
0011
0010
0100
1000
0001
0100
0010
1000
,
1010
1000
0001
0010
0011
0010
0001
0100
,
0101
0010
1000
0100
0010
0001
0010
0100
,
0110
0100
1000
0010
0110
0001
0010
0100
,
0010
0001
0100
0010
1010
0001
0101
1001
,
1000
0000
1100
0000
0001
0000
0001
0000
0010
0000
0000
0110
0000
0000
0100
0000
,
1100
0000
0000
1001
0000
0000
0001
0000
0100
0000
0010
0000
1000
0000
0001
0000
,
0020
0000
0000
0000
0030
0001
1000
0010
,
0100
0001
1000
0200
0320
0000
0002
0030
,
1003
0010
0100
0001
1000
0100
0001
0100
,
1000
0010
0100
0010
0001
0010
0100
0010
,
1000
0001
0010
0100
1000
0000
0000
0000
,
1100
0000
0000
1001
0000
0000
0001
0000
0101
0000
0000
1001
0000
0000
1000
0000
,
1100
0000
0000
1010
0000
0000
0010
0000
0100
0000
0001
1000
0000
0100
0000
0020
,
0000
0000
0031
1000
0020
0000
0230
0000
,
0302
0000
0000
0000
,
1103
0000
0000
0000
;
