#TITLE:深蒼;
#SUBTITLE:BLAZBLUE CONTINUUM SHIFT II;
#ARTIST:今井麻美;
#TITLETRANSLIT:Shinsou;
#SUBTITLETRANSLIT:BLAZBLUE Continuum Shift II;
#ARTISTTRANSLIT:Asami Imai;
#GENRE:Otaku's Dream 2nd Mix (Pad);
#CREDIT:Huzure & Itsugo;
#BANNER:Shinsou-bn.png;
#BACKGROUND:Shinsou-bg.png;
#LYRICSPATH:Shinsou.lrc;
#CDTITLE:Collab.png;
#MUSIC:Shinsou.ogg;
#OFFSET:-2.400;
#SAMPLESTART:61.487;
#SAMPLELENGTH:30.000;
#SELECTABLE:YES;
#LISTSORT:;
#BPMS:0.000=61.010,11.500=122.020;
#STOPS:11.500=1.000
;
#TICKCOUNT:0.000=6;
#BGCHANGES:-2.362=Shinsou.avi=1.000=0=1=0,
190.000=Shinsou.avi=0.000=0=1=0,
99999=-nosongbg-=1.000=0=0=0 // don't automatically add -songbackground-
;
#KEYSOUNDS:;
#ATTACKS:;

//---------------dance-single - Challenge Itsugo----------------
#NOTES:
     dance-single:
     Challenge Itsugo:
     Challenge:
     10:
     0.712,0.665,0.737,0.243,0.644:
0000
0000
0000
2000
0000
0000
0000
0000
0000
0000
0000
3020
0000
0000
0000
0032
,
0000
0000
0000
0023
0000
0000
0000
0230
0000
0302
0000
2003
0000
0000
0000
3200
,
0000
0000
0000
0000
0000
0000
0320
0000
0000
0000
0000
0000
0000
0000
0000
0000
0000
0000
0000
0000
0000
0000
0031
0000
0000
1000
0000
0000
0100
0000
0000
0000
,
1100
0000
0001
0010
0100
1000
0001
0000
0100
0000
0010
1000
0000
0001
0010
0000
,
0011
0000
1000
0100
0010
0001
1000
0000
0010
0000
0100
0001
0000
1000
0100
0000
,
0110
0000
0010
0001
1000
0100
0010
0000
0001
0000
1000
0010
0000
0001
0010
0000
,
0110
0000
0010
1000
0001
0100
0010
0000
1000
0000
0100
0001
0000
0100
0010
0000
,
0011
0000
0001
0010
0100
0010
0001
0000
0100
0000
0010
1000
0000
1000
0100
0000
,
1100
0000
1000
0100
0010
0100
1000
0000
0010
0000
0100
0001
0000
1000
0010
0000
,
1010
0000
1000
0010
0100
0010
1000
0000
0100
0000
0010
0001
0000
0001
0010
0100
,
2000
0000
0000
0000
3002
0000
0000
0023
0030
0000
0011
0000
0001
0100
0010
1000
,
0200
0000
0300
1100
0000
0000
1000
0000
1000
0000
1000
0000
1000
0000
1000
0000
,
1100
0000
0000
1001
0000
0000
0004
0000
0000
0000
0000
0000
0000
0000
0003
0000
,
0101
0100
0001
0010
0011
0001
0010
0100
,
0110
0000
0000
1100
0000
0000
0101
0000
0100
0000
1000
0000
0100
0000
0010
0000
,
2010
0000
0001
0000
0000
0001
0000
0000
3001
0000
0001
1000
0000
0100
0010
0001
,
0012
0000
1000
0000
0000
1000
0000
0000
1003
0000
1000
0001
0000
0010
0100
1000
,
1100
0000
0000
1001
0000
0000
0101
0000
1010
0000
1000
0100
0000
0010
1000
0010
,
0001
0000
1000
0010
0000
1000
0100
0010
0001
0100
0001
0010
0100
1000
0010
0100
,
0002
0000
0103
0000
0101
0000
0001
0000
1000
0100
0010
0001
0010
0000
0011
0000
,
0002
0000
1003
0000
1001
0000
1000
0000
0010
0100
0001
0010
0100
0000
1000
0000
,
1100
0000
0100
0000
0110
0000
0010
0001
1000
0001
0100
0000
0010
0000
0100
0000
,
0110
0000
0100
0000
0001
0000
1000
0100
0000
1000
0010
0000
0100
0010
0100
0010
,
0100
0010
1000
0000
0100
0010
0001
0000
0010
0100
1000
0000
0010
0100
0001
0000
,
1000
0100
0001
0000
0001
0100
1000
0000
1000
0010
0001
0000
0001
0010
1000
0000
,
2010
0000
3002
0000
0013
0100
1000
0001
,
2002
0000
0020
3033
,
1001
0000
0001
0100
0000
0010
1000
0100
0001
0000
0100
0000
0010
0000
0001
0000
,
0011
0000
0001
1000
0000
0100
0001
0100
0010
0000
0001
0000
1000
0000
0010
0100
,
0001
0000
1000
0100
0000
0001
0100
0000
0010
0000
1000
0000
0010
0000
0001
0000
,
0011
0000
0001
0000
1000
0000
1001
0000
1010
0000
0010
0100
0001
1000
0010
1000
,
0001
0011
1000
1100
0100
0110
0011
0001
,
0100
0000
0001
0000
0010
0100
1000
0000
1100
0000
0000
1001
0000
0000
0101
0000
,
0011
0000
0000
0110
0000
0000
1010
0000
0110
0000
0000
0011
0000
0000
1001
0000
,
1000
0100
0010
0001
0100
0010
1000
0001
1001
0000
1100
0000
0011
0000
0101
0000
,
1010
0000
1000
0010
0000
0100
0001
0010
1000
0000
0010
0000
0100
0000
1000
0000
,
1100
0000
1000
0001
0000
0010
1000
0010
0100
0000
1000
0000
0001
0000
0100
0010
,
1000
0000
0001
0010
0000
1000
0010
0000
0100
0000
0001
0000
0100
0000
1000
0000
,
1100
0000
1000
0000
0001
0000
1001
0000
0101
0000
0100
0010
1000
0001
0100
0001
,
1000
1100
0001
0011
0010
0110
1100
1000
,
0010
0000
1000
0000
0100
0010
0001
0000
0011
0000
0000
1001
0000
0000
1010
0000
,
1100
0000
0000
0110
0000
0000
0101
0000
0110
0000
0000
1100
0000
0000
1001
0000
,
0001
0010
0100
1000
0010
0100
0001
1000
1001
0000
0011
0000
0101
0000
1100
0000
,
1010
0000
1000
0010
0100
0001
0010
0000
1000
0000
0010
0001
0000
0100
1000
0000
,
1100
0000
1000
0100
0010
1000
0100
0000
0001
0000
0100
0010
0000
0001
0100
0000
,
0101
0000
0001
0100
0010
1000
0100
0000
0001
0000
0100
1000
0000
0010
0001
0000
,
0110
0000
1000
0000
0001
0000
0000
0021
0000
0000
2030
0000
0000
3010
0001
0100
,
2000
0000
3000
0000
;

//---------------dance-single - Huzure Oni----------------
#NOTES:
     dance-single:
     Huzure Oni:
     Edit:
     11:
     0.776,0.754,0.635,0.168,0.840:
0000
0000
0000
0000
,
0000
0000
0000
0000
,
0000
0000
0000
0000
,
1001
0000
0001
0100
0010
1000
0100
0000
1100
0000
0100
1000
0100
0010
0001
0000
,
0101
0000
0100
0010
1000
0100
0010
0000
0011
0000
0100
1000
0010
0100
0001
0000
,
1001
0000
1000
0100
0001
0100
1000
0000
1100
0000
0100
0001
0100
0010
0001
0000
,
0101
0000
0010
0001
1000
0100
0010
0000
1100
0000
1000
0010
1000
0001
0010
0000
,
0110
0000
0100
1000
0010
0100
0001
0000
0011
0000
1000
0010
1000
0010
0100
0000
,
0110
0000
0100
0001
1000
0100
0010
0000
0011
0000
0001
0100
1000
0100
0001
0000
,
0101
0000
0100
0010
1000
0010
0100
0000
0001
1000
0100
0100
1000
0010
0020
0000
,
1030
0000
0100
0000
0010
0000
0100
0000
0000
0000
0000
0000
2000
0000
0000
0000
0000
0000
3000
0000
0000
2000
0000
0000
0000
0000
0000
3010
0000
0000
0100
0000
0000
0000
0000
0000
0001
0000
0000
0011
0000
0000
0000
0000
0000
0010
0000
0000
,
0001
0000
1000
0100
0010
0000
0001
0000
0100
0000
0001
0000
0100
0000
0001
0000
,
1002
0000
0013
0100
1000
0000
1000
0000
0002
0000
0000
0000
0203
0000
0000
0000
,
0310
1000
0100
0100
1100
1000
0100
0100
,
0110
0000
0000
0010
0000
0000
0001
0000
0000
1000
0000
0000
0010
0000
0000
1000
0000
0000
0001
0100
0001
0100
0001
0100
,
0002
0000
0000
0000
0003
0000
1001
0000
1000
0000
0100
1100
0000
1000
0100
1000
,
0002
0000
0000
0000
0013
0000
0101
0000
0001
0000
1000
1100
0000
0001
0010
0100
,
1000
0000
0100
0110
0000
0010
0001
0010
0100
0000
0010
0110
0000
0100
1000
0001
,
0100
0010
0010
0100
0010
0010
0100
0001
0100
0000
0001
1000
0100
1000
0010
0100
,
0001
0000
0100
0000
0101
0000
0100
0000
0001
1000
1000
0100
0010
0000
0010
0000
,
0001
0000
1000
0000
1100
0000
0010
0001
0000
1000
0000
0001
0010
0000
0110
0000
,
1001
0000
0001
0000
0110
0000
1000
1000
0010
1000
1000
0010
1000
0000
1100
0000
,
0011
0000
0001
1000
0100
0000
0010
0011
0000
0001
1000
0100
0010
0001
1000
0010
,
1000
0000
0001
0101
0000
0100
0010
0000
1000
0100
1000
0100
1000
0000
0001
0000
,
0101
0000
0100
1000
0000
0100
0002
0000
0103
0010
1000
0000
1000
0100
0010
0001
,
0200
0000
0320
0000
1030
0001
0100
0010
,
1002
0000
2003
0000
3200
0000
1300
0100
0020
0000
0000
0000
0030
0000
0000
0000
,
0101
0000
0001
0100
0000
0001
0100
0000
0110
0000
0010
1000
0000
0100
1000
0100
,
0110
0000
0010
0001
1000
0001
0010
0000
0011
0000
0100
1000
0000
0010
0100
0001
,
1001
0000
1000
0100
0001
0100
1000
0000
1100
0000
0110
0000
0101
0000
0110
0000
,
0011
0000
0001
0010
0100
1000
0100
0000
0110
0000
1000
0001
0000
0001
1000
0000
,
0010
0000
0100
0001
0010
0001
0100
0000
0010
0000
1000
0100
0000
0100
1000
0000
,
0001
0000
0100
0000
1000
0100
0001
0000
0101
0000
0100
0110
0000
0010
1010
0000
,
1100
0000
0100
0020
0000
0031
0100
0000
0110
0000
0010
1000
0000
0001
0100
0000
,
0001
0000
0010
0000
0001
0000
0010
0000
0100
0000
0010
0000
0001
0000
0010
0000
0001
0000
0010
0000
0100
0000
0010
0000
0001
0000
0000
1000
0000
0000
0010
0000
0000
1000
0000
0000
0100
0000
0000
1000
0000
0000
0010
0000
0000
0100
0000
0000
,
0101
0000
0001
0100
0000
0010
1000
0100
0020
0000
0100
0000
0031
0000
0010
0100
,
0010
0000
0001
1000
0000
0100
0001
0100
1000
0000
0001
0010
0100
1000
0010
0000
,
0101
0000
0001
1000
0010
0010
1000
0001
0011
0000
0001
1000
0100
0010
0001
0000
,
1001
0000
1000
0000
0001
0010
0100
1000
0010
0000
0100
0010
0000
0010
1000
0000
,
0001
0000
0010
0100
0010
0001
0010
0000
0100
0000
1000
0010
0000
0100
0010
0000
,
1000
0000
0001
0000
0010
0100
1000
0100
0110
0000
0010
0011
0000
0001
1000
0010
,
1000
0100
0010
1000
0010
0001
1000
0001
1001
0000
1000
0010
0000
0100
0001
0000
,
1000
0100
0100
1000
0100
0100
0010
0001
1001
0000
0101
0100
0001
1000
0100
0010
,
0001
0000
0010
0100
1000
0100
0010
0000
0011
0000
0001
0100
1000
0100
0010
0000
,
1010
0000
1000
0100
0001
0100
0010
0000
0011
0000
0001
0100
0010
1000
0010
0000
,
0101
0000
0001
0010
0100
1000
0001
0000
1001
0000
0010
0100
1000
0100
0110
0000
,
0010
0010
0001
0000
0011
0000
0010
0110
0000
0100
1100
0000
1000
0010
0010
0100
,
0002
0000
0003
0000
;

//---------------dance-single - Itsugo----------------
#NOTES:
     dance-single:
     Itsugo:
     Hard:
     9:
     0.553,0.553,0.513,0.233,0.271:
0000
0000
0000
0000
,
0000
0000
0000
0000
,
0000
0000
0000
0000
,
1001
0000
1000
0000
0010
0000
0100
0000
0001
0000
1000
0100
0000
0010
0001
0000
,
1001
0000
0001
0000
0100
0000
0010
0000
1000
0000
0001
0010
0000
0100
1000
0000
,
1001
0000
1000
0000
0100
0000
0001
0000
0100
0000
0010
0001
0000
0100
0010
0000
,
1001
0000
0001
0000
0010
0000
1000
0000
0010
0000
0100
1000
0000
0010
0100
0000
,
1001
0000
0001
0000
0100
0001
0100
0000
0010
0000
1000
0100
0000
0010
0001
0000
,
1001
0000
1000
0000
0010
1000
0010
0000
0100
0000
0001
0010
0000
0100
1000
0000
,
1001
0000
1000
0000
0100
0010
0100
0000
0010
0000
0001
1000
0000
0010
0100
0000
,
1001
0000
0000
0000
0110
0000
0000
1001
0000
0000
0110
0000
0010
1000
0000
0001
,
0020
0000
0000
0230
0000
0000
4000
0000
0000
0000
0000
0000
0000
0000
3300
0000
,
1100
0000
0000
1001
0000
0000
0002
0000
0400
0000
0000
0000
0000
0000
0303
0000
,
1001
1000
0100
0010
0110
0010
0001
1000
,
1001
0000
0000
1100
0000
0000
0101
0000
0110
0000
0100
0000
0001
0000
1000
0000
,
2002
0000
0000
0000
0000
0000
0003
0000
0100
0000
0000
0010
0000
0000
3001
0000
,
0202
0000
0000
0000
0000
0000
0300
0000
0010
0000
0000
0100
0000
0000
1003
0000
,
0100
0000
0000
0010
0000
0000
0001
0000
0011
0000
0000
0001
0000
0000
1000
0000
,
1001
0000
0000
1000
0000
0000
0010
0000
1010
0000
0010
0100
0010
0000
1000
0001
,
1000
0100
1000
0001
1000
0010
1000
0100
,
1000
0010
1000
0001
1000
0100
1000
0010
,
0101
0010
0001
1000
0001
0100
0001
0010
,
1100
0000
0010
0000
0100
0000
0000
0001
0000
0000
1000
0000
0001
1000
0001
1000
,
0001
0100
1000
0100
0010
1000
0100
0001
,
0100
1000
0100
0010
0001
1000
0010
0100
,
0110
0000
1001
0000
0110
0100
1000
0001
,
0200
0000
0000
0010
0000
0000
0010
0000
0020
0000
0000
0330
0MM0
0000
0000
0000
,
1001
1000
0100
0010
0100
1000
0010
0100
,
1000
0100
0010
1000
0100
0010
0001
1000
,
1001
0000
0001
0100
0000
0000
0010
0000
1000
0000
0001
0000
0010
0000
1000
0000
,
0010
0001
1000
0010
0001
0010
1000
0001
,
1001
0000
0000
1000
0000
0000
0100
0000
1100
0000
0100
0000
0010
0000
0001
0000
,
1000
0000
0010
0000
0100
0001
0000
0000
0101
0000
0000
1001
0000
0000
1100
0000
,
0020
0000
0000
0032
0000
0000
2003
0000
3020
0000
0000
0230
0000
0000
0302
0000
,
1003
0100
0010
0001
0012
1000
0100
1003
,
1001
0001
0010
0100
0010
0001
0100
0010
,
0001
0010
0100
0001
0010
0100
1000
0001
,
1001
0000
1000
0010
0000
0000
0100
0000
0001
0000
1000
0000
0100
0000
0001
0000
,
0100
1000
0001
0100
1000
0100
0001
1000
,
1001
0000
0000
0001
0000
0000
0010
0000
0011
0000
0010
0000
0100
0000
1000
0000
,
0001
0000
0100
0000
0010
1000
0000
0000
1010
0000
0000
1001
0000
0000
0011
0000
,
0200
0000
0000
2300
0000
0000
3002
0000
0203
0000
0000
0320
0000
0000
2030
0000
,
3001
0010
0100
1000
1100
1100
1001
0101
,
0101
0000
0001
0000
0100
0010
0100
0000
0001
0000
1000
0100
0000
1000
0010
0000
,
1010
0000
1000
0000
0010
0100
0010
0000
1000
0000
0001
0010
0000
0001
0100
0000
,
1010
0000
1000
0000
0100
0010
0001
0000
1000
0000
0010
0100
0000
0001
1000
0000
,
1001
0000
0000
0000
0110
0000
0000
1001
0000
0000
0110
0000
0000
0100
1000
0001
,
0200
0000
0000
0000
0000
0000
0000
0300
0000
0000
0000
0000
0000
0000
0000
0000
;

//---------------dance-single - Medium Itsugo15----------------
#NOTES:
     dance-single:
     Medium Itsugo15:
     Medium:
     6:
     0.403,0.420,0.280,0.215,0.126:
0000
0000
0000
0000
,
0000
0000
0000
0000
,
0000
0000
0000
0000
,
1001
0000
0001
0000
0100
0000
0001
0000
1000
0000
0000
0100
0000
0000
0010
0000
,
0110
0000
0100
0000
0010
0000
0100
0000
1000
0000
0000
0001
0000
0000
0100
0000
,
0101
0000
0100
0000
0001
0000
0100
0000
0010
0000
0000
1000
0000
0000
0001
0000
,
1001
0001
0010
0100
1000
0100
0010
0001
,
1001
0000
1000
0000
0010
0000
1000
0000
0001
0000
0000
0010
0000
0000
0100
0000
,
0110
0000
0010
0000
0100
0000
0010
0000
0001
0000
0000
1000
0000
0000
0010
0000
,
1010
0000
0010
0000
1000
0000
0010
0000
0100
0000
0000
0001
0000
0000
1000
0000
,
1001
0000
0000
0000
,
1100
0000
0000
0001
0000
0000
0000
0000
0000
0000
0000
0000
0000
0000
0000
0000
,
0101
0000
0000
1000
0000
0000
0004
0000
0000
0000
0000
0000
0000
0000
0003
0000
,
1001
0000
1100
0000
,
0011
0000
0000
0001
0000
0000
1000
0000
0010
0000
0000
0000
0100
0000
0000
0000
,
0110
0000
0000
0000
0000
0000
0000
0000
0010
0000
0000
1000
0000
0000
0001
0000
,
1001
0000
0000
0000
0000
0000
0000
0000
0001
0000
0000
0010
0000
0000
0100
0000
,
0110
0000
0000
0010
0000
0000
0001
0000
1000
0000
0000
1000
0000
0000
0010
0000
,
0100
0000
0000
0100
0000
0000
0001
0000
0010
0000
0100
0000
1000
0000
0100
0000
,
0020
0001
0001
0001
,
0032
1000
1000
1000
,
2003
0010
0010
0010
,
3020
0100
0001
0100
,
1030
0010
1000
0010
1000
0010
1000
0001
,
0010
0001
0010
0001
0010
0001
0010
0100
,
1000
0000
0001
0000
0100
0010
1000
0100
,
0020
0000
0031
0000
,
1001
0000
0000
0001
0000
0000
0100
0000
0010
0000
1000
0000
0010
0000
1000
0000
,
0001
0000
0000
0010
0000
0000
0100
0000
1000
0000
0100
0000
1000
0000
0100
0000
,
0010
0000
0000
0001
0000
0000
1000
0000
1000
0000
0001
0000
0100
0000
0010
0000
,
2000
3200
0320
0032
,
1003
1000
0010
0000
0010
0010
0100
0000
,
0100
0000
0100
0000
0001
0000
0000
0000
0101
0000
0000
1001
0000
0000
1100
0000
,
0200
0320
0032
2003
,
3001
0001
1000
1000
0010
0100
0001
1000
,
0010
0000
0000
1000
0000
0000
0010
0000
0100
0000
0001
0000
0100
0000
0001
0000
,
1000
0000
0000
0100
0000
0000
0010
0000
0001
0000
0010
0000
0001
0000
0010
0000
,
0100
0000
0000
1000
0000
0000
0001
0000
0001
0000
1000
0000
0010
0000
0100
0000
,
0002
0023
0230
2300
,
3001
0001
0100
0000
0100
0100
0010
0000
,
0010
0000
0010
0000
1000
0000
0000
0000
1010
0000
0000
1001
0000
0000
0011
0000
,
0020
0230
2300
3002
,
1003
1000
0001
0001
0100
0010
1000
0001
,
1001
0000
0001
0000
0100
0000
0001
0000
1000
0000
0000
0100
0000
0000
0010
0000
,
0110
0000
0100
0000
0010
0000
0100
0000
1000
0000
0000
0001
0000
0000
0100
0000
,
0101
0000
0100
0000
0001
0000
0100
0000
0010
0000
0000
1000
0000
0000
0001
0000
,
1001
0000
0000
0000
0110
0000
0000
1001
0000
0000
0110
0000
0000
0001
0000
0000
,
2000
0000
0000
3000
0000
0000
0000
0000
;

//---------------dance-single - Itsugo15----------------
#NOTES:
     dance-single:
     Itsugo15:
     Easy:
     5:
     0.181,0.222,0.168,0.121,0.000: // measure 1
0000
0000
0000
0000
,  // measure 2
0000
0000
0000
0000
,  // measure 3
0000
0000
0000
0000
,  // measure 4
1001
1000
0000
1000
,  // measure 5
1001
0001
0000
0001
,  // measure 6
1001
1000
0000
0100
,  // measure 7
1100
0010
0000
0001
,  // measure 8
0011
0001
0000
0100
,  // measure 9
0101
0010
0000
1000
,  // measure 10
1010
1000
0000
0001
,  // measure 11
1001
0000
0000
0000
,  // measure 12
1000
0100
0100
0100
,  // measure 13
0010
0001
0001
0001
,  // measure 14
1000
0000
0010
0000
,  // measure 15
0100
0000
0001
0000
,  // measure 16
0101
0000
0000
0000
,  // measure 17
1010
0000
0000
0000
,  // measure 18
1100
0010
0011
0001
,  // measure 19
1001
1000
0010
0100
,  // measure 20
0002
0000
0000
0000
,  // measure 21
1003
1000
0100
0100
,  // measure 22
0020
0000
0000
0000
,  // measure 23
0031
0001
1000
1000
,  // measure 24
0010
0000
0100
0000
,  // measure 25
0001
0000
1000
0000
,  // measure 26
1001
0000
0100
0000
,  // measure 27
0110
0000
0002
0003
,  // measure 28
1001
0000
0001
0000
,  // measure 29
0010
0000
0100
0000
,  // measure 30
1000
0000
0001
0000
,  // measure 31
0100
0000
0010
0000
,  // measure 32
1000
1000
0000
0001
,  // measure 33
0001
0000
0010
0000
,  // measure 34
0200
0000
2300
0000
,  // measure 35
3002
0000
0203
0000
,  // measure 36
0310
0000
1000
0000
,  // measure 37
0001
0000
0010
0000
,  // measure 38
0100
0000
1000
0000
,  // measure 39
0100
0000
0010
0000
,  // measure 40
0001
0001
0000
1000
,  // measure 41
1000
0000
0010
0000
,  // measure 42
0200
0000
0302
0000
,  // measure 43
2003
0000
0000
0000
3200
0000
0000
0300
,  // measure 44
0010
0000
0001
0000
,  // measure 45
1000
0000
0010
0000
,  // measure 46
0100
0000
0001
0000
,  // measure 47
1000
0000
1001
0000
,  // measure 48
0220
0000
0330
0000
;

//---------------dance-single - Itsugo15----------------
#NOTES:
     dance-single:
     Itsugo15:
     Beginner:
     3:
     0.107,0.175,0.159,0.047,0.000:
0000
0000
0000
0000
,
0000
0000
0000
0000
,
0000
0000
0000
0000
,
1001
0000
0000
0000
,
0001
0000
0000
0000
,
1000
0000
0000
0000
,
0010
0000
0000
0000
,
0100
0000
0000
0000
,
0001
0000
0000
0000
,
1000
0000
0000
0000
,
1001
0000
0000
0000
,
1100
0000
0000
0000
,
0011
0000
0000
0000
,
0101
0000
0110
0000
,
1010
0000
1000
0000
,
0001
0000
0000
0000
,
1001
0000
0000
0000
,
1001
0000
0001
0000
,
0010
0000
0100
0000
,
2000
0000
0000
0000
,
3000
0000
0000
0000
,
0002
0000
0000
0000
,
0003
0000
0000
0000
,
0100
0000
0010
0000
,
1000
0000
0001
0000
,
0010
0000
0000
0000
,
0001
0000
0000
0000
,
1001
0000
0000
0000
,
1000
0000
0000
0000
,
0010
0000
0000
0000
,
0100
0000
0000
0000
,
0001
0000
0001
0000
,
1000
0000
1000
0000
,
1001
0000
1000
0000
,
1001
0000
0001
0000
,
0010
0000
0000
0000
,
0100
0000
0000
0000
,
1000
0000
0000
0000
,
0001
0000
0000
0000
,
1001
0000
0001
0000
,
1001
0000
1000
0000
,
1001
0000
0001
0000
,
0100
0000
0010
0000
,
2000
0000
0000
0000
,
3002
0000
0000
0000
,
0023
0000
0000
0000
0000
0000
0000
0030
,
0110
0000
1000
0000
,
1001
0000
0000
0000
;
