#TITLE:Scarlet Ballet;
#SUBTITLE:緋弾のアリア;
#ARTIST:May`n;
#TITLETRANSLIT:Scarlet Ballet;
#SUBTITLETRANSLIT:Hidan no Aria;
#ARTISTTRANSLIT:May`n;
#GENRE:Otaku's Dream 2nd Mix (Pad);
#CREDIT:Itsugo & Sdj';
#MENUCOLOR:;
#BANNER:scaletbn-1.png;
#BACKGROUND:scaletbg-1.png;
#LYRICSPATH:Scarlet Ballet.lrc;
#CDTITLE:Collab.png;
#MUSIC:Scarlet Ballet.ogg;
#OFFSET:0.054;
#SAMPLESTART:56.068;
#SAMPLELENGTH:12.380;
#SELECTABLE:YES;
#LISTSORT:;
#BPMS:0.000=155.000,36.000=155.000,144.000=77.500,145.000=155.000;
#STOPS:145.000=0.390
,226.500=0.100
;
#TICKCOUNT:0.000=6;
#BGCHANGES:1.000=Scarlet Ballet.avi=1.000=1=1=0,
228.000=scaletbg-1.png=1.000=1=1=0,
99999=-nosongbg-=1.000=0=0=0 // don't automatically add -songbackground-
;
#KEYSOUNDS:;
#ATTACKS:;

//---------------dance-single - Sdj' Challenge----------------
#NOTES:
     dance-single:
     Sdj' Challenge:
     Challenge:
     11:
     0.988,1.000,0.778,1.000,0.521: // measure 1
0000
0000
0000
0000
,  // measure 2
1000
0010
0100
0001
,  // measure 3
0010
0100
1000
0001
,  // measure 4
0100
0010
1000
0100
,  // measure 5
0010
0001
1000
0010
,  // measure 6
0100
0001
0001
0010
,  // measure 7
0100
0000
1000
0000
1000
0010
0100
0001
,  // measure 8
0002
0000
0000
0203
0000
0010
0310
0000
,  // measure 9
0000
0000
0000
0000
0000
0000
0000
0000
1MM1
0000
1MM1
0000
0002
0000
1003
0001
,  // measure 10
2000
3010
0120
0130
0002
1003
1200
0310
,  // measure 11
0002
0103
0201
0301
2002
3003
2000
3010
,  // measure 12
0120
0130
0002
0103
0201
0301
2002
3003
,  // measure 13
4000
0000
0000
0000
,  // measure 14
0000
0000
0000
0000
0000
0000
0000
0000
0000
0000
3000
0000
0000
0000
1000
0001
,  // measure 15
2000
0010
0010
3010
2001
0001
0001
3001
,  // measure 16
0210
0310
1020
1030
2100
3100
0210
0310
,  // measure 17
0021
0001
0001
0031
1002
1000
1000
1003
,  // measure 18
2100
3100
0210
0310
0021
0031
1002
1003
,  // measure 19
1001
0000
0000
0001
0010
0100
1000
0000
0000
2000
0000
0000
3000
0000
0000
0001
0010
0100
2000
0000
0000
3010
0000
0000
,  // measure 20
0120
0000
0130
0000
1001
0000
1000
0010
1000
0000
0001
0100
0001
0000
1001
0000
,  // measure 21
0001
0000
0000
1000
0010
0100
0002
0000
0000
1000
0000
0000
1003
0000
0000
0001
0100
0010
2000
0000
0000
0001
0000
0000
,  // measure 22
3002
0000
0103
0000
0210
0000
0310
0000
1020
0000
1030
0000
2001
0000
3001
1000
,  // measure 23
0001
0010
0001
1000
0010
1000
0100
0010
0001
0010
0100
1000
0100
0010
0001
0100
,  // measure 24
0010
0000
1000
0000
2000
0000
3100
0000
0010
0000
0001
0000
0100
0001
0100
0000
,  // measure 25
0110
0000
0010
0000
1000
0000
1000
0000
0200
0000
0310
0001
0000
0000
0100
0010
,  // measure 26
0100
0000
1001
0000
0002
0000
0013
0000
0100
0000
1000
0000
0010
1000
0010
0000
,  // measure 27
0110
0000
0100
0000
0001
0000
0001
0000
0020
0000
0130
1000
0000
0000
0010
0100
,  // measure 28
0010
0000
1001
0000
0002
0000
0013
0000
0100
0000
1000
0000
0010
0100
0010
0000
,  // measure 29
1000
0000
0001
0000
0100
0000
0001
1000
0000
0000
0000
0000
1010
0000
1000
0000
,  // measure 30
2002
0000
3003
0000
1000
0000
0001
1000
0001
0000
0100
0000
0010
0000
0010
0000
,  // measure 31
2002
3003
0000
0220
0330
0000
2002
3003
1000
0100
0010
0001
0100
0000
0010
0000
,  // measure 32
2MMM
0000
3000
0000
MMMM
0000
0010
0100
M02M
0000
0030
0000
MMMM
0000
1000
0000
,  // measure 33
2200
3300
0000
0220
0330
0000
0001
1000
0040
0000
0000
0000
MM3M
0000
0100
0000
,  // measure 34
MMM2
0000
0003
0000
MMMM
0000
0100
0010
M20M
0000
0300
0000
2MM2
0000
3003
0000
,  // measure 35
0202
0000
0000
0303
0000
0000
0000
0000
0000
0220
0000
0000
0330
0000
0000
0000
0000
0000
2020
0000
0000
3030
0000
0000
1000
0000
0000
0100
0000
0000
0010
0000
0000
0001
0000
0000
0010
0000
0000
0100
0000
0000
1000
0000
0001
0000
1000
0000
,  // measure 36
0001
0000
0000
0000
0000
0000
1MM1
0000
0000
0000
0000
0000
1MM1
0000
0000
0000
0000
0000
0220
0000
0330
0000
0000
0000
0002
0003
0000
2000
3000
0000
0002
0003
0000
0000
0000
0000
0220
0000
0000
0000
0000
0000
0330
0000
0000
0000
0000
0000
,  // measure 37
4004
0000
0000
0000
0000
0000
0000
3003
0000
0000
0000
0000
0000
0000
0000
0000
0000
0000
0000
0000
0000
0000
0000
0000
1000
0000
0000
0100
0000
0000
0010
0000
0000
0001
0000
0000
1000
0000
0000
0100
0000
0000
0010
0000
0000
0001
0000
0000
,  // measure 38
1000
0010
1000
0010
0100
0001
0100
0001
0010
0100
1000
0001
1000
0000
0001
0000
,  // measure 39
1002
0000
1003
0000
2010
0000
3010
0000
1000
0001
1000
0001
1000
0001
0010
0001
,  // measure 40
0010
0100
1000
0100
0010
0001
1000
0100
0010
0001
0010
0100
1000
0000
0010
0000
,  // measure 41
0110
0000
0100
0000
0101
0000
0001
0000
1000
0010
0100
0010
1000
0000
0001
0010
,  // measure 42
0001
0010
0100
0000
2000
0000
0000
0000
3010
0000
0000
0000
1001
0000
1000
0000
,  // measure 43
2010
3010
0120
0130
0102
0000
0003
2000
,  // measure 44
0000
3100
0020
0000
0030
0000
0000
0001
,  // measure 45
0002
0000
1003
0000
2001
0000
3001
0000
1000
0100
0010
0001
1000
0100
0010
0001
,  // measure 46
1000
0010
1000
0010
0100
0001
0100
0001
1000
0001
0010
0100
1000
0000
0002
0000
,  // measure 47
2003
0000
3001
0000
1002
0000
1003
0000
0001
1000
0001
1000
0001
1000
0010
0100
,  // measure 48
0001
0010
0100
1000
0010
0100
0001
1000
0001
1000
0100
0010
0001
0000
0100
0000
,  // measure 49
0110
0000
0010
0000
1010
0000
1000
0000
0001
0100
0010
0100
0001
0000
1000
0100
,  // measure 50
1000
0100
0010
0000
0002
0000
0000
0000
0103
0000
0000
0000
1001
0000
0001
0000
,  // measure 51
0102
0103
0210
0310
2010
0000
0000
3020
,  // measure 52
0000
0230
0000
0302
0000
1003
0100
0010
,  // measure 53
0001
0000
0000
0000
1001
0000
0001
1000
0002
0000
1003
0000
2000
0000
3010
0000
,  // measure 54
0110
0100
0002
1003
1001
0001
0020
0230
,  // measure 55
2300
0000
3000
0000
1010
0000
1000
0100
2000
0000
3000
0000
2200
0000
3300
0000
,  // measure 56
0220
0330
0022
0033
0001
0010
0100
1000
,  // measure 57
0010
0000
0100
0000
0001
0000
1000
0001
1000
0000
0220
0000
0000
0000
0000
0000
,  // measure 58
0330
0000
0000
0000
;

//---------------dance-single - Itsugo----------------
#NOTES:
     dance-single:
     Itsugo:
     Beginner:
     2:
     0.105,0.155,0.066,0.000,0.000:
0000
0000
0000
0000
,
0000
0000
0000
0000
,
0000
0000
0000
0000
,
0000
0000
0000
0000
,
0000
0000
0000
0000
,
0000
0000
0000
0000
,
0000
0000
0000
0000
,
0000
0000
0000
0000
,
0000
0000
0000
0000
,
1001
0000
1000
0000
,
0000
0000
0010
0000
,
0000
0000
0100
0000
,
0000
0000
0001
0000
,
0000
0000
1000
0000
,
1001
0000
0000
0000
,
0001
0000
0000
0000
,
0010
0000
0000
0000
,
0100
0000
0000
0000
,
1000
0000
0000
0000
,
0001
0000
0000
0000
,
0100
0000
0000
0000
,
0010
0000
0000
0000
,
1000
0000
0000
0000
,
1010
0000
0000
0000
,
1000
0000
0000
0000
,
0001
0000
0000
0000
,
0010
0000
0000
0000
,
0100
0000
0000
0000
,
0010
0000
0000
0000
,
0001
0000
0000
0000
,
1000
0000
0000
0000
,
1001
0000
0000
0000
,
0001
0000
0000
0000
,
0101
0000
0000
0000
,
0001
0000
0000
0000
,
1000
0000
0000
0000
,
0100
0000
0010
0000
,
0001
0000
1000
0000
,
0000
0000
0010
0000
,
0100
0000
0001
0000
,
0000
0000
1000
0000
,
0100
0000
0010
0000
,
0000
0000
0001
0000
,
1000
0000
0010
0000
,
0000
0000
0100
0000
,
0001
0000
1000
0000
,
0100
0000
1000
0000
,
0010
0000
0100
0000
,
0001
0000
0010
0000
,
0010
0000
0001
0000
,
1000
0000
0010
0000
,
0010
0000
1000
0000
,
0000
0000
0001
0000
,
0000
0000
0010
0000
,
0000
0000
0100
0000
,
0000
0000
1000
0000
,
0000
0000
0000
0000
0000
1001
0000
0000
;

//---------------dance-single - Itsugo----------------
#NOTES:
     dance-single:
     Itsugo:
     Easy:
     5:
     0.224,0.372,0.153,0.110,0.000:
0000
0000
0000
0000
,
1000
0000
0000
0000
,
0000
0000
0000
0000
,
0001
0000
0000
0000
,
0000
0000
0000
0000
,
0010
0000
0000
0000
,
0000
0000
0000
0000
,
0100
0000
0000
0000
,
0110
0000
0000
0000
,
1001
0000
0001
0000
,
1000
0000
0020
0030
,
0100
0000
0100
0000
,
0001
0000
0001
0000
,
1000
0000
1000
0000
,
1001
0000
1000
0000
,
0200
0000
0300
0000
,
0010
0000
0001
0000
,
2000
0000
3000
0000
,
0010
0000
0100
0000
,
0001
0000
1000
0000
,
0100
0000
0010
0000
,
0100
0000
2000
0000
,
0002
0000
0000
3003
,
1001
0000
0001
0000
,
0100
0000
0100
0000
,
0010
0000
1000
0000
,
0100
0000
0100
0000
,
1000
0000
0001
0000
,
0100
0000
0100
0000
,
0001
0000
1000
0000
,
1000
0000
0100
0000
,
0020
0000
0031
0000
,
1000
0000
1000
0000
,
0020
0000
0130
0000
,
0001
0000
1000
0000
,
1001
0000
0100
0000
,
2002
3003
0001
0000
,
0010
0000
0100
0000
,
1000
0000
1100
0000
,
1000
0000
0001
0000
,
0100
0000
0110
0000
,
0010
0000
1010
0000
,
1000
0000
1001
0000
,
0001
0000
0011
0000
,
0100
0000
1000
1000
,
0010
0010
0100
0001
,
1000
0100
0010
0010
,
0100
0100
1000
0001
,
0100
0010
1000
1000
,
0001
0001
0010
0100
,
1000
0100
0010
0010
,
0001
0001
1000
0010
,
0100
0001
0101
1000
,
1100
0100
0010
0001
,
0011
1000
0010
0100
,
0001
1000
0200
0000
,
0000
0000
0000
0000
0000
0310
0000
0000
;

//---------------dance-single - Itsugo----------------
#NOTES:
     dance-single:
     Itsugo:
     Medium:
     7:
     0.399,0.406,0.307,0.077,0.011:
0000
0000
0000
0000
,
0001
0000
0001
0000
,
1000
0000
1000
0000
,
0010
0000
0010
0000
,
0100
0000
0100
0000
,
0001
0000
1000
0000
,
0100
0000
0010
0000
,
0001
0000
1000
0000
,
0010
0000
0100
0000
,
0110
0010
1010
1000
,
0100
0010
0001
0001
,
1000
1100
0100
0010
,
0001
0001
0100
0100
,
0010
0010
1000
1000
,
1001
0001
0010
0100
,
1000
1000
1000
1000
,
1100
0100
0010
0001
,
0100
0100
0100
0100
,
0110
0010
1000
0100
,
0010
0100
1000
0001
,
0100
0010
1000
0100
,
0010
0001
0100
0010
,
2000
0000
0000
0000
,
3010
0100
0101
0001
,
1000
0100
1000
0000
0100
0000
0010
0000
,
0001
0011
0001
1000
,
0010
1000
0010
0000
0100
0000
0001
0000
,
1000
0000
1100
0000
0100
0000
0010
0100
,
1000
0000
0001
0000
0100
0000
0010
1000
,
0001
1000
1100
0100
,
0010
0000
0001
0100
0010
0000
1000
0000
,
1010
0000
0000
0000
1001
0000
0000
0001
,
0010
0000
0000
0100
0000
0000
0100
0000
1000
0000
0000
0000
0000
0000
0000
0000
,
1100
0000
0011
0000
,
0010
0000
0000
0001
0000
0000
0100
0000
0010
0000
0000
0000
1000
0000
0000
0000
,
1010
0100
0010
0001
,
2002
3003
0001
1000
,
0010
0000
0100
0000
0001
1000
0001
1000
,
0100
0010
0001
0100
,
0010
0000
1000
0000
0100
0010
0100
1000
,
0010
0100
0101
0001
,
1001
1000
0100
0010
,
0100
1000
1100
1000
,
1001
0001
0100
0010
,
1000
0100
0010
0100
2000
0000
0010
0000
,
0100
0000
0001
0000
0010
0000
3001
0100
,
0001
0010
0100
1000
0002
0000
0010
0000
,
0100
0000
1000
0000
0013
0000
0100
1000
,
0010
0100
0001
1000
0100
0000
0010
0000
,
0100
1000
1100
0001
,
0101
0100
0110
0010
,
1000
0100
0010
0100
,
1000
0001
1001
0001
,
0101
0100
0010
1010
,
1100
0000
0100
0010
0100
0000
1000
0000
,
0001
0100
0010
0100
,
0001
0000
1000
0000
0100
2200
0000
0000
,
3300
0000
0000
0000
;

//---------------dance-single - Itsugo----------------
#NOTES:
     dance-single:
     Itsugo:
     Hard:
     9:
     0.632,0.656,0.274,0.153,0.088:
0000
0000
0000
0000
,
1000
0001
1000
0001
,
1000
0001
1000
0100
,
0010
0100
0010
0100
,
0010
0100
0010
0001
,
0100
0010
1000
0100
,
0010
0100
1000
0001
,
0100
0000
0000
0010
0000
0000
1000
0000
,
2002
0000
0000
3003
MMMM
0000
1001
0000
,
1000
0100
0010
0000
0001
0100
0010
0000
,
1000
0100
0010
0100
1000
0001
0100
0010
,
2000
3200
0320
0032
,
0103
0010
1000
0010
0100
0001
0010
0100
,
1000
0100
0010
0001
0100
0010
1000
0001
,
0010
0100
1000
0001
,
0100
0010
1000
0100
0010
0100
1000
0010
,
0100
0001
0010
0100
,
1000
0100
0010
0001
0100
0010
1000
0100
,
0010
0000
0100
0010
0100
0000
1000
0000
0100
0000
1000
0100
1000
0000
0001
0000
,
1000
0000
0010
0000
0100
0000
0001
0000
1000
0000
0100
0010
0001
0000
1000
0000
,
1001
0000
1000
0001
1000
0000
0100
0000
1000
0000
0100
1000
0100
0000
0010
0000
,
0001
1000
0010
0100
,
0001
0010
0100
1000
0100
0010
0001
1000
,
0010
1000
0010
0100
0010
0100
0010
0100
,
0001
0000
0010
0000
0100
0000
0010
0000
0001
0000
1000
0001
2000
0000
0000
0000
,
3010
1000
0001
0010
0100
0010
0001
1000
,
0010
0000
0100
0000
0001
0000
0010
0000
0100
0000
0010
0100
0020
0000
0000
0000
,
0031
0000
1000
0010
0100
0001
0010
0100
,
0010
0000
0001
0000
0100
0000
0010
1000
0010
0000
0000
0000
1010
0000
1000
0000
,
0001
0000
0011
0010
0100
1000
0010
0100
,
0101
0000
1001
0000
0000
0000
0001
0000
2000
0000
0000
0000
3100
0000
0010
0001
,
1000
0000
0000
0000
0000
0000
0001
1000
0010
0000
0000
0000
0000
0000
0010
0000
,
0110
0000
0100
0000
0000
0000
0001
0010
0100
0000
0000
0000
0000
0000
1000
0000
,
1100
0000
0000
0000
0000
0000
1000
0001
0100
0000
0000
0000
0010
0000
0000
0000
,
1010
0000
0000
0000
0010
0000
0100
0000
0001
0000
0010
0100
1000
0000
0100
0000
,
0010
0010
0100
1000
0001
0100
0010
0000
,
2002
0000
3003
0000
0001
0100
0010
1000
,
0100
0010
1000
0010
0100
0010
0001
0100
,
0101
0001
1001
0001
1000
0100
0010
0001
,
0100
0010
1000
0100
0010
0001
0100
0010
,
0110
0010
1010
1000
0010
0100
0001
0100
,
0010
0000
1001
0000
1000
0000
1100
0100
,
1000
0100
0001
0100
0010
0001
0100
0010
,
1000
0010
0100
0001
0010
0100
1000
0001
,
0100
0100
0010
0010
1000
0100
0001
1000
,
0010
0100
1000
0010
0100
1000
0001
0010
,
0100
0001
0010
0100
0001
1000
0010
0100
,
0010
0001
0100
0010
1000
0010
0100
0001
,
1000
0100
0010
0001
0200
0000
0310
0100
,
0000
0001
1000
0000
1001
0000
0001
1000
,
0001
0100
0010
1000
0100
0000
0010
0001
,
0000
0011
0000
1001
0000
1000
0010
0100
,
0001
0000
0010
0000
0100
0000
0010
0100
0010
0000
0000
0000
0001
0000
0000
0000
,
1001
0000
1000
0010
0100
0000
0001
0010
,
0100
0000
0000
0000
0110
0000
0100
1000
0100
0000
0000
0000
1100
0000
0000
0000
,
1001
0000
0011
0000
0010
0100
1000
0010
,
0100
0000
0001
0000
0010
0000
0100
0000
2000
0002
0000
0000
0000
0000
0000
0000
,
3003
0000
0000
0000
;
