#TITLE:Raided By Waves;
#SUBTITLE:Drift Towards Tomorrow;
#ARTIST:The American Dollar;
#TITLETRANSLIT:Raided By Waves;
#SUBTITLETRANSLIT:Drift Towards Tomorrow;
#ARTISTTRANSLIT:The American Dollar;
#GENRE:AMV;
#CREDIT:Itsugo15;
#BANNER:Raided By Waves-bn.jpg;
#BACKGROUND:Raided By Waves-bg1.jpg;
#JACKET:Raided By Waves-Jacket.jpg;
#LYRICSPATH:Raided By Waves.lrc;
#CDTITLE:Itsugo15 SimifileS.png;
#MUSIC:Raided By Waves.ogg;
#OFFSET:-0.017;
#SAMPLESTART:56.384;
#SAMPLELENGTH:30.000;
#SELECTABLE:YES;
#LISTSORT:;
#BPMS:0.000=136.000;
#STOPS:;
#TICKCOUNT:0.000=6;
#BGCHANGES:-0.485=Raided By Waves.avi=1.000=1=1=0,
271.000=Raided By Waves-bg2.jpg=1.000=1=1=0,
280.000=Raided By Waves-bg1.jpg=1.000=1=1=0,
99999=-nosongbg-=1.000=0=0=0 // don't automatically add -songbackground-
;
#KEYSOUNDS:;
#ATTACKS:;

//---------------dance-single - Itsugo15----------------
#NOTES:
     dance-single:
     Itsugo15:
     Challenge:
     11:
     0.665,0.735,0.538,1.000,0.154:
0002
1000
0000
1000
,
0000
1000
0000
1000
,
2003
0001
0000
0001
,
0000
0001
0000
0001
,
3002
0000
0000
0010
0010
0000
0000
0000
1000
0000
0000
1000
1000
0000
0000
0000
,
0100
0000
0000
0100
0100
0000
0000
0000
1000
0000
0000
1000
1000
0000
0000
0000
,
2003
0000
0000
0010
0010
0000
0000
0000
0001
0000
0000
0001
0001
0000
0000
0000
,
0100
0000
0000
0100
0100
0000
0000
0000
0001
0000
0000
0001
0001
0000
0000
0000
,
3110
0000
0000
0010
0100
0000
0000
0000
0001
0000
0000
1000
0100
0000
0000
0000
,
1100
0000
0000
0100
0010
0000
0000
0000
0001
0000
0000
1000
0010
0000
0100
0000
,
0110
0000
0000
0010
0100
0000
0000
0000
0001
0000
0000
0100
0010
0000
0000
0000
,
0110
0000
0000
1000
0001
0000
0010
0000
0100
0000
0000
1000
0100
0000
0010
0000
,
0110
0000
0000
0010
0100
0000
1000
0000
0001
0000
0000
1000
0100
0000
0010
0000
,
0110
0000
0000
0010
0001
0000
1000
0000
1001
0000
0000
0001
0100
0000
0010
0000
,
0110
0000
0000
0100
0001
0000
1000
0000
1001
0000
0000
1000
0100
0000
0010
0000
,
0110
0010
0001
1000
0100
0000
0010
0000
0000
0001
0010
0100
1000
0100
0010
0001
,
1000
0020
0230
0302
,
2003
3200
0320
1000
,
0032
0000
2003
0000
3020
0000
0230
0001
,
0302
0000
2003
0000
3200
0000
0302
1000
,
2003
0000
3020
0000
0032
1000
2003
0010
,
3020
0000
0032
0000
0023
1000
2030
0001
,
3002
0000
0023
0100
0230
1000
2300
0010
,
3020
0100
0230
0001
0302
0010
0023
0130
,
0110
0020
0230
2300
,
3002
0023
0230
0010
,
2300
0000
3002
0000
0203
0000
0320
0100
,
2030
0000
3002
0000
0023
0000
2030
0010
,
3002
0000
0203
0000
2300
0100
3002
1000
,
0203
0000
2300
0000
3200
1000
0302
0100
,
2003
0000
3200
1000
0320
0100
0032
0010
,
0203
0000
0000
0000
0000
0000
0000
0000
0001
0000
0000
0000
0000
0000
0000
0000
0320
0000
0000
0000
0000
0000
0000
0000
0100
0000
0000
0000
0000
0000
0000
0000
2030
0000
0000
0000
0000
0000
0000
0000
3010
0000
0000
0000
0000
0000
0000
0000
1000
0001
0000
0000
0000
0000
0000
0000
0000
0000
0000
0000
0000
0000
0000
0000
,
0012
0000
0000
0000
2003
0000
0000
0000
3020
0000
0000
0030
2010
0000
0000
0000
,
3002
0000
0000
0000
0203
0000
0000
0000
2300
0000
0000
0000
3200
0000
0000
0300
,
0120
0000
2030
0000
3200
0000
0320
0001
,
0000
0000
0130
0000
2000
0000
0000
0000
3002
0000
0000
0003
1001
0000
0001
0000
,
0201
0000
0000
0000
0320
0000
0000
0030
2010
0000
0000
0000
3001
0000
0012
0000
,
0000
0000
1103
0000
2000
0000
0000
3000
2001
0000
0000
0000
3001
0000
0100
0000
,
0110
0000
1000
0000
0002
0000
0000
0003
1002
0000
0000
0000
1003
0000
2100
0000
,
0000
0000
3011
0000
0002
0000
0000
0003
2001
0000
0000
0000
3001
0000
1000
0000
,
2100
0000
0000
0000
3002
0000
0000
0000
0203
0000
0000
0300
0102
0000
0000
0000
,
2003
0000
0010
0000
3020
0000
0000
0000
0032
0000
0000
0000
0023
0000
0000
0030
,
0210
0000
0302
0000
0023
0000
0230
1000
,
0000
0000
0310
0000
0002
0000
0000
0003
2001
0000
0000
3000
1001
0000
1000
0000
,
1020
0000
0000
0000
0230
0000
0000
0300
0102
0000
0000
0000
1003
0000
2100
0000
,
0000
0000
3011
0000
0002
0000
0000
0003
1002
0000
0000
0000
1003
0000
0010
0000
,
2010
0000
0000
3000
1002
0000
0000
0003
0021
0000
0000
0000
0031
0000
0210
0000
,
0000
0000
1300
0000
2001
0000
0000
3000
1000
0001
0010
0000
0100
1000
0100
0000
,
4100
0000
3004
0000
0403
0000
0304
1000
,
0003
0000
4000
0000
0100
0000
3000
0000
0004
0000
0000
0000
0403
0000
0010
0300
,
0410
0000
0304
0000
0043
0000
0430
1000
,
0000
0000
0310
0000
0004
0000
0000
0000
4003
0000
0000
3000
1001
0000
1000
0000
,
1040
0000
0000
0000
0430
0000
0000
0300
0104
0000
0000
0000
1003
0000
4100
0000
,
0000
0000
3011
0000
0004
0000
0000
0003
1004
0000
0000
0000
1003
0000
0010
0000
,
1010
0000
0001
0000
4000
0000
0000
3000
4001
0000
0000
0000
3001
0000
0014
0000
,
0000
0000
0000
0000
0000
0000
0000
0000
1103
0000
0000
0000
0000
0000
0000
0000
4000
0000
0000
0000
0000
0000
0000
0000
0000
0000
0000
0000
3000
0000
0000
1000
0001
0000
0000
0000
0000
0000
0000
0000
0100
0000
0000
0000
0000
0000
0000
0001
1000
0000
0000
0000
0000
0000
0000
0000
0010
0000
0000
0000
0000
0000
0000
0000
,
1004
0000
0000
0000
4003
0000
0000
0000
3040
0000
0000
0030
4010
0000
0000
0000
,
3004
0000
0100
0000
0403
0000
0000
0000
4300
0000
0000
0000
3400
0000
0010
0300
,
0140
0000
0000
0000
0000
0000
0000
0000
0000
0000
0000
0000
0000
0000
0000
0000
4030
0000
0000
0000
0000
0000
0000
0000
0000
0000
0000
0000
0000
0000
0000
0000
3400
0000
0000
0000
0000
0000
0000
0000
0000
0000
0000
0000
0000
0000
0000
0000
0310
0000
0000
0000
0000
0000
0000
0010
0001
0000
0000
0000
0000
0000
0000
0000
,
0000
0000
0000
0000
0000
0000
0000
0000
0100
0000
0000
0000
0000
0000
0000
1000
0100
0000
0000
0000
0000
0000
0000
0000
0000
0000
0000
0000
0000
0000
0000
1000
0004
0000
0000
0000
0000
0000
0000
0000
0000
0000
0000
0000
0003
0000
0000
0000
1001
0000
0000
0000
0000
0000
0000
0000
0001
0000
0000
0000
0000
0000
0000
0000
,
0401
0000
0000
0000
0340
0000
0000
0030
4010
0000
0000
0000
3001
0000
0014
0000
,
0000
0000
1103
0000
4000
0000
0000
3000
4001
0000
0000
0000
3001
0000
0100
0000
,
0104
0000
0000
0000
0000
0000
0000
0000
0000
0000
0000
0000
0003
0000
0000
0000
4001
0000
0000
0000
0000
0000
0000
0000
0000
0000
0000
0000
3000
0000
0000
0000
1400
0000
0000
0000
0000
0000
0000
0000
0000
0000
0000
0000
0000
0000
0000
0000
1300
0000
0000
0000
0000
0000
0000
0000
1100
0000
0000
0000
0000
0000
0000
0100
,
0010
0000
0000
0000
0000
0000
0000
0000
0011
0000
0000
0000
0000
0000
0000
0000
0001
0000
0000
0000
0000
0000
0000
0000
1000
0000
0000
0000
0000
0000
0000
0000
1010
0000
0000
0000
0000
0000
0000
0010
0100
0000
0000
0000
0000
0000
0000
0100
0001
0000
0000
0000
0000
0000
0000
0000
0000
0000
0000
0000
0000
0000
0000
0000
,
0240
0000
0000
0000
,
0000
0000
0000
0000
,
0000
0000
0000
0000
,
0000
0000
0000
0000
,
0000
0000
0000
0000
,
0000
0000
0000
0000
,
0030
0000
0000
0000
,
0000
0000
0300
0000
;

//---------------dance-single - Itsugo15----------------
#NOTES:
     dance-single:
     Itsugo15:
     Hard:
     7:
     0.410,0.646,0.079,1.000,0.012: // measure 1
0000
0000
0000
0000
,  // measure 2
0000
0000
0000
0000
,  // measure 3
0200
0000
0000
0000
,  // measure 4
0000
0000
0000
0000
,  // measure 5
0320
0000
0000
0000
,  // measure 6
0000
0000
0000
0000
,  // measure 7
0002
0000
0000
0000
,  // measure 8
0000
0000
0000
0030
,  // measure 9
2003
0001
0000
0001
,  // measure 10
0000
0001
0000
0001
,  // measure 11
3002
1000
0000
1000
,  // measure 12
0000
1000
0000
1000
,  // measure 13
2003
0010
0000
0010
,  // measure 14
0000
0010
0000
0010
,  // measure 15
0040
0000
0000
0000
,  // measure 16
0000
0000
0000
3000
,  // measure 17
1030
0002
0023
0230
,  // measure 18
0320
0032
0203
0010
,  // measure 19
0301
2000
3200
0302
,  // measure 20
0203
2300
3002
0010
,  // measure 21
1003
0020
0032
0023
,  // measure 22
2030
3002
0023
0100
,  // measure 23
1030
0020
0230
2300
,  // measure 24
3020
0230
2300
0100
,  // measure 25
3001
0020
2030
3200
,  // measure 26
0320
0032
0010
1000
,  // measure 27
0103
0200
0302
0023
,  // measure 28
0230
2300
0100
0001
,  // measure 29
3010
0020
0230
0302
,  // measure 30
2003
3200
0010
0001
,  // measure 31
1300
2000
3002
0203
,  // measure 32
0320
0000
0000
0000
0000
0000
0000
0000
0000
0000
0000
0000
0000
0000
0000
0000
2030
0000
0000
0000
0000
0000
0000
0000
0000
0000
0000
0000
0000
0000
0000
0000
3001
0000
0000
0000
0000
0000
0000
0000
0000
0000
0000
0000
0000
0000
0000
1000
0001
0000
0000
0000
0000
0000
0000
0000
0000
0000
0000
0000
0000
0000
0000
0000
,  // measure 33
0002
0023
0230
2300
,  // measure 34
3200
0320
0032
1003
,  // measure 35
2001
3020
0230
0302
,  // measure 36
0203
0320
2030
3001
,  // measure 37
1001
M002
M023
M230
,  // measure 38
M302
M023
M230
M302
,  // measure 39
M023
M230
M302
M023
,  // measure 40
M230
M302
2003
3100
,  // measure 41
2100
3200
0320
0032
,  // measure 42
0023
0230
2300
3001
,  // measure 43
1002
0203
0320
2030
,  // measure 44
3020
0230
0302
1003
,  // measure 45
1001
200M
320M
032M
,  // measure 46
203M
320M
032M
203M
,  // measure 47
320M
032M
203M
320M
,  // measure 48
032M
0000
0000
0000
0000
0000
0000
0000
0000
0000
0000
0000
0000
0000
0000
0000
203M
0000
0000
0000
0000
0000
0000
0000
3000
0000
0000
0000
0000
0000
0000
1000
0001
0000
0000
0000
0000
0000
0000
0000
0000
0000
0000
0000
0000
0000
0000
0001
1000
0000
0000
0000
0000
0000
0000
0000
0000
0000
0000
0000
0000
0000
0000
0000
,  // measure 49
4001
0000
0010
0000
,  // measure 50
0100
0000
0100
0000
,  // measure 51
3004
0000
0010
0000
,  // measure 52
0100
0000
0100
0000
,  // measure 53
4003
0100
0100
0000
,  // measure 54
0010
0001
0001
0000
,  // measure 55
3004
0010
0010
0000
,  // measure 56
1000
0100
0100
1003
,  // measure 57
1002
0203
0320
2030
,  // measure 58
3002
0000
0023
0000
0230
0000
2300
3000
,  // measure 59
1200
0000
0320
0000
0032
0000
2003
3020
,  // measure 60
0000
0000
0230
0000
0302
0000
0000
0000
2003
0000
0000
0000
3200
0000
0320
0030
,  // measure 61
0210
2300
3002
0203
,  // measure 62
0320
2030
3002
0023
,  // measure 63
0230
2300
3200
0320
,  // measure 64
0032
2003
3020
0000
0230
0000
0301
0000
,  // measure 65
0202
0000
0000
0000
,  // measure 66
0000
0000
0000
0000
,  // measure 67
0000
0000
0000
0000
,  // measure 68
0000
0000
0000
0000
,  // measure 69
0000
0000
0000
0000
,  // measure 70
0000
0000
0000
0000
,  // measure 71
0000
0000
0000
0000
,  // measure 72
0303
0000
0000
0000
;

//---------------dance-single - Itsugo15----------------
#NOTES:
     dance-single:
     Itsugo15:
     Beginner:
     1:
     0.050,0.132,0.079,0.032,0.000:
0000
0000
0000
0000
,
0000
0000
0000
0000
,
0000
0000
0000
0000
,
0000
0000
0000
0000
,
0000
0000
0000
0000
,
0000
0000
0000
0000
,
0000
0000
0000
0000
,
0000
0000
0000
0000
,
0001
0000
0000
0000
,
0000
0000
0000
0000
,
0100
0000
0000
0000
,
0000
0000
0000
0000
,
0010
0000
0000
0000
,
0000
0000
0000
0000
,
2000
0000
0000
0000
,
0000
0000
0000
0000
,
3001
0000
0000
0000
,
0000
0000
0000
0000
,
0010
0000
0000
0000
,
0000
0000
0000
0000
,
0100
0000
0000
0000
,
0000
0000
0000
0000
,
1000
0000
0000
0000
,
0000
0000
0000
0000
,
0001
0000
0000
0000
,
0000
0000
0000
0000
,
0100
0000
0000
0000
,
0000
0000
0000
0000
,
0010
0000
0000
0000
,
0000
0000
0000
0000
,
2000
0000
0000
0000
,
0000
0000
0000
3001
,
1001
0000
0000
0000
,
0000
0000
0000
0000
,
1000
0000
0000
0000
,
0000
0000
0000
0000
,
1010
0000
0000
0000
,
0000
0000
0000
0000
,
0010
0000
0000
0000
,
0000
0000
0000
0000
,
0110
0000
0000
0000
,
0000
0000
0000
0000
,
0100
0000
0000
0000
,
0000
0000
0000
0000
,
0101
0000
0000
0000
,
0000
0000
0000
0000
,
0001
0000
0000
0000
,
0000
0000
0000
0000
,
1001
0000
0000
0000
,
0000
0000
0000
0000
,
0001
0000
0000
0000
,
0000
0000
0000
0000
,
1100
0000
0000
0000
,
0000
0000
0000
0000
,
1000
0000
0000
0000
,
0000
0000
0000
0000
,
0101
0000
0000
0000
,
0000
0000
0000
0000
,
0110
0000
0000
0000
,
0000
0000
0000
0000
,
1010
0000
0000
0000
,
0000
0000
0000
0000
,
1000
0000
0000
0000
,
0000
0000
0000
0000
,
2002
0000
0000
0000
,
0000
0000
0000
0000
,
0000
0000
0000
0000
,
3003
0000
0000
0000
;

//---------------dance-single - Itsugo15----------------
#NOTES:
     dance-single:
     Itsugo15:
     Easy:
     3:
     0.089,0.161,0.087,0.040,0.000:
0000
0000
0000
0000
,
0000
0000
0000
0000
,
0000
0000
0000
0000
,
0000
0000
0000
0000
,
0000
0000
0000
0000
,
0000
0000
0000
0000
,
0000
0000
0000
0000
,
0000
0000
0000
0000
,
2000
0000
0000
0000
,
3000
0000
0000
0000
,
0200
0000
0000
0000
,
0300
0000
0000
0000
,
0020
0000
0000
0000
,
0000
0000
0000
0000
,
0000
0000
0000
0000
,
0000
0000
0000
0000
,
0031
0000
1000
0000
,
0000
0000
0010
0000
,
0000
0000
0100
0000
,
0000
0000
0001
0000
,
0000
0000
1000
0000
,
0000
0000
0100
0000
,
0000
0000
0010
0000
,
0000
0000
0001
0000
,
0000
0000
0100
0000
,
0000
0000
0010
0000
,
0000
0000
1000
0000
,
0000
0000
0001
0000
,
0000
0000
0010
0000
,
0000
0000
0100
0000
,
0000
0000
1000
0000
,
0000
0000
0001
0000
,
1001
0000
1000
0000
,
0000
0000
0010
0000
,
0000
0000
0100
0000
,
0000
0000
0001
0000
,
0101
0000
0100
0000
,
0000
0000
0010
0000
,
0000
0000
1000
0000
,
0000
0000
0001
0000
,
1001
0000
1000
0000
,
0000
0000
0100
0000
,
0000
0000
0010
0000
,
0000
0000
0001
0000
,
0011
0000
0010
0000
,
0000
0000
0100
0000
,
0000
0000
1000
0000
,
0000
0000
0001
0000
,
1001
0000
1000
0000
,
0000
0000
0010
0000
,
0000
0000
0100
0000
,
0000
0000
0001
0000
,
0101
0000
0100
0000
,
0000
0000
0001
0000
,
0000
0000
1000
0000
,
0000
0000
0100
0000
,
1100
0000
1000
0000
,
0000
0000
0001
0000
,
1001
0000
1000
0000
,
0000
0000
0010
0000
,
1010
0000
1000
0000
,
0000
0000
0001
0000
,
0000
0000
0010
0000
,
0011
0000
1000
0000
,
2200
0000
0000
0000
,
0000
0000
0000
0000
,
0000
0000
0000
0000
,
0000
0000
0000
3300
;

//---------------dance-single - Itsugo15----------------
#NOTES:
     dance-single:
     Itsugo15:
     Medium:
     6:
     0.432,0.526,0.063,1.000,0.016:
0000
0000
0000
0000
,
0000
0000
0000
0000
,
0000
0000
0000
0000
,
0000
0000
0000
0000
,
0000
0000
0000
0000
,
0000
0000
0000
0000
,
0000
0000
0000
0000
,
0000
0000
0000
0000
,
0002
0100
0000
0100
,
0000
0100
0000
0100
,
2003
0100
0000
0100
,
0000
0100
0000
0100
,
3002
0010
0000
0010
,
0000
0010
0000
0010
,
0040
0000
0000
0000
,
0003
0000
0000
0000
,
0031
0100
0010
1000
,
0001
0010
0200
1000
,
1300
0001
0100
0010
,
1000
0100
0020
0001
,
0031
1000
0010
0100
,
0001
1000
0200
0010
,
0310
0001
0100
0010
,
1000
0001
0020
0100
,
0230
2300
3002
0203
,
0320
2030
3002
0100
,
0023
0230
2300
3002
,
0203
0320
2030
0001
,
3200
0320
0032
0203
,
0320
2030
3002
0100
,
0023
0230
2300
3200
,
0320
0000
0000
0000
0000
0000
0000
0000
0000
0000
0000
0000
0000
0000
0000
0000
0032
0000
0000
0000
0000
0000
0000
0000
0000
0000
0000
0000
0000
0000
0000
0000
2003
0000
0000
0000
0000
0000
0000
0000
0000
0000
0000
0000
3000
0000
0000
0001
1000
0000
0000
0000
0000
0000
0000
0000
0000
0000
0000
0000
0000
0000
0000
0000
,
0102
0203
0302
0023
,
0032
0203
0302
0023
,
0230
0320
0032
0023
,
0230
0320
0032
0023
,
0230
2300
3200
0320
,
0230
2300
3200
0320
,
0230
2300
3002
2003
,
3200
2300
3002
0203
,
0320
2030
3002
0023
,
2030
3020
0032
0203
,
2300
3200
0302
2003
,
3200
0302
0203
0320
,
0032
0203
2300
3002
,
0023
2030
3002
0023
,
2030
3002
0203
2300
,
3002
0000
0000
0000
0203
0000
0000
0000
0340
0000
0000
0000
4030
0000
0000
3000
,
1020
0032
2003
3200
,
0302
2003
3200
0302
,
2003
3020
0032
0023
,
0230
0000
0000
0000
2300
0000
0000
0000
3002
0000
0000
0000
0203
0000
0000
0300
,
0201
2300
3002
0023
,
2030
3002
0023
2030
,
3002
0203
2300
3200
,
0320
0000
0000
0000
0000
0000
0000
0000
0000
0000
0000
0000
0000
0000
0000
0000
0032
0000
0000
0000
0000
0000
0000
0000
0000
0000
0000
0000
0000
0000
0000
0000
1003
0001
0000
0000
0000
0000
0000
0000
0000
0000
0000
0000
0000
0000
0000
0000
1000
0010
0000
0000
0000
0000
0000
0000
0000
0000
0000
0000
0000
0000
0000
0000
,
0120
0032
2003
3200
,
0302
0000
0000
0000
2003
0000
0000
0000
3200
0000
0000
0000
0320
0000
0000
0030
,
0210
0000
0302
0000
2003
0000
3020
0001
,
0030
0200
1000
0300
0020
0000
0130
0001
,
0201
2300
3002
0023
,
2030
3002
0023
2030
,
3002
0203
2300
3200
,
0310
0000
0000
0000
0000
0000
0000
0000
0001
0000
0000
0000
0000
0000
0000
0000
1000
0000
0000
0000
0000
0000
0000
0000
0000
0000
0000
0000
0000
0000
0000
0000
1001
0000
0000
0000
0000
0000
0000
0000
0000
0000
0000
0000
0000
0000
0000
0000
0010
0100
0000
0000
0000
0000
0000
0000
0000
0000
0000
0000
0000
0000
0000
0000
,
2002
0000
0000
0000
,
0000
0000
0000
0000
,
0000
0000
0000
0000
,
0000
0000
0000
0000
,
0000
0000
0000
0000
,
0000
0000
0000
0000
,
3003
0000
0000
0000
;
