#TITLE:Questions?;
#SUBTITLE:ドルアーガの塔 ~the Sword of URUK~;
#ARTIST:中村優;
#TITLETRANSLIT:Questions?;
#SUBTITLETRANSLIT:Druaga no Tou ~the Sword of Uruk~;
#ARTISTTRANSLIT:Nakamura Yuu;
#GENRE:Otaku's Dream 3rd Mix (Pad);
#CREDIT:Itsugo15;
#BANNER:Questions-bn.png;
#BACKGROUND:Questions-bg.jpg;
#LYRICSPATH:Questions.lrc;
#CDTITLE:Itsugo15 SimifileS.png;
#MUSIC:Questions.mp3;
#OFFSET:0.820;
#SAMPLESTART:55.300;
#SAMPLELENGTH:30.000;
#SELECTABLE:YES;
#LISTSORT:;
#BPMS:0.000=89.500,18.000=179.000;
#STOPS:;
#TICKCOUNT:0.000=6;
#BGCHANGES:17.000=Questions.avi=1.000=1=1=0,
282.000=Questions.avi=0.000=0=1=0,
99999=-nosongbg-=1.000=0=0=0 // don't automatically add -songbackground-
;
#KEYSOUNDS:;
#ATTACKS:;

//---------------dance-single - Itsugo----------------
#NOTES:
     dance-single:
     Itsugo:
     Challenge:
     10:
     0.721,0.733,0.623,0.104,0.042:
0000
0000
0000
0000
,
0000
0000
0000
0000
,
0000
0000
0000
0000
0000
0000
0000
0000
2112
0MM0
0000
0000
0000
0000
0000
0000
,
0000
0000
0000
0000
0000
0000
0000
0000
0000
0000
0000
0000
0000
0000
0003
0001
,
0001
0001
0001
0001
0001
0001
0001
3001
1000
0000
0010
0000
0100
0000
0001
0000
,
1000
0001
0010
0100
1000
0100
1000
0010
,
0100
0001
0010
0001
0100
0010
1000
0100
,
0010
0100
1000
0001
0100
0010
1000
0100
,
0010
0001
0100
0010
0110
0100
0001
1000
,
0100
1000
0010
0100
0001
0010
0100
0010
,
0001
1000
0100
0010
0001
0100
0010
1000
,
0010
0100
0001
1000
0100
0001
1000
0001
,
0100
0010
0100
1000
2100
0000
0100
0000
,
0100
0100
0100
0100
,
3100
1000
0000
0001
0112
0000
0100
0000
,
0100
0100
0100
0100
,
0103
0001
1000
1001
0000
0000
1100
1100
,
1000
0010
0100
0110
0000
0000
0101
0101
,
0001
1000
0100
1100
0000
0001
0100
0101
,
0000
0100
0010
0110
0000
0010
0100
0001
,
0010
1000
0010
0001
1000
0010
1000
0010
,
0100
0010
0100
0010
0100
0001
0100
0001
,
1000
0001
1000
0001
0010
0001
0010
0001
,
1000
0100
1000
0100
0010
0001
0010
0100
,
1000
0001
0100
0101
0000
0001
0100
0010
,
1000
0001
0010
0011
0000
0001
0010
0100
,
1000
0100
0010
0110
0000
1000
0001
1001
,
0000
0100
0010
0110
0000
0010
0001
0010
,
1000
0010
0100
0001
1000
0010
0100
0001
,
1000
0100
0010
0100
1000
0001
0010
0100
,
0010
0001
1000
0010
0100
0001
1000
0100
,
0010
0001
0100
0010
0001
0010
0100
0001
,
0100
0010
1000
0001
1001
0000
0001
0100
,
1000
0000
1000
0100
0001
0000
0001
0010
,
1000
0000
1000
0010
0001
0000
0011
0000
,
0001
0010
0100
0110
0000
0010
0001
1000
,
0010
0100
0001
0101
0000
1000
1000
0002
,
0000
0000
0000
0003
1001
0001
1000
0000
,
0010
0100
0001
1000
0100
0000
1100
0000
,
0011
0000
1100
0000
1000
0010
0100
0000
,
0001
0100
0010
0100
0001
0000
0101
0000
,
1010
0000
0101
0000
0001
0100
0010
0000
,
1000
0100
0010
0000
0100
1000
0001
0000
,
0100
0001
1000
0000
2002
3003
0001
1000
,
0000
0100
0010
0000
0110
0000
0010
0001
,
0000
0000
1000
0001
1000
0001
1000
0001
1001
0000
1000
0000
0001
0000
0000
0000
,
0100
0010
1000
0001
0010
0000
0011
0000
,
1100
0000
0011
0000
0001
0100
0010
0000
,
1000
0010
0100
0010
1000
0000
1010
0000
,
0101
0000
1010
0000
1000
0010
0100
0000
,
0001
0010
0100
0010
0001
0000
1000
0010
,
0100
0000
0100
0002
1000
0000
1000
0000
,
1003
1000
0001
2000
0001
0000
0001
0000
,
3001
0001
0010
0100
1000
0000
1100
1100
,
0000
1000
0001
1001
0000
0110
0000
1001
,
0000
0001
0100
0010
0110
0000
0010
0000
,
0010
0000
0010
1000
0100
0001
0100
0000
,
1000
0001
0010
0100
1000
0000
1100
1001
,
0000
0001
0100
0101
0000
0110
0000
1010
,
0000
1000
0001
0010
0011
1000
1010
0001
,
0101
1000
1100
0100
0110
0000
1001
0000
,
1000
0010
0100
0001
0101
0000
1000
1100
,
0000
0001
0011
0000
1000
1010
0000
1000
,
1001
0000
0002
0000
0013
0001
0100
0010
,
1000
0100
0010
1000
0010
0001
1000
0001
,
0100
1000
0001
0010
0100
0001
0010
1000
,
0010
0001
0010
0100
1000
0001
0010
0100
,
1000
0100
0010
0001
0011
0010
0001
0100
,
1000
0001
0010
0100
1000
0100
0010
1000
,
0001
0010
1000
0010
0110
0100
1100
1000
,
1001
0001
0101
0100
0110
0010
1000
0100
,
0001
0100
0010
0001
2000
0000
0000
0000
,
0000
0000
0000
0000
,
0000
0000
0000
0000
,
3000
0000
0000
0000
;

//---------------dance-single - Itsugo----------------
#NOTES:
     dance-single:
     Itsugo:
     Beginner:
     3:
     0.166,0.202,0.009,0.085,0.000:
0000
0000
0000
0000
,
0000
0000
0000
0000
,
0000
0000
1000
0000
,
0000
0000
0000
0000
,
0000
0000
0001
0000
,
0000
0000
0010
0000
,
0000
0000
0100
0000
,
0000
0000
1000
0000
,
0000
0000
0001
0000
,
0000
0000
1000
0000
,
0000
0000
0010
0000
,
0000
0000
0100
0000
,
0000
0000
0001
0000
,
0000
0000
0001
0000
,
0000
0000
1000
0000
,
0000
0000
1000
0000
,
0000
0000
0000
0100
0000
0000
0000
0000
,
0010
0000
0000
0001
0000
0000
0000
0000
,
1000
0000
0000
0010
0000
0000
0000
0010
,
0000
0000
0000
0010
0000
0000
0000
0000
,
1000
0000
0001
0000
,
0001
0000
0010
0000
,
0010
0000
0100
0000
,
0100
0000
1000
0000
,
1000
0000
0000
0001
0000
0000
0000
0000
,
0100
0000
0000
0010
0000
0000
0000
0000
,
1000
0000
0000
0001
0000
0000
0000
0001
,
0000
0000
0000
0001
0000
0000
0000
0000
,
1000
0000
0100
0000
,
0100
0000
0010
0000
,
0010
0000
0001
0000
,
0001
0000
1000
0000
,
1000
0000
0010
0000
,
0100
0000
0001
0000
,
1000
0000
0100
0000
,
0010
0000
0000
0002
0000
0000
0003
0000
,
0001
0000
0000
2000
0000
0000
3000
0000
,
0000
0000
1000
0000
,
0010
0000
0200
0000
,
0300
0000
0001
0000
,
0010
0000
0200
0000
,
0300
0000
1000
0000
,
0001
0000
0100
0000
,
0010
0000
0000
0000
1000
0000
0000
0001
,
0000
0000
0000
0000
0001
0000
0000
1000
,
0000
0000
1000
0000
,
0100
0000
0020
0000
,
0030
0000
0001
0000
,
1000
0000
0020
0000
,
0030
0000
0100
0000
,
0001
0000
1000
0000
,
0100
0000
1000
0000
,
0001
0000
0001
0000
,
1000
0000
2000
0000
,
3010
0000
0010
0000
,
0010
0000
0100
0000
,
0001
0000
1000
0000
,
0001
0000
0020
0000
,
0130
0000
0100
0000
,
0100
0000
1000
0000
,
0001
0000
0001
1000
,
0000
0000
0000
0000
1001
0000
0000
0001
,
0000
0000
1000
0000
0000
0100
0000
0000
,
0010
0000
0001
0000
,
0000
0000
1000
0000
,
0000
0000
0010
0000
,
0000
0000
0100
0000
,
0000
0000
0001
0000
,
0000
0000
1000
0000
,
0000
0000
0100
0000
,
0010
0000
0002
0000
,
0000
0000
1003
0000
;

//---------------dance-single - Itsugo----------------
#NOTES:
     dance-single:
     Itsugo:
     Easy:
     5:
     0.244,0.279,0.075,0.179,0.000:
0000
0000
0000
0000
,
0000
0000
0000
0000
,
0000
0000
1000
0000
,
0000
0000
0000
0000
,
2000
0000
3001
0000
,
0001
0000
0100
0000
,
0000
0000
0100
0000
,
0100
0000
0010
0000
,
0000
0000
1000
0000
,
1000
0000
0001
0000
,
0000
0000
0001
0000
,
0001
0000
0010
0000
,
0100
0000
1000
0000
,
1000
0000
1000
0000
,
0000
0000
0001
0000
,
0001
0000
0001
0000
,
0100
0000
0000
0010
0000
0000
1000
0000
,
1000
0000
0000
0001
0000
0000
0020
0000
,
0031
0000
0000
1000
0000
0000
0000
1000
,
0000
0000
0000
1000
0000
0000
0010
0000
,
0010
0010
0100
0000
,
0001
0000
1000
0000
,
0100
0000
0010
0000
,
0001
0000
1000
0000
,
0010
0000
0000
0100
0000
0000
0001
0000
,
0001
0000
0000
1000
0000
0000
0200
0000
,
1300
0000
0000
0001
0000
0000
0000
0001
,
0000
0000
0000
0001
0000
0000
1000
0000
,
0001
0100
0010
0000
,
1000
0000
0100
0000
,
0010
0000
0001
0000
,
0100
0000
0010
0000
,
1000
0000
0002
0000
,
0023
0000
0230
0000
,
2300
0000
3002
0000
,
1003
0000
0000
0010
0000
0000
0000
0000
,
0100
0000
0000
0001
0000
0000
2000
0000
,
3000
0000
1001
0000
,
0001
0000
0020
0100
,
0100
0130
0100
0000
,
1000
0000
0002
1000
,
1000
1003
1000
0000
,
0010
0000
0100
0000
,
0001
0000
0000
0000
0101
0000
0000
1000
,
0000
0000
0000
0000
1100
0000
0000
0001
,
0000
0000
1001
0000
,
1000
0000
0200
0010
,
0010
0310
0010
0000
,
0001
0000
2000
0001
,
0001
3001
0001
0000
,
0100
0000
0010
0000
,
1000
0000
0002
0000
,
1003
0000
2000
0000
,
3001
0000
0000
0000
0010
0000
0000
0100
,
0000
0000
0000
1000
0000
1000
0000
1000
,
0000
0000
0001
0000
,
0100
0000
0010
0000
,
1000
0000
0000
0000
0100
0000
0000
0010
,
0000
0000
0000
0001
0000
0001
0000
0001
,
0000
0000
0011
0000
,
1000
0000
1010
2000
,
0000
0000
0000
0000
3001
0000
0000
0010
,
0000
0000
0100
0000
0000
1000
0000
0000
,
0002
1003
1001
0000
,
1000
0000
0001
0000
,
0100
0000
0010
0000
,
1000
0000
0001
0000
,
0010
0000
0011
0000
,
0001
0000
1000
0000
,
0001
0000
0100
0100
,
0010
0010
2000
0000
,
0000
0000
3002
0000
,
0000
0000
0000
0000
,
0000
0000
0000
0000
,
0003
0000
0000
0000
;

//---------------dance-single - Itsugo----------------
#NOTES:
     dance-single:
     Itsugo:
     Medium:
     6:
     0.472,0.489,0.274,0.179,0.000:
0000
0000
0000
0000
,
0000
0000
0000
0000
,
0000
0000
1001
0000
,
0000
0000
0000
0000
,
0002
0000
1003
0010
,
0010
1000
0100
0010
,
0001
1000
0010
0100
,
0100
0001
1000
0100
,
0010
0001
0011
0001
,
1000
1000
0010
0100
,
0001
1000
0100
0100
,
0010
0001
1000
0010
,
0100
0001
0101
0001
,
0001
0001
0001
0001
,
0001
1000
0100
1000
0010
0000
0010
0000
,
0010
0010
0010
0010
,
0010
1000
0001
0010
0000
0000
0011
0000
,
0011
0000
0001
1000
0000
0000
1000
0010
,
0100
0001
1000
0100
0000
1000
0001
0100
,
0000
0001
1000
0100
0000
1000
0100
0010
,
0001
0010
0100
1000
0001
0000
1000
0000
,
1000
0010
0010
0100
,
0001
1000
0100
0100
,
0010
0010
0001
1000
,
0010
0000
0100
0001
0000
0000
0101
0000
,
1001
0000
1000
0100
0000
0010
0001
1000
,
0001
0100
0001
1000
0000
0100
0010
0001
,
0000
0010
0100
1000
0000
1000
0100
0001
,
0100
1000
0001
0100
0010
0000
0010
0000
,
1000
0000
1000
0000
0200
0000
0000
0320
,
0000
0032
1003
1000
,
0010
0000
0010
0000
0200
0000
0000
0301
,
1000
0000
0100
0000
1100
0000
0000
0100
,
0010
0000
0000
0010
0001
0000
0000
0001
,
1000
0000
0000
1000
0010
0000
0100
0000
,
0001
1000
0001
0020
0000
0000
0031
0000
,
1000
0001
1000
0200
0000
1000
1000
1300
,
0000
0000
1100
1001
,
0001
1000
0010
0200
0000
0000
0010
0000
,
0001
0000
0310
0000
0010
0100
0010
0000
,
1000
0001
0010
0200
0000
0000
1000
0000
,
0010
0000
1300
0000
1000
0001
0100
0000
,
0001
1000
0001
0020
0000
0130
1000
0000
,
1000
0000
0001
0000
1001
0000
0000
0101
,
0000
0000
1000
0000
1001
0000
0000
1100
,
0000
0001
0011
1001
,
1000
0001
0100
0020
0000
0000
0100
0000
,
1000
0000
0130
0000
0100
0010
0100
0000
,
0001
1000
0100
0020
0000
0000
0001
0000
,
0100
0000
0031
0000
0001
1000
0010
0000
,
1000
0001
1000
0200
0000
0310
0001
0000
,
0001
1000
1001
1000
,
1000
0000
0001
0100
0001
0000
0001
0000
,
0010
0000
0100
0000
2000
0000
0001
3001
,
0000
0000
0000
1001
0000
1001
0000
1001
,
0000
0001
1000
1000
,
0001
0000
0010
0001
1000
0000
1000
0000
,
0010
0000
0100
0000
0001
0000
0101
0102
,
0000
0000
0000
1000
0000
1000
0000
1003
,
0000
0001
1000
1000
,
1000
1000
0100
2200
,
0000
0000
3300
0000
0011
0000
0000
1001
,
0000
0000
0101
0000
0000
1001
0000
0000
,
1100
2000
3001
0100
,
0100
0001
0010
0100
,
1000
0001
0100
0010
,
0010
1000
0001
0010
,
0100
1000
1100
1000
,
0001
0001
0100
0010
,
1000
0001
0010
0010
,
0100
0000
0100
0000
1000
0100
0010
0100
,
1000
0100
0010
0001
2000
0000
0000
0000
,
0000
0000
0000
0000
,
0000
0000
0000
0000
,
3000
0000
0000
0000
;

//---------------dance-single - Itsugo----------------
#NOTES:
     dance-single:
     Itsugo:
     Hard:
     9:
     0.638,0.593,0.576,0.377,0.005: // measure 1
0000
0000
0000
0000
,  // measure 2
0000
0000
0000
0000
,  // measure 3
0000
0000
0000
0000
0000
0000
0000
0000
0000
0000
0000
0000
0000
0000
0000
0100
2000
0000
0000
0000
0000
0000
0000
0000
0000
0000
0000
0000
0000
0000
0000
0000
,  // measure 4
0000
0000
0000
0000
,  // measure 5
0001
0001
0001
0001
3001
0000
0101
0000
,  // measure 6
0001
0100
0010
0000
0110
0000
1010
0000
,  // measure 7
1000
0100
0010
0000
0110
0000
0011
0000
,  // measure 8
0001
1000
0100
0000
1000
0001
0100
0000
,  // measure 9
0001
0010
0100
1000
1100
0000
1001
0000
,  // measure 10
1000
0001
0100
0000
0101
0000
0011
0000
,  // measure 11
0001
0010
0100
0000
0110
0000
1100
0000
,  // measure 12
1000
0001
0100
0000
0001
0010
0100
1000
,  // measure 13
0100
0010
0100
1000
1100
0100
1000
0001
,  // measure 14
0100
0000
0101
0000
0001
0010
0100
1000
,  // measure 15
0000
0001
1000
0001
0101
0000
0001
1000
,  // measure 16
0100
0000
1100
0000
1000
0010
0100
0001
,  // measure 17
1000
0100
0010
0110
0000
0010
0001
1000
,  // measure 18
0001
0010
0001
0011
0000
0001
0100
0010
,  // measure 19
1000
0001
1000
1100
0000
1000
0100
1100
,  // measure 20
0000
1000
0100
1100
0000
1000
0001
1000
,  // measure 21
0001
1000
0001
1000
0001
0000
0101
0001
,  // measure 22
1000
0000
1001
0000
1000
0100
0010
0200
,  // measure 23
0000
2300
0000
3000
1100
0000
1000
0001
,  // measure 24
0100
0000
0100
0001
0010
0100
0010
0001
,  // measure 25
1000
0100
0010
0110
0000
0100
1000
0001
,  // measure 26
1000
0100
1000
1100
0000
1000
0010
0100
,  // measure 27
0001
1000
0001
0011
0000
0001
0010
0011
,  // measure 28
0000
0001
0010
0011
0000
0001
0010
0100
,  // measure 29
1000
0100
0010
0001
2000
0000
3010
0000
,  // measure 30
0200
0000
0301
0000
2000
0000
0000
3200
,  // measure 31
0000
0320
0230
1300
,  // measure 32
0002
0000
0103
0000
0020
0000
0030
1000
,  // measure 33
0001
0000
1001
0000
0022
0000
0033
0001
,  // measure 34
2000
0000
3000
1000
0002
0000
0003
0100
,  // measure 35
0020
0000
0030
0010
0200
0300
0110
0000
,  // measure 36
0010
1000
0001
1001
0000
0001
1000
0010
,  // measure 37
0100
0001
1000
0200
0000
1000
1000
2300
,  // measure 38
0000
0002
0000
3003
0001
0100
0010
0000
,  // measure 39
1000
0001
0010
0100
0000
0200
1000
0000
,  // measure 40
0301
0000
0110
0000
0010
0001
1000
0000
,  // measure 41
0010
0100
0001
1000
0000
2000
0100
0000
,  // measure 42
3010
0000
1001
0000
0001
0100
1000
0000
,  // measure 43
1000
0100
0010
1000
0000
0001
0010
0000
,  // measure 44
0011
0000
0001
1000
0020
0000
0000
0130
,  // measure 45
0000
0001
0100
0001
2000
0000
0000
3100
,  // measure 46
0000
0100
0100
1000
1000
0010
0100
0000
,  // measure 47
0001
1000
0100
0010
0000
0020
0001
0000
,  // measure 48
1030
0000
0110
0000
0100
1000
0001
0000
,  // measure 49
0100
0010
1000
0001
0000
0002
0010
0000
,  // measure 50
0103
0000
1001
0000
1000
0010
0001
0000
,  // measure 51
0001
0010
0100
0001
0000
1000
0100
0000
,  // measure 52
1100
0000
1000
0001
0200
0000
0001
0000
,  // measure 53
0301
0000
0001
1000
0002
0000
1000
0000
,  // measure 54
1003
0000
0010
0100
0000
0000
0110
0120
,  // measure 55
0000
0000
0000
1000
0000
0031
0000
0110
,  // measure 56
0000
0000
0010
1000
0002
0000
1000
0000
,  // measure 57
1003
0000
1000
0001
2000
0000
3001
1000
,  // measure 58
0010
0000
0100
0002
0000
1003
1001
1002
,  // measure 59
0000
0000
0000
0010
0000
0103
0000
1001
,  // measure 60
0000
0000
0001
1000
1001
0000
0110
0000
,  // measure 61
1001
0000
1000
0001
1001
0000
0001
0010
,  // measure 62
0100
1000
0100
0010
0002
0000
0003
2000
,  // measure 63
0000
0000
3020
0000
0000
0230
0000
0000
,  // measure 64
0302
2003
3010
1010
,  // measure 65
1000
0010
0100
0000
0110
0000
0101
0000
,  // measure 66
0001
0010
0100
0000
0110
0000
1100
0000
,  // measure 67
1000
0001
0010
0000
0001
1000
0010
0000
,  // measure 68
1000
0100
0010
0001
0011
0000
1001
0000
,  // measure 69
0001
1000
0010
0000
1010
0000
1100
0000
,  // measure 70
1000
0100
0010
0000
0110
0000
0011
0000
,  // measure 71
1001
0000
0101
0000
0001
0100
1000
0100
,  // measure 72
0010
1000
0001
0010
0200
0000
0000
0000
,  // measure 73
0000
0000
0000
0000
,  // measure 74
0000
0000
0000
0000
,  // measure 75
0300
0000
0000
0000
;
