#TITLE:プレパレード;
#SUBTITLE:とらドラ!;
#ARTIST:釘宮理恵, 喜多村英梨 & 堀江由衣;
#TITLETRANSLIT:Pre-Parade;
#SUBTITLETRANSLIT:Toradora!;
#ARTISTTRANSLIT:Kugimiya Rie, Kitamura Eri and Horie Yui;
#GENRE:Otaku's Dream 2nd Mix (Pad);
#CREDIT:Sdj';
#BANNER:preparadebn.png;
#BACKGROUND:preparadebg.png;
#LYRICSPATH:Pre-Parade.lrc;
#CDTITLE:Collab.png;
#MUSIC:Pre-Parade.ogg;
#OFFSET:0.278;
#SAMPLESTART:37.710;
#SAMPLELENGTH:21.780;
#SELECTABLE:YES;
#LISTSORT:;
#BPMS:0.000=160.000,1.000=240.000,4.500=160.000,19.000=320.000,21.000=160.000,35.000=320.000,39.000=160.000,139.000=240.000,144.000=320.000,148.500=160.000,219.500=320.000,221.500=160.000,236.500=320.000,238.500=160.000;
#STOPS:1.000=0.062
,1.500=0.060
,2.000=0.060
,2.500=0.100
,3.000=0.060
,3.500=0.060
,4.000=0.060
,21.000=0.360
,139.000=0.060
,139.500=0.060
,140.000=0.060
,140.500=0.060
,141.000=0.060
,141.500=0.060
,148.000=0.180
;
#TICKCOUNT:0.000=6;
#BGCHANGES:1.250=Pre-Parade-bg.avi=1.000=1=1=0,
238.625=preparadebg.png=1.000=0=0=1,
99999=-nosongbg-=1.000=0=0=0 // don't automatically add -songbackground-
;
#KEYSOUNDS:;
#ATTACKS:;

//---------------dance-single - Sdj'----------------
#NOTES:
     dance-single:
     Sdj':
     Challenge:
     10:
     1.000,1.000,0.644,1.000,0.228: // measure 1
0000
0000
1000
1000
1000
0110
0001
0001
,  // measure 2
0001
0000
0001
0000
4MMM
0000
3000
0000
MM2M
0030
0000
0000
M22M
0000
0330
0000
,  // measure 3
0000
0000
2MMM
3000
0000
0000
2MM2
0000
3003
0000
2000
3000
1001
0000
0001
0000
,  // measure 4
0022
0033
0000
0000
0001
0000
0001
0000
0100
0000
0010
0000
1000
0000
2000
0000
,  // measure 5
3000
0000
0400
0000
0300
0000
0010
0000
0001
0000
0000
0000
0002
M000
0M00
00M0
,  // measure 6
0000
0000
0000
M000
0000
0000
0M00
0000
0000
00M0
0000
0000
2000
3003
0000
0000
0000
0000
0000
0000
0000
0000
0000
0000
M2MM
0000
0000
0300
0000
0000
0000
0000
0000
0000
0000
0000
M22M
0000
0000
0000
0000
0000
0330
0000
0000
0000
0000
0000
,  // measure 7
0000
0000
MMM2
0003
0000
0000
2MM2
0000
3003
0000
0001
0000
1001
0000
1000
0000
,  // measure 8
2020
3030
2000
0000
3010
0100
0001
0002
,  // measure 9
0003
0040
0030
0100
1000
0000
4000
0000
,  // measure 10
0MMM
0000
0MMM
0000
0MMM
3000
0002
0023
,  // measure 11
0032
0023
0230
2300
3200
2300
3000
2000
,  // measure 12
3200
2300
3200
0320
0032
0023
0030
0002
,  // measure 13
0023
0032
0023
0230
1300
2002
3003
0010
,  // measure 14
0100
0010
1002
2103
3012
1013
2000
3200
,  // measure 15
2300
3200
0320
0032
0023
0032
0003
0002
,  // measure 16
0023
0032
0023
0230
2300
3200
0300
2000
,  // measure 17
3200
0000
2300
0000
3200
0000
0320
0000
0032
0000
2003
0000
3001
0010
0001
0010
,  // measure 18
0100
1000
0100
1000
0020
0000
0130
0000
0110
0000
0000
0000
1001
0000
0100
0000
,  // measure 19
1001
0010
0100
0110
0000
2000
3000
1000
,  // measure 20
0200
0300
0010
0001
1001
0000
1001
0010
,  // measure 21
1001
0100
0010
0010
0000
1000
0100
0010
,  // measure 22
0001
0002
0003
0010
1001
0000
0002
0000
,  // measure 23
0203
0000
0310
0110
0000
2000
3000
0100
,  // measure 24
0020
0030
0011
0000
0002
0003
0110
1000
,  // measure 25
0110
0000
0001
0000
1000
0000
1000
0000
0000
0000
2000
3000
0200
0300
0020
0030
,  // measure 26
0200
0000
0300
0000
2000
0000
3000
0000
0000
0000
0000
0000
0110
0000
0000
0000
2000
3000
0002
0003
2000
3000
0000
0000
0000
0000
0000
0000
0001
0000
0000
0000
,  // measure 27
0010
0100
1000
1000
0000
1000
0100
1000
,  // measure 28
0200
0000
0300
0000
0110
0000
0000
0000
0001
0000
1000
0000
0000
0000
2200
3300
,  // measure 29
0220
0330
2200
3300
0000
0000
0022
0033
0220
0330
0022
0033
0000
0000
0202
0303
,  // measure 30
0220
0330
2020
3030
0220
0330
0202
0303
0022
0033
2002
0000
3003
0000
1000
0000
,  // measure 31
0100
0010
0001
0001
0000
0001
0010
0001
,  // measure 32
1000
0000
4000
0000
3000
0000
0001
0000
0100
0000
0001
0000
2002
3003
0000
0000
,  // measure 33
0220
0000
0330
0000
1000
0000
1000
0000
0000
0000
0021
0000
0000
0000
0032
0003
,  // measure 34
0200
0300
0020
0000
0000
0000
2030
3000
0002
0003
0020
0000
0000
0030
0002
0003
,  // measure 35
2000
3000
0002
0003
1000
0000
0020
0030
0200
0300
0020
0030
1000
0000
0001
0000
,  // measure 36
1000
0000
0001
0000
1000
0000
0001
0000
4M04
00M0
0000
00M0
0M00
00M0
0000
00M0
,  // measure 37
0M00
00M0
0000
0000
00M0
0000
0M00
0000
00M0
0000
0000
0000
00M0
0000
3M03
0000
,  // measure 38
0000
0001
0002
0000
0003
1000
0010
1000
,  // measure 39
2000
3010
0100
0001
0002
0013
0020
0130
,  // measure 40
0200
0000
1300
0000
4000
0000
3000
0000
1000
0100
0010
0000
0010
0000
0010
0100
,  // measure 41
1000
0110
0001
1000
2000
3010
0020
0130
,  // measure 42
0200
0000
0301
0000
0004
0000
0003
0000
0100
0010
0100
0000
0001
0010
0001
0000
,  // measure 43
1000
0010
1000
0000
0010
0100
0001
0000
0020
0000
0130
0000
0200
0000
1300
0000
,  // measure 44
2000
3001
0004
0003
0100
0010
1000
2020
,  // measure 45
3030
0000
0000
0000
4000
0000
0000
3000
0001
0000
0001
0000
1000
0001
1000
0000
,  // measure 46
0010
1000
0100
0010
0004
0000
0003
0000
1000
0000
1000
0001
1000
0001
0010
0000
,  // measure 47
0010
0000
0100
1000
0001
0000
1001
0000
0002
0000
0013
0000
0020
0000
0130
0000
,  // measure 48
0200
0000
1300
0000
4000
0000
3000
0000
0001
0100
0001
0100
0010
1000
0100
0000
,  // measure 49
0100
0000
0010
0001
0010
0100
1000
0000
2000
0000
3010
0000
0020
0000
0130
0000
,  // measure 50
0200
0000
0301
0000
0004
0000
0003
0000
1000
0100
1000
0010
0100
0001
0010
0000
,  // measure 51
0001
0000
0010
0100
1000
0000
0001
0000
0002
0000
0103
0000
0200
0000
0310
0000
,  // measure 52
0020
1030
4000
3000
0001
0101
1000
1010
,  // measure 53
1000
0100
0020
0030
0010
0110
1000
1001
,  // measure 54
0001
0100
0020
0030
1000
1000
0100
0010
,  // measure 55
0001
0000
1000
0000
2002
0000
3003
0000
0100
0000
0100
0000
0100
0000
M002
0M00
,  // measure 56
00M0
0000
0M00
0000
M000
0000
0M00
0000
00M0
0000
0000
0000
2000
3003
0000
0000
0000
0000
0000
0000
0000
0000
0000
0000
1000
0000
0000
0000
1010
0000
0000
0000
,  // measure 57
0001
0101
0001
0010
0200
0300
0100
0110
,  // measure 58
0001
1001
1000
0010
0200
0300
0001
0001
,  // measure 59
0010
0100
1000
0001
2002
3003
0100
0100
,  // measure 60
0100
0000
0000
0000
M002
0000
0M00
0000
00M0
0000
0M00
0000
M000
0000
0M00
0000
00M0
0000
0000
0000
2000
3003
0000
0000
0000
0000
0000
0000
0000
0000
0000
0000
;

//---------------dance-single - Itsugo----------------
#NOTES:
     dance-single:
     Itsugo:
     Beginner:
     2:
     0.117,0.132,0.122,0.055,0.006:
0000
0000
0000
0000
,
0000
1000
0000
0000
,
0000
0010
0000
0000
,
0000
1000
0000
0000
,
0000
0001
0000
0000
,
0000
0000
0000
0000
0000
0000
0000
0000
0000
0000
0000
0000
0000
0000
0000
0000
0000
0010
0000
0000
0000
0000
0000
0000
0000
0000
0000
0000
0000
0000
0000
0000
0000
0000
0000
0000
0000
0000
0000
0000
0000
0000
0000
0000
0000
0000
0000
0000
0000
0000
0000
0000
0000
0000
0000
0000
0000
0000
0000
0000
0000
0000
0000
0000
,
0000
0001
0000
0000
,
0000
1000
0000
0000
,
0000
0001
0000
0000
,
0000
0000
0000
1001
,
0000
0000
0000
0001
,
0000
0000
0000
1000
,
0000
0000
0000
0010
,
0000
0000
0000
1010
,
0000
0000
0000
1000
,
0000
0000
0000
0001
,
0000
0000
0000
0020
,
0000
0000
0000
0000
0000
0030
0011
0000
,
0000
0000
0000
0001
,
0000
0000
0000
1000
,
0000
0000
0000
0010
,
0000
0000
0000
0100
,
0000
0000
0000
0001
,
0000
0000
0000
1000
,
0000
0000
0000
0100
,
0000
0000
0000
1100
,
0000
0000
0000
0100
,
0000
0000
0000
0010
,
0000
0000
0000
0001
,
0000
0000
0000
1000
,
0000
0000
0000
0010
,
0000
0000
0000
0100
,
0000
0000
0000
0001
,
0000
0000
0000
0101
,
0000
0000
0000
2002
,
0000
0000
0000
0000
,
0000
0000
0000
0000
,
3003
0000
0000
1000
0000
0000
0000
0000
,
0000
0000
0000
0100
0000
0000
0000
0000
,
0000
0000
0000
0010
0000
0000
0000
0000
,
0000
0000
0000
0001
0000
0000
0000
0000
,
0000
0000
0000
1000
0000
0000
0000
0000
,
0000
0000
0000
0010
0000
0000
0000
0000
,
0000
1010
0000
0000
,
0000
0101
0000
0000
,
0000
0000
0000
0100
0000
0000
0000
0000
,
0000
0000
0000
0001
0000
0000
0000
0000
,
0000
0000
0000
1000
0000
0000
0000
0000
,
0000
0000
0000
0100
0000
0000
0000
0000
,
0000
0000
0000
0010
0000
0000
0000
0000
,
0000
0000
0000
0001
0000
0000
0000
0000
,
0000
0011
0000
0000
,
0000
1001
0000
0000
,
0000
1010
0000
0000
,
0000
0000
0010
0000
0000
0000
0000
0200
,
0000
0000
0000
0300
0100
0000
0000
0000
,
0000
0000
0001
0000
,
0000
0000
1000
0000
,
0000
0000
0100
0000
,
0000
0000
0000
0000
0020
0030
0000
0000
;

//---------------dance-single - Itsugo----------------
#NOTES:
     dance-single:
     Itsugo:
     Easy:
     4:
     0.239,0.265,0.211,0.011,0.006:
0000
0000
0000
0000
,
0000
1001
0000
0000
,
0000
0001
0000
0100
,
0000
0010
0000
0000
,
0000
1000
0000
0100
,
0000
0000
0000
0000
0000
0000
0000
0000
0000
0000
0000
0000
0000
0000
0000
0000
0000
0010
0000
0000
0000
0000
0000
0000
0000
0000
0000
0000
0000
0000
0000
0000
0000
0000
0000
0000
0000
0000
0000
0000
0000
0000
0000
0000
0000
0000
0000
0000
0000
0000
0000
0000
0000
0000
0000
0000
0000
0000
0000
0000
0000
0000
0000
0000
,
0000
0001
0000
1000
,
0000
0010
0000
0000
,
0000
0100
0000
0001
,
0000
0000
0000
1000
,
0000
0100
0000
0010
,
0000
0001
0000
1000
,
0000
0010
0000
0100
,
0000
0001
0001
1000
,
0000
0100
0000
0010
,
0000
0001
0000
1000
,
0000
0010
0000
0100
,
0001
1000
0100
1100
,
0000
0010
0000
0001
,
0000
1000
0000
0010
,
0000
0100
0000
0001
,
0000
0100
0000
0010
,
0000
1000
0000
0100
,
0000
0010
0000
0001
,
0000
1000
0000
0010
,
0000
0100
0000
0110
,
0000
0000
0000
1001
,
0000
0000
0000
0110
,
0000
1001
0000
0110
,
0000
1001
0000
0110
,
0000
0000
0000
1001
,
0000
0000
0000
0001
,
0000
0010
0000
0100
,
0000
1000
0000
0001
,
0000
0100
0000
0010
,
0100
0000
0010
0000
0100
0000
0000
0002
,
0000
0000
0000
0000
,
0003
0000
0000
1000
0000
0000
0000
0100
,
0000
0000
0000
0010
0000
0001
0000
1000
,
0000
0010
0000
0100
0000
0000
0000
0001
,
0000
0000
0000
1000
0000
0100
0000
0010
,
0000
0001
0000
1000
0000
0000
0000
0010
,
0000
0000
0000
0100
0000
0001
0000
1000
,
0000
0100
1100
0000
0000
0100
0000
0010
,
0000
0001
0011
0000
0000
0001
0000
1000
,
0000
0010
0000
0100
0000
0000
0000
0001
,
0000
0000
0000
1000
0000
0100
0000
0010
,
0000
0001
0000
0100
0000
0000
0000
0010
,
0000
0000
0000
1000
0000
0100
0000
0010
,
0000
0001
0000
1000
0000
0000
0000
0010
,
0000
0000
0000
0100
0000
0001
0000
1000
,
0000
0100
1100
0000
0000
0000
0000
0000
,
0000
0001
0011
0000
0000
0000
0000
0000
,
0000
1000
1010
0000
0000
0000
0000
0000
,
0000
0000
0001
0000
0000
0100
0000
0010
,
0000
0000
1000
0000
,
0000
0100
0010
0000
0110
0000
0000
0000
,
0000
0010
0001
0000
0011
0000
0000
0000
,
0000
0001
1000
0000
1001
0000
1000
0000
,
0100
0000
0000
0000
0000
1100
0000
0000
;

//---------------dance-single - Itsugo----------------
#NOTES:
     dance-single:
     Itsugo:
     Medium:
     7:
     0.468,0.563,0.155,0.033,0.006:
0000
0000
0000
0000
,
0000
1001
0001
0100
,
0000
0100
0000
0010
0000
1000
0100
0000
,
0010
0000
0001
0000
1000
0000
0010
0100
,
0000
0001
0000
0000
1000
0000
0100
0000
,
0000
0000
0000
0000
0000
0000
0000
0000
0000
0000
0000
0000
0000
0000
0000
0000
1100
1000
0000
0000
0000
0000
0000
0000
0000
0000
0000
0000
0000
0000
0000
0000
0000
0000
0000
0000
0000
0000
0000
0000
0000
0000
0000
0000
0000
0000
0000
0000
0001
0000
0000
0000
0000
0000
0000
0000
0000
0000
0000
0000
0000
0000
0000
0000
,
0000
1000
0000
0010
0000
0100
0001
0000
,
1000
0000
0100
0000
0010
0000
0001
0100
,
0000
0010
1000
0002
,
0000
0000
0000
1003
,
0100
0000
0010
0000
0001
1000
0000
0000
,
0010
0000
0100
0000
0001
1000
0000
0000
,
0100
0000
0010
0000
0001
1000
0000
0000
,
0010
0000
0100
0010
0100
0010
0100
0000
,
0001
0000
1000
0000
0100
0010
0000
0000
,
0001
0000
0100
0000
0010
1000
0000
0000
,
0100
0000
0010
0000
0001
0100
0010
1000
,
0100
0010
0001
0010
0100
1000
0001
0000
,
0100
0000
0010
0000
,
1000
0000
0000
0000
0100
0000
0010
0001
,
0010
0100
1000
0000
0001
0000
0000
0000
,
0100
0000
0010
1000
,
1100
0000
0100
0000
,
0010
0000
0000
0000
0001
0000
1000
0010
,
0100
0001
1000
0000
0100
0000
0000
0000
,
0010
0000
0001
1000
,
1000
1000
1000
0010
,
0010
0000
0010
0000
0010
0000
0010
0100
,
0001
1000
0000
0100
0010
0001
0000
0100
,
0010
1000
0100
0010
0001
0000
1000
0000
,
1000
1000
1000
0010
,
0010
0010
0100
0001
,
1000
0100
0010
0001
,
0010
0100
1000
0001
,
0001
0100
0100
0010
,
1000
0100
0020
0000
,
0000
0000
0000
0000
,
0030
0000
0000
0001
0010
0001
0010
0001
,
1000
0001
1000
0001
0100
0010
1000
0000
,
0000
0000
1000
0010
1000
0001
1000
0100
,
0010
0100
1000
0010
0100
0001
0010
0000
,
0000
0000
0110
0000
1000
0001
0100
0010
,
1000
0100
0010
0100
1000
0001
0100
0000
,
0000
0000
0110
0000
1000
0100
0010
0001
,
0000
0000
0110
0000
0100
1000
0001
0100
,
0000
0100
0010
0000
1000
0100
0010
0001
,
0010
0100
1000
0100
0000
0010
0001
0000
,
0000
0100
0010
0000
1000
0100
0010
0100
,
1000
0010
0100
0001
0010
0001
0100
0000
,
0000
0000
0110
0000
0010
1000
0100
0001
,
0100
1000
0010
0001
0010
1000
0001
0000
,
0010
0000
0110
0000
1000
0100
0010
0001
,
0100
0010
0110
0000
0010
1000
0100
0010
,
0001
0100
0101
0000
0100
0010
1000
0100
,
0010
0001
1000
0000
0010
0010
0010
0200
,
0000
0000
0000
0300
0101
0000
1000
0100
,
0010
0001
0100
0010
0110
0000
0010
1000
,
0100
0010
0001
0010
0011
0000
0001
0010
,
0100
1000
0001
0100
0010
0000
1000
0100
,
0010
0001
0000
0000
0000
1001
0000
0000
;

//---------------dance-single - Itsugo----------------
#NOTES:
     dance-single:
     Itsugo:
     Hard:
     9:
     0.666,0.629,0.311,0.155,0.011:
0000
1000
0001
1000
,
0001
1001
0001
0100
,
0000
0010
0000
1000
0000
0100
0010
0000
,
0001
0000
0100
0010
1000
0010
0001
0010
,
1000
0100
0000
0010
0001
0000
0200
0000
,
0000
0000
0000
0000
0000
0000
0000
0000
0000
0000
0000
0000
0000
0000
0000
0000
1301
1000
0000
0000
0000
0000
0000
0000
0000
0000
0000
0000
0000
0000
0000
0000
0100
0000
0000
0000
0000
0000
0000
0000
0000
0000
0000
0000
0000
0000
0000
0000
0010
0000
0000
0000
0000
0000
0000
0000
0000
0000
0000
0000
0000
0000
0000
0000
,
0000
0001
0000
0100
0000
0010
1000
0000
,
0100
0000
0001
0100
1000
0010
0001
0010
,
1000
0100
0000
0010
0001
0100
0020
0000
,
2030
0000
0000
0000
3200
0000
0000
0000
0320
0000
0000
0030
0011
0000
0001
0000
,
1000
0001
0010
0001
0100
0020
0000
1030
,
0100
0010
0001
0100
0010
2000
0000
3010
,
0100
0001
0010
0100
1000
0002
0000
0103
,
0010
1000
1010
1000
1001
0001
1000
0001
,
0010
0100
1000
0001
0100
0020
0000
1030
,
0100
0010
0001
0100
0010
2000
0000
3010
,
0100
0001
1000
0100
0010
0001
1000
1000
,
0010
0010
0100
0100
0001
0001
1000
0100
,
0010
0001
0100
0010
0000
1000
0000
1000
,
0100
0000
0110
0000
0010
0000
0001
0100
,
0010
1000
0100
0010
0000
0010
0100
1000
,
0001
0100
0000
0010
1000
0000
1100
0000
,
0010
0000
0001
0100
0000
0010
0000
1000
,
0100
0000
1100
0000
0010
0000
0001
0100
,
0010
1000
0100
0010
0000
0010
0001
0100
,
0010
1000
0000
1000
0010
0100
0101
0001
,
0010
0100
1000
0010
0000
0100
0010
1000
,
0100
0000
0110
0000
0010
0001
0000
0100
,
0010
1000
0000
0010
0100
0001
0000
1000
,
0100
0010
0001
0010
0100
1000
1100
1000
,
0001
0010
0001
0100
0000
0010
1000
0001
,
0010
0100
0000
1000
0100
0010
0001
0000
,
0101
0000
0100
0010
0000
1010
0000
1000
,
0100
0010
0000
0010
0001
0100
0000
0100
,
0010
1000
0000
1000
0100
0010
0001
1000
,
0001
0000
1000
0000
0001
0000
1000
0000
0001
0000
0000
0100
0000
0000
0202
0000
,
0000
0000
0000
0000
0000
0000
0000
0303
,
0000
MMMM
1000
0100
0010
0001
0100
0010
,
1000
0010
0100
0001
0010
0100
1000
1000
,
1000
0100
0110
0000
0010
0001
0100
0010
,
1000
0001
0010
0100
1000
0001
0100
0001
,
0001
0001
0101
0000
0100
0010
1000
0100
,
0010
0100
1000
0010
0100
0001
0010
0100
,
1000
0010
1010
0000
0010
0100
0001
1000
,
0100
0010
0110
0000
0010
0001
0100
0010
,
1000
0100
1100
0000
0100
0010
0001
0100
,
1000
0001
0010
0100
0001
1000
0100
0010
,
0001
0100
0110
0000
0010
1000
0100
0010
,
0001
0100
0010
1000
0100
0010
0100
1000
,
0010
0100
0110
0000
0100
0001
0010
0100
,
0001
0100
1000
0100
0010
0001
0100
0010
,
1000
0010
0110
0000
0100
0001
1000
0100
,
0010
0001
0011
0000
0001
0100
0010
1000
,
0100
0010
0110
0000
0100
1000
0001
0100
,
0010
1000
0100
0000
1000
0001
0010
0200
,
0000
0000
0000
1300
1100
0000
0100
0010
,
0001
1000
0100
0010
0011
0000
0001
0100
,
0010
1000
0100
0010
0110
0000
0100
1000
,
0001
0100
0010
1000
0100
0000
0010
0100
,
1000
0000
0002
0000
0000
0000
0000
0000
0000
0003
0101
0000
0000
0000
0000
0000
;
