#TITLE:Pop Culture;
#SUBTITLE:(This is) RANDOMNESS !?;
#ARTIST:Madeon;
#TITLETRANSLIT:Pop Culture;
#SUBTITLETRANSLIT:(This is) RANDOMNESS !?;
#ARTISTTRANSLIT:Madeon;
#GENRE:AMV;
#CREDIT:Itsugo15;
#BANNER:Pop Culture-bn.jpg;
#BACKGROUND:Pop Culture-bg.jpg;
#JACKET:Pop Culture-Jacket.jpg;
#LYRICSPATH:Pop Culture.lrc;
#CDTITLE:Itsugo15 SimifileS.png;
#MUSIC:Pop Culture.ogg;
#OFFSET:-0.111;
#SAMPLESTART:88.826;
#SAMPLELENGTH:30.000;
#SELECTABLE:YES;
#LISTSORT:;
#BPMS:0.000=125.000;
#STOPS:;
#TICKCOUNT:0.000=6;
#BGCHANGES:-0.315=Pop Culture.avi=1.000=1=1=0,
316.000=Pop Culture-bg.jpg=1.000=1=1=0,
99999=-nosongbg-=1.000=0=0=0 // don't automatically add -songbackground-
;
#KEYSOUNDS:;
#ATTACKS:;

//---------------dance-single - Itsugo15----------------
#NOTES:
     dance-single:
     Itsugo15:
     Challenge:
     10:
     0.614,0.848,0.267,0.338,0.403: // measure 1
0000
0000
0000
0000
,  // measure 2
0000
0000
0000
0000
,  // measure 3
0002
1000
0000
1003
,  // measure 4
2000
0001
0000
3001
,  // measure 5
0020
0100
0000
0130
,  // measure 6
0200
0000
0000
0300
1001
0010
1001
0100
,  // measure 7
1001
0001
0000
0011
0000
0000
1100
0001
,  // measure 8
1000
1100
0000
0001
0101
0000
2001
3000
,  // measure 9
0100
0010
0000
0001
1000
0000
0010
0100
,  // measure 10
0001
2000
0000
3100
0000
1100
0001
0000
,  // measure 11
0101
0001
0000
1000
0200
0010
0010
0310
,  // measure 12
0110
1000
0001
0100
0010
0000
0110
0000
,  // measure 13
2000
3001
0000
0002
1003
0000
0100
0010
,  // measure 14
0001
2000
0000
3001
0100
0010
1000
0001
,  // measure 15
0101
1000
0000
1100
0020
0100
0100
0130
,  // measure 16
0110
0010
0001
2000
0020
3030
0101
0000
,  // measure 17
1001
0001
0000
0010
0100
0000
1000
0100
,  // measure 18
0010
0002
0000
2003
0000
3020
0000
0130
,  // measure 19
0110
0100
0000
0101
0001
1000
0100
0010
,  // measure 20
0110
0100
0000
1100
0001
0100
0010
1000
,  // measure 21
0002
0000
0000
0000
0000
0000
0000
0003
,  // measure 22
1001
0100
1001
0100
1001
0010
1001
0010
,  // measure 23
1001
0000
0100
0000
0001
0100
0001
0100
0001
0100
0001
0000
0100
0000
0001
0000
,  // measure 24
1001
0000
1000
0000
0100
1000
0100
1000
0100
1000
0100
0000
0010
0000
0001
0000
,  // measure 25
0011
0000
0001
0000
0010
0100
1000
0100
0010
0001
1000
0000
0010
0000
0100
0000
,  // measure 26
0110
0000
0100
0000
0001
1000
0100
0010
0100
1000
0001
0000
0100
0000
0010
0000
,  // measure 27
0110
0000
0100
0000
0001
1000
0100
1000
0010
0100
0001
0000
1000
0000
0100
0000
,  // measure 28
1100
0000
1000
0000
0001
0100
0010
1000
0100
0010
0001
0000
0100
0000
0010
0000
,  // measure 29
0220
0000
0000
0000
,  // measure 30
0000
0000
0000
0000
0000
0330
0110
0010
,  // measure 31
1001
0000
0001
0000
0010
0000
0100
0000
1000
0000
0100
0000
0010
0001
0010
0100
,  // measure 32
1000
0000
0001
0000
0100
0000
0010
0000
1000
0000
0010
0000
0100
0001
0100
0010
,  // measure 33
1000
0000
0001
0000
0010
0000
0001
0000
1000
0000
0010
0000
1000
0001
0010
0001
,  // measure 34
1000
0100
1000
0001
0100
0001
0101
1000
,  // measure 35
1100
0000
0100
0000
0010
0000
0100
0000
1000
0000
0100
0000
0010
0001
1000
0010
,  // measure 36
0100
0000
0001
0000
0100
0000
0010
0000
1000
0000
0010
0000
0100
0001
1000
0100
,  // measure 37
0010
0000
0001
0000
0010
0000
0100
0000
0010
0000
0001
0000
0010
0100
1000
0100
,  // measure 38
0010
0100
1000
0100
0010
0001
1000
0010
,  // measure 39
2010
0000
0001
0000
0000
0000
0040
0030
,  // measure 40
3002
0000
1000
0000
0000
0000
0400
0300
,  // measure 41
2003
0000
0001
0000
0000
0000
0040
0030
,  // measure 42
3002
0000
1000
0000
0000
0000
0400
0300
,  // measure 43
0203
0000
0010
0000
0000
0000
4000
3000
,  // measure 44
0320
0000
0100
0000
0000
0000
0004
0003
,  // measure 45
0230
0000
0010
0000
0000
0000
0004
0003
,  // measure 46
0320
0000
0100
0000
0000
0000
4000
3000
,  // measure 47
1030
0000
0001
0000
0100
0001
0100
0001
0100
0001
0100
0000
0001
0000
1000
0000
,  // measure 48
0100
0000
1000
0000
0100
1000
0100
1000
0100
1000
0100
0000
0010
0000
0001
0000
,  // measure 49
0100
0000
0010
0000
0100
0010
0100
0010
0100
0010
0100
0000
0001
0000
1000
0000
,  // measure 50
0100
0000
0010
0000
0001
0000
0010
0000
0100
0000
1000
0000
0000
1000
0000
0000
,  // measure 51
2000
0001
0001
0001
0001
0001
0001
0001
,  // measure 52
3002
1000
1000
1000
1000
1000
1000
1000
,  // measure 53
2003
0010
0010
0001
0010
0010
0100
3010
,  // measure 54
1010
0000
0000
0000
0000
0000
0000
0000
0100
0000
0000
0000
0000
0000
0000
0000
1010
0000
0000
0000
0000
0000
0000
0000
0001
0000
0000
0000
0000
0000
0000
0010
1000
0000
0000
0000
0000
0000
0000
0000
0100
0000
0000
0000
0000
0000
0000
1000
0010
0000
0000
0000
0000
0000
0000
0000
0001
0000
0000
0000
0000
0000
0000
0000
,  // measure 55
1000
0001
1000
0001
1000
0010
1000
0010
1000
0001
0100
0001
0100
0001
1000
0001
,  // measure 56
1000
0001
0010
0001
0010
0100
0010
0100
0010
0001
0010
0001
0010
0100
1000
0100
,  // measure 57
1000
0001
1000
0001
1000
0010
1000
0010
1000
0001
0100
0001
0100
0010
0100
0010
,  // measure 58
0100
0001
0100
0001
0100
0010
1000
0010
1000
0001
1000
0001
1000
0100
1000
0100
,  // measure 59
1000
0010
1000
0010
1000
0001
0100
0001
0100
0010
0100
0010
0100
0001
0100
0001
,  // measure 60
0100
0001
1000
0001
1000
0100
1000
0100
1000
0001
0010
0001
0010
0100
1000
0100
,  // measure 61
1000
0001
0100
0001
0100
0010
1000
0010
1000
0001
0100
0001
0100
0010
0100
0010
,  // measure 62
0100
0001
0100
0001
0100
0001
1000
0001
1000
0100
1000
0100
1000
0010
1000
0010
,  // measure 63
1000
0010
0100
0001
1000
0100
0010
0001
0010
0100
1000
0001
0020
0000
0000
0000
,  // measure 64
0031
0100
0010
1000
0100
1000
0001
0200
0001
0000
0000
0000
0310
0000
2000
0000
,  // measure 65
0010
0000
0001
0000
0100
0010
0001
3200
,  // measure 66
0010
0001
1000
0320
0001
0100
1000
0100
,  // measure 67
0032
0000
0000
0000
1000
0000
4000
0000
0000
0000
0000
0000
0000
0000
0000
3000
,  // measure 68
2000
0000
0000
0000
0100
0000
0400
0000
0000
0000
0000
0000
0000
0000
0000
0300
,  // measure 69
0200
0000
0010
0040
0000
0000
0000
0000
,  // measure 70
0000
0000
3303
0000
,  // measure 71
1031
0000
1000
0000
0010
0000
0100
0000
0001
0000
1000
0000
0100
0010
0001
0010
,  // measure 72
0100
0000
1000
0000
0001
0000
0100
0000
0010
0000
1000
0000
0001
0010
0100
1000
,  // measure 73
0100
0000
0010
0000
0001
0000
1000
0000
0010
0000
0100
0000
0001
1000
0100
0010
,  // measure 74
0001
0000
0001
0000
0010
0000
0010
0000
0100
0000
0100
0000
1000
0100
1000
0100
,  // measure 75
4000
0000
0000
0000
,  // measure 76
0000
0000
0000
0000
0000
0000
0000
0000
0000
0000
0000
0000
0000
0000
0000
3000
,  // measure 77
2002
0000
0000
0000
,  // measure 78
0000
0000
0000
0000
,  // measure 79
0000
0000
0000
0000
,  // measure 80
3003
0000
0000
0000
;

//---------------dance-single - Itsugo15----------------
#NOTES:
     dance-single:
     Itsugo15:
     Beginner:
     2:
     0.103,0.154,0.111,0.150,0.000:
0000
0000
0000
0000
,
0000
0000
0000
0000
,
1000
0000
0000
0000
,
0010
0000
0000
0000
,
0100
0000
0000
0000
,
0001
0000
0000
0000
,
1001
0000
0000
0000
,
1000
0000
0000
0000
,
0001
0000
0000
0000
,
0010
0000
0000
0000
,
0011
0000
0000
0000
,
0001
0000
0000
0000
,
1000
0000
0000
0000
,
0010
0000
0000
0000
,
1010
0000
0000
0000
,
1000
0000
0000
0001
,
0100
0000
0000
0000
,
0010
0000
0000
0000
,
1000
0000
0000
0000
,
0001
0000
0000
0000
,
2002
0000
0000
0000
,
0000
0000
0000
3003
,
0011
0000
0000
0000
,
0010
0000
0000
0000
,
0100
0000
0000
0000
,
1000
0000
0000
0000
,
0001
0000
0000
0000
,
0100
0000
0000
0000
,
0020
0000
0000
0000
,
0000
0000
0000
0000
,
1030
0000
0000
0000
,
1000
0000
0000
0000
,
0001
0000
0000
0000
,
0001
0000
0000
0000
,
0010
0000
0000
0000
,
0100
0000
0000
0000
,
1000
0000
0000
0000
,
0001
0000
0000
0000
,
0200
0300
0000
0000
,
0020
0030
0000
0000
,
2000
3000
0000
0000
,
0002
0003
0000
0000
,
0020
0030
0000
0000
,
0200
0300
0000
0000
,
2000
3000
0000
0000
,
0200
0300
0000
0000
,
0020
0030
0000
0000
,
0002
0003
0000
0000
,
2000
3000
0000
0000
,
0020
0030
0000
0000
,
0200
0000
0000
0000
,
0302
0000
0000
0000
,
2000
0000
0000
0000
,
0000
0000
0000
3003
,
1001
0000
0000
0000
,
0011
0000
0000
0000
,
1100
0000
0000
0000
,
1010
0000
0000
0000
,
0101
0000
0000
0000
,
1001
0000
0000
0000
,
0110
0000
0000
0000
,
1001
0000
0000
0000
,
0101
0000
0000
0000
,
0011
0000
0000
0000
,
1100
0000
0000
0000
,
1010
0000
0000
0000
,
0002
0000
0000
0000
,
0203
0000
0000
0000
,
0320
0000
0000
0000
,
0000
0000
0000
0000
,
1030
0000
0000
0000
,
0100
0000
0000
0000
,
0010
0000
0000
0000
,
0001
0000
0000
0000
,
2000
0000
0000
0000
,
0000
0000
0000
0000
,
0002
0000
0000
0000
,
0000
0000
0000
0000
,
0000
0000
0000
0000
,
3003
0000
0000
0000
;

//---------------dance-single - Itsugo15----------------
#NOTES:
     dance-single:
     Itsugo15:
     Easy:
     4:
     0.151,0.231,0.020,0.254,0.000:
0000
0000
0000
0000
,
0000
0000
0000
0000
,
0002
0000
0003
0000
,
0020
0000
0030
0000
,
0200
0000
0300
0000
,
2000
0000
3000
0000
,
1100
0000
0000
0001
0000
0000
0000
0000
,
0100
0000
0010
0000
,
1000
0000
0001
0000
,
0010
0000
0000
0000
,
0011
0000
0000
1000
0000
0000
0000
0000
,
0001
0000
0100
0000
,
0010
0000
1000
0000
,
0001
0000
0000
0000
,
1001
0000
0000
0010
0000
0000
0000
0000
,
0100
0000
0001
2000
,
3100
0000
0000
1000
0000
0000
0000
0000
,
0002
0000
0000
0003
,
1000
0000
0000
0010
0000
0000
0000
0000
,
0100
0000
0000
0001
0000
0000
1000
0000
,
0200
0000
0000
0000
,
2000
0000
0000
0300
,
3001
0000
0100
0000
,
0010
0000
0000
0000
,
1000
0000
0001
0000
,
0010
0000
0000
0000
,
0100
0000
1000
0000
,
0001
0000
0000
0000
,
0200
0000
0000
0000
,
0000
0000
0000
0301
,
2000
0000
0000
0000
,
3200
0000
0000
0000
,
0320
0000
0000
0000
,
0032
0000
0000
0000
,
1003
0000
1000
0000
,
0010
0000
0010
0000
,
0100
0000
0100
0000
,
0100
0000
0100
0000
,
0001
0000
0001
0000
,
0010
0000
0010
0000
,
0100
0000
0100
0000
,
1000
0000
1000
0000
,
0001
0000
0001
0000
,
0100
0000
0100
0000
,
0010
0000
0010
0000
,
0010
0000
0010
0000
,
1000
4000
0000
3000
,
0001
0004
0000
0003
,
0010
0040
0000
0030
,
0100
0000
2000
0000
,
3002
0000
0000
0000
,
0203
0000
0000
0000
,
0320
0000
1000
0000
,
1000
1000
1000
2030
,
3001
0000
0010
0000
,
0200
0000
1000
0000
,
0320
0000
0001
0000
,
0032
0000
0100
0000
,
2003
0000
0010
0000
,
3200
0000
1000
0000
,
0320
0000
0001
0000
,
0032
0000
0000
0000
,
4000
0000
0000
3000
,
4000
0000
0000
0000
3000
0000
0000
0023
,
0000
0000
0000
0000
0000
0000
0000
0230
,
0000
0000
0000
1000
0000
0000
0000
0000
,
2300
0000
0000
0001
0000
0000
0000
0000
,
3002
0000
0000
0100
0000
0000
0000
0000
,
0203
0000
0000
0020
0000
0000
0000
0000
,
0000
0000
0000
0300
,
1030
0000
0000
0000
,
0001
0000
0000
0000
,
0010
0000
0000
0000
,
0200
0000
0000
0000
,
4000
0000
0000
0000
,
0000
0000
0000
0000
0000
0000
0000
3000
,
2000
0000
0000
0000
,
0000
0000
0000
0000
,
0000
0000
0000
0000
,
3300
0000
0000
0000
;

//---------------dance-single - Itsugo15----------------
#NOTES:
     dance-single:
     Itsugo15:
     Medium:
     6:
     0.337,0.462,0.234,0.312,0.007:
0000
0000
0000
0000
,
0000
0000
0000
0000
,
0001
0010
0000
0010
,
0000
0100
0000
0100
,
0000
1000
0000
1000
,
0000
0001
0101
1001
,
1100
0100
0000
0110
0000
0000
0010
0000
,
0001
1000
0010
1010
,
1000
0001
0000
0001
1000
0000
0100
0010
,
0001
2000
0000
3001
0200
0000
0020
0330
,
0110
0100
0000
0101
0000
0001
1000
1000
,
0200
0000
1300
0001
0100
0000
0101
0000
,
0001
1000
0000
1000
0001
0000
0010
0100
,
1000
0200
0000
0310
0000
0002
0000
1003
,
1001
0001
0000
0101
0000
0100
0010
0010
,
2000
0000
3001
0010
0100
0000
0220
0330
,
0010
0100
0000
0100
0010
0000
0001
1000
,
0020
0000
0000
0000
0000
0000
0000
0030
,
0110
0010
0000
1010
0000
0000
1000
0000
,
1001
0001
0000
0010
0000
0200
0000
1300
,
0002
0000
0000
0000
0000
0000
0000
0003
,
1001
1001
1001
1001
,
0110
0000
0200
0000
0001
0000
0301
1000
,
0100
0000
0020
0000
0001
0000
0031
0010
,
0100
0000
2000
0000
0001
0000
3001
0100
,
0010
0000
2000
0000
0010
0000
3010
0100
,
0001
0000
0020
0000
0100
0000
0130
0010
,
0001
0000
0200
0000
0010
0000
0310
1000
,
0002
0000
0000
0000
,
0000
0000
0000
0000
0000
0003
0011
0000
,
1100
0000
1000
0000
1000
0000
1000
0001
,
0100
0000
0100
0000
0100
0000
0100
0001
,
0010
0000
0010
0000
0010
0000
0100
0010
,
0001
1000
0010
0100
,
0110
0000
0010
0000
0100
0000
0001
1000
,
0100
0000
0010
0000
0001
0000
1000
0010
,
0100
0001
0100
1000
,
0100
0001
0100
1000
,
0100
000L
0000
0004
,
0003
L000
0000
4000
,
3000
0L00
0000
0400
,
0300
00L0
0000
0040
,
0030
000L
0000
0004
,
0003
L000
0000
4000
,
3000
00L0
0000
0040
,
0030
00L0
0000
0040
,
0030
2000
0000
3001
,
1000
0002
0000
1003
,
0010
0200
0000
0310
,
0200
0000
0000
0000
0001
0000
0000
0000
0000
0000
0001
0000
0000
0001
0300
0000
,
0100
0000
0000
0010
0000
0000
2000
0000
0000
0000
0000
0000
3001
0000
0000
0000
,
0020
0000
0000
0100
0000
0000
0031
1000
,
0002
1000
0000
1000
1000
1000
0000
1003
,
1001
1001
1001
1001
,
0110
0000
0101
0000
0001
1000
0100
0000
,
0010
0000
0110
0000
0100
1000
0001
0000
,
0100
0000
0101
0000
0001
1000
0010
0000
,
0100
0000
0110
0000
0010
0100
0001
0000
,
1000
0000
1001
0000
0001
0010
0100
0000
,
1000
0000
1100
0000
0100
1000
0001
0000
,
0010
0000
0011
0000
0001
0100
0010
0000
,
1000
0000
1010
0000
0010
0100
0001
1000
,
1001
0001
0010
0100
1000
0100
0002
0000
,
0103
1000
0001
0100
0020
0000
0000
2000
,
0000
0000
0000
0000
0000
0000
0030
0002
,
0000
0000
3000
0020
0000
0000
0000
0003
,
0430
0000
0000
4000
0300
0000
0000
0000
,
0004
3000
0000
0400
0003
0000
0000
0000
,
0040
0300
0000
4000
0000
0000
0000
0000
,
0000
0000
0000
0000
0000
0000
0000
0030
,
3001
0010
0100
1000
,
0100
0010
0001
0100
,
0010
1000
0010
0100
,
0002
1000
1000
1000
,
4000
0000
0000
0000
,
0000
0000
0000
0000
0000
0000
0000
3000
,
2000
0000
0000
0000
,
0000
0000
0000
0000
,
0000
0000
0000
0000
,
3003
0000
0000
0000
;

//---------------dance-single - Itsugo15----------------
#NOTES:
     dance-single:
     Itsugo15:
     Hard:
     8:
     0.481,0.668,0.319,0.494,0.036:
0000
0000
0000
0000
,
0000
0000
0000
0000
,
2000
0010
0000
0010
,
3002
0100
0000
0100
,
0023
1000
0000
0001
,
0230
0000
0000
0300
0110
0001
0110
1000
,
0110
0001
0000
0011
0000
0001
0100
0000
,
0100
0010
0000
1000
0001
0000
0010
0000
,
0001
1000
0000
1000
0001
0000
0001
0100
,
0010
2000
0000
3002
0000
0013
0100
1000
,
1100
0100
0000
0110
0000
0010
0010
0001
,
0011
0010
0001
1000
0020
0000
0230
0000
,
0301
0100
0000
0010
1000
0000
0001
0010
,
0100
2000
0000
3200
0000
0310
0001
1000
,
1001
0001
0000
0101
0000
0100
0100
0010
,
0110
0100
0002
2003
3200
0000
0020
0300
,
0031
1000
0000
0010
0100
0000
0001
0100
,
0010
2000
0000
3002
0000
0023
0000
0130
,
0110
0010
0000
0011
0000
0001
1000
0000
,
1001
0001
0000
0100
0010
2000
0000
3001
,
0020
0000
0000
0000
0000
0000
0000
0030
,
0110
1000
0110
0001
0110
1000
0110
0001
,
0110
0100
4000
0000
0000
0000
3001
0100
,
0101
0001
0040
0000
0000
0000
0031
0100
,
0101
0001
0400
0000
0000
0000
0310
1000
,
1010
0010
0400
0001
0001
0000
0301
1000
,
1001
0001
0040
0000
0000
0000
0031
0100
,
0101
0001
4000
0000
0000
0000
3100
0010
,
0002
0000
0000
0000
,
0000
0000
0000
0000
0000
0003
0011
1000
,
1001
0001
0100
0010
1000
0001
0040
0000
,
0130
1000
0100
0010
0001
0100
0040
0000
,
1030
0010
0100
0001
1000
0100
0040
0000
,
0031
0010
0100
1000
0001
0100
0101
1000
,
1001
0100
1000
0010
0100
0001
4000
0000
,
3100
0010
0001
0010
0100
1000
0004
0000
,
0103
0010
1000
0001
0100
0010
1000
0001
,
0100
0010
1000
0001
0010
0100
1000
0001
,
0200
0000
0000
0000
0010
0000
0000
0000
0000
0000
0000
0000
0304
0000
0000
0003
,
0002
0000
0000
0000
0010
0000
0000
0000
0000
0000
0000
0000
4003
0000
0000
3000
,
2000
0000
0000
0000
0001
0000
0000
0000
0000
0000
0000
0000
3040
0000
0000
0030
,
0020
0000
0000
0000
0001
0000
0000
0000
0000
0000
0000
0000
0430
0000
0000
0300
,
0200
0302
0023
0430
,
2300
3002
0203
0340
,
2030
3002
0023
0430
,
2300
0001
0000
3004
,
0103
0000
0040
0000
0000
0000
1030
0001
,
0010
0000
0400
0000
0000
0000
1300
0001
,
0100
0000
0040
0000
0000
0000
1030
0001
,
0010
0000
0000
0000
0100
0000
0000
0000
2000
0000
0001
0000
0000
0001
0000
0000
,
0001
0001
0001
0001
0001
0001
0001
0001
,
3002
0100
0100
0100
0100
0100
0100
0100
,
0203
0010
0010
0001
0010
0010
0010
0301
,
0101
1000
1100
0001
0101
1000
1100
0001
,
0101
0100
0110
0010
1000
0001
1001
1000
,
0100
0010
0110
0100
0010
0001
0011
0010
,
0001
1000
1001
0001
1000
0010
1010
1000
,
0010
0100
0110
0010
0100
0001
0101
0001
,
1100
0100
0110
0010
0001
1000
1001
0001
,
0100
0010
0110
0100
0010
1000
1010
0010
,
1000
0001
1001
1000
0001
0010
0011
0001
,
0010
0100
0110
0010
0100
1000
1100
1000
,
0001
0100
0001
0100
0001
0100
0001
1000
0001
0100
0001
0010
0200
0000
0000
0000
,
1300
0100
0010
0100
1000
0001
0100
0020
0000
0000
0000
0000
1000
0000
2030
0000
,
0001
0000
0010
0000
0001
0000
0100
3200
,
0010
0000
0010
0320
0001
0000
0100
0000
,
0032
0000
0000
4000
0000
0000
0000
3000
,
2003
0000
0000
0040
0000
0000
0000
0030
,
0020
0000
0000
0004
0000
0000
0000
0000
,
0000
0000
3000
0030
,
0103
0001
1000
0400
,
1300
0001
0100
0040
,
1030
0001
0010
0400
,
2300
0001
0010
0004
,
3000
0000
0000
0000
,
0000
0000
0000
0000
,
0200
0000
0000
0000
,
0000
0000
0000
0000
,
0300
0000
0000
0000
,
0003
0000
0000
0000
;
