#TITLE:One Reason;
#SUBTITLE:デッドマン・ワンダーランド;
#ARTIST:DWB Feat. fade;
#TITLETRANSLIT:One Reason;
#SUBTITLETRANSLIT:Deadman Wonderland;
#ARTISTTRANSLIT:DWB Feat. Fade;
#GENRE:Itsugo15 SimifileS 31-60;
#CREDIT:Itsugo15;
#BANNER:One Reason-bn.jpg;
#BACKGROUND:One Reason-bg.jpg;
#LYRICSPATH:One Reason.lrc;
#CDTITLE:Itsugo15 SimifileS.png;
#MUSIC:One Reason.mp3;
#OFFSET:-0.140;
#SAMPLESTART:52.997;
#SAMPLELENGTH:30.000;
#SELECTABLE:YES;
#LISTSORT:;
#BPMS:0.000=218.000;
#TICKCOUNT:0.000=6;
#BGCHANGES:0.000=One Reason.avi=1.000=1=1=0,
320.000=One Reason-bg.jpg=1.000=0=1=0,
99999=-nosongbg-=1.000=0=0=0 // don't automatically add -songbackground-
;
#KEYSOUNDS:;
#ATTACKS:;

//---------------dance-single - Itsugo----------------
#NOTES:
     dance-single:
     Itsugo:
     Challenge:
     12:
     0.908,1.000,0.598,0.000,0.238: // measure 1
0000
0000
0000
0000
,  // measure 2
0000
0000
0000
0000
,  // measure 3
0000
0000
0000
0000
,  // measure 4
0000
0000
0000
0000
,  // measure 5
1000
0010
0100
0001
0010
0000
1000
0001
,  // measure 6
0000
0100
1000
0000
0001
0001
0100
0010
,  // measure 7
0100
0001
0010
0100
1000
0000
0010
0001
,  // measure 8
0000
1000
0100
0000
0010
1000
0001
0010
,  // measure 9
0100
0100
1000
0001
0100
0000
1000
0001
,  // measure 10
0000
0010
1000
0000
0001
0001
0010
0100
,  // measure 11
1000
1000
1000
1000
0010
0010
0010
0010
,  // measure 12
0100
0100
0001
0001
1000
1000
0100
0100
,  // measure 13
1000
0010
0100
0001
0010
0000
0100
0001
,  // measure 14
0000
1000
0010
0000
0001
0001
0100
0010
,  // measure 15
1000
0100
0001
0100
1000
0000
0001
0100
,  // measure 16
0000
1000
0001
0000
0010
0100
0001
1000
,  // measure 17
0100
0100
0010
0001
1000
0000
0010
0001
,  // measure 18
0000
1000
0100
0000
0010
0010
1000
0100
,  // measure 19
0010
0010
0010
0010
0001
0001
0001
0001
,  // measure 20
1000
1000
0010
0010
0100
0100
0001
0001
,  // measure 21
1000
0000
0100
0010
0100
1000
0001
0100
,  // measure 22
0101
0000
0100
0001
0100
0000
1001
0000
,  // measure 23
0100
1000
0010
0000
0101
0000
0001
0100
,  // measure 24
1000
0000
1000
0100
0001
0010
0100
1000
,  // measure 25
1100
0000
0100
0010
0001
0001
1001
0000
,  // measure 26
1000
0010
0100
0100
0110
0000
0100
0001
,  // measure 27
1000
0100
0010
0010
0100
1000
0001
0100
,  // measure 28
0010
0010
1000
1000
0001
0010
0001
1000
,  // measure 29
1001
0000
0010
0100
0010
0001
1000
0010
,  // measure 30
1010
0000
0010
1000
0010
0000
1001
0000
,  // measure 31
0010
0001
0100
0000
1010
0000
1000
0010
,  // measure 32
0001
0000
0001
0010
1000
0100
0010
0001
,  // measure 33
0011
0000
0010
0100
1000
1000
1001
0000
,  // measure 34
0001
0100
0010
0010
0110
0000
0010
1000
,  // measure 35
0001
0010
0100
0100
0010
0001
1000
0010
,  // measure 36
0100
0100
0001
0001
1000
1000
0100
0100
,  // measure 37
1000
0010
0100
0001
0010
0000
1000
0001
,  // measure 38
0000
0100
1000
0000
0001
0001
0100
0010
,  // measure 39
0100
0001
0010
0100
1000
0000
0010
0001
,  // measure 40
0000
1000
0100
0000
0010
1000
0001
0010
,  // measure 41
0100
0100
1000
0001
0100
0000
1000
0001
,  // measure 42
0000
0010
1000
0000
0001
0001
0010
0100
,  // measure 43
1000
1000
1000
1000
0010
0010
0010
0010
,  // measure 44
0100
0100
0001
0001
1000
1000
0100
0100
,  // measure 45
1000
0010
0100
0001
0010
0000
0100
0001
,  // measure 46
0000
1000
0010
0000
0001
0001
0100
0010
,  // measure 47
1000
0010
1000
0010
1000
0000
0001
1000
0001
1000
0001
0000
0010
0001
0010
0001
,  // measure 48
0010
0000
0100
0010
0100
0010
0100
1000
0001
0000
0001
0000
1000
0000
1000
0000
,  // measure 49
1001
0000
0001
0100
0100
0001
1000
0000
,  // measure 50
1000
0100
0000
0000
0000
0000
0000
0000
0010
0000
0000
0000
0001
0000
0000
0000
0001
0000
0000
0000
0000
0000
0000
0000
0111
0000
0000
0000
0000
0000
0000
0000
,  // measure 51
0010
0000
0000
0000
0010
0000
0000
0000
0001
0000
0000
0000
0000
0000
0000
0000
0001
1000
0000
0000
0000
0000
0000
0000
1000
0000
0000
0000
0010
0000
0100
0000
,  // measure 52
0001
0000
0001
0000
1000
1100
0000
0000
,  // measure 53
0110
0000
0000
0000
0000
0000
0000
0000
0010
0001
0000
0000
0000
0000
0000
0000
0001
1000
0000
0000
0000
0000
0000
0000
0001
0000
0000
0000
0001
0000
0000
0000
,  // measure 54
1000
1000
0010
0010
0100
0000
1110
0000
,  // measure 55
0100
0000
0000
0000
0000
0000
0000
0000
0001
1000
0000
0000
0000
0000
0000
0000
0100
0010
0000
0000
0000
0000
0000
0000
0010
0000
0000
0000
0001
0000
1000
0000
,  // measure 56
0100
0000
1100
0000
0001
0101
0000
0000
,  // measure 57
1010
0000
1000
0010
0010
1000
0001
0000
,  // measure 58
0001
0010
0000
0000
0000
0000
0000
0000
0100
0000
0000
0000
1000
0000
0000
0000
1000
0000
0000
0000
0000
0000
0000
0000
1110
0000
0000
0000
0000
0000
0000
0000
,  // measure 59
0100
0000
0000
0000
0100
0000
0000
0000
1000
0000
0000
0000
0000
0000
0000
0000
1000
0001
0000
0000
0000
0000
0000
0000
0001
0000
0000
0000
0100
0000
0010
0000
,  // measure 60
1000
0000
1000
0000
0001
0011
0000
0000
,  // measure 61
0110
0000
0000
0000
0000
0000
0000
0000
0100
1000
0000
0000
0000
0000
0000
0000
1000
0001
0000
0000
0000
0000
0000
0000
0001
0100
0000
0000
0000
0000
0000
0000
,  // measure 62
0100
0010
0000
0000
0110
0000
0000
0000
0000
0000
0000
0000
0010
0000
0000
0000
1010
0000
0000
0000
0000
0000
0000
0000
1011
0000
0000
0000
0000
0000
0000
0000
,  // measure 63
0101
0000
0001
0000
1001
0000
0000
0000
1100
0000
1000
0100
0010
0000
0001
0000
,  // measure 64
0011
0000
0001
0010
0100
0100
1000
1000
,  // measure 65
1100
0000
0000
0000
0000
0000
0000
0000
1000
0001
0000
0000
0000
0000
0000
0000
0001
1000
0000
0000
0000
0000
0000
0000
0010
0100
0000
0000
0000
0000
0000
0000
,  // measure 66
0100
0010
0000
0000
0000
0000
0000
0000
0010
0000
0000
0000
0010
0000
0000
0000
1010
0000
0000
0000
0000
0000
0000
0000
1011
0000
0000
0000
0000
0000
0000
0000
,  // measure 67
0001
0000
0000
0000
0001
0000
0000
0000
1000
0000
0000
0000
0000
0000
0000
0000
1000
0001
0000
0000
0000
0000
0000
0000
0001
0000
0000
0000
0100
0000
0010
0000
,  // measure 68
1000
0000
1000
0000
0001
0011
0000
0000
,  // measure 69
0110
0000
0000
0000
0000
0000
0000
0000
0100
1000
0000
0000
0000
0000
0000
0000
1000
0001
0000
0000
0000
0000
0000
0000
0001
0000
0000
0000
0001
0000
0000
0000
,  // measure 70
1000
1000
0010
0010
0100
0000
1110
0000
,  // measure 71
0010
0000
0000
0000
0000
0000
0000
0000
1000
0001
0000
0000
0000
0000
0000
0000
0010
0100
0000
0000
0000
0000
0000
0000
0100
0000
0000
0000
1000
0000
0001
0000
,  // measure 72
0010
0000
0011
0000
1000
1010
0000
0000
,  // measure 73
0101
0000
0001
0100
0100
0001
1000
0000
,  // measure 74
1000
0100
0000
0000
0000
0000
0000
0000
0010
0000
0000
0000
0001
0000
0000
0000
0001
0000
0000
0000
0000
0000
0000
0000
0111
0000
0000
0000
0000
0000
0000
0000
,  // measure 75
0010
0000
0000
0000
0010
0000
0000
0000
0001
0000
0000
0000
0000
0000
0000
0000
0001
1000
0000
0000
0000
0000
0000
0000
1000
0000
0000
0000
0010
0000
0100
0000
,  // measure 76
0001
0000
0001
0000
1000
1100
0000
0000
,  // measure 77
0110
0000
0000
0000
0000
0000
0000
0000
0011
0000
0000
0000
0000
0000
0000
0000
1100
0000
0000
0000
0101
0000
0000
0000
0000
0000
0000
0000
1000
0010
0000
0000
,  // measure 78
0000
0000
0000
0000
0001
0010
0000
0000
0000
0000
0000
0000
0110
0000
0000
0000
0000
0000
0000
0000
1000
0000
0000
0000
1001
0000
0000
0000
0001
0000
0000
0000
,  // measure 79
0000
0000
0101
0000
0010
0000
0000
0000
1010
0000
0100
0001
1000
0000
1001
0000
,  // measure 80
0001
0000
0000
0000
0000
0000
0000
0000
0011
0000
0000
0000
1000
0000
0000
0000
1100
0000
0000
0000
0100
0000
0000
0000
0010
0001
0000
0000
0000
0000
0000
0000
,  // measure 81
1001
0000
0000
0000
;

//---------------dance-single - Itsugo----------------
#NOTES:
     dance-single:
     Itsugo:
     Hard:
     9:
     0.725,0.842,0.166,0.011,0.116:
0000
0000
0000
0000
,
0000
0000
0000
0000
,
0000
0000
0000
0000
,
0000
0000
0000
1000
0100
0010
0001
0000
,
0011
0000
0000
0001
0010
0000
0001
1000
,
0000
0001
0100
0010
1000
0100
1000
0001
,
0010
0000
0001
0000
1000
0000
0001
0100
,
0000
0010
1000
0001
1000
0100
1000
0001
,
0010
0000
0001
0000
0100
0000
0010
1000
,
0000
0001
0010
0100
1000
0100
1000
0010
,
0100
0000
0010
0000
1000
0000
0001
0010
,
0000
0001
0100
0010
1000
0001
0010
0000
,
0011
0000
0001
0000
0100
0000
0001
1000
,
0000
0001
0100
0010
1000
0001
0010
0100
,
1000
0000
0001
0000
0010
0000
0001
0100
,
0000
0001
0100
0010
1000
0001
0010
0001
,
1000
0000
0100
0000
1000
0000
0001
0100
,
0000
0000
0001
0000
1000
0000
0001
0000
0100
0000
0010
0000
1000
0000
0001
0100
,
0001
1000
0000
1000
0100
0000
0100
0010
,
0000
0001
0010
0100
1000
0001
0100
0000
,
0101
0000
0001
1000
0100
0000
0100
0010
,
0000
0001
0010
0100
1000
0100
0010
0001
,
0010
0000
0100
0000
0010
0000
0001
0100
,
0000
0010
1000
0100
1000
0001
0100
0010
,
1000
0000
0001
0000
0010
0000
0001
0100
,
0000
0010
1000
0001
0100
0010
1000
0100
,
0010
0000
0001
0000
0100
0000
0010
0100
,
0000
0001
0100
0010
1000
0001
0010
0000
,
0011
0000
0001
0000
0010
0000
0100
1000
,
0000
0001
0100
0001
1000
0100
0010
0001
,
1000
0000
0001
0000
0010
0000
0100
1000
,
0000
0001
0010
0001
1000
0010
0100
0001
,
0010
0000
0001
0000
0100
0000
0010
1000
,
0000
0000
0001
0000
0010
0000
0001
0000
1000
0000
0010
0000
0100
0000
0001
0100
,
0001
1000
0000
0001
0010
0000
0001
0100
,
0000
0001
0100
0010
1000
0001
0010
0000
,
0011
0000
0001
0000
1000
0000
0010
0100
,
0000
0001
1000
0010
1000
0100
0010
0001
,
1000
0000
0001
0000
0100
0000
0010
0100
,
0000
0001
0010
0001
1000
0100
0010
0001
,
1000
0000
0001
0000
0010
0000
0001
0010
,
0000
0001
0100
0010
1000
0001
0010
0100
,
1000
0001
0000
0001
0100
0000
0010
1000
,
0000
0001
0100
0010
1000
0100
0010
0000
,
0001
0000
0010
0000
0100
0000
1000
0100
,
0000
0010
0001
1000
0100
0010
0001
0100
,
0001
0100
0001
0000
0000
0000
1000
0010
1000
0000
0000
0000
0001
0010
0001
0000
,
0000
0000
1000
0100
1000
0000
0000
0000
0001
0100
0001
1000
0100
0000
0010
0000
,
0001
0000
0001
0000
1000
0000
0100
1000
,
0001
0100
0010
0110
,
0000
0000
0000
0000
0010
0000
0000
0000
1000
0000
0000
0000
0001
0010
0001
0000
,
1000
0000
1000
0000
0010
0100
0000
0000
,
0110
0000
0100
0000
0010
0000
1000
0010
,
0100
0001
1000
1001
,
0000
0000
1000
0000
0001
0000
0000
0000
1000
0000
0000
0000
0001
0100
0001
0000
,
1000
0000
0100
0000
0010
0001
0000
0000
,
1000
0000
0000
0000
0010
0000
0000
0000
0100
0000
0000
0000
0001
0100
0001
0000
,
1000
0001
0010
0011
,
0000
0000
0010
0000
0001
0000
0000
0000
1000
0000
0000
0000
0001
1000
0001
0000
,
1000
0000
0010
0000
0100
0001
0000
0000
,
1000
0000
0000
0000
0100
0000
0000
0000
1000
0000
0000
0000
0010
0000
1000
0001
,
1000
0100
0000
0100
0010
0000
0010
0001
,
0000
0000
1000
0000
0100
0000
0000
0000
0010
0000
0001
0010
0001
0000
2000
0000
,
0000
3000
0010
0001
0010
1000
0001
0000
,
1001
0000
0000
0000
1000
0000
0000
0000
0010
0000
0000
0000
0100
0001
0100
0000
,
0010
1000
0001
1001
,
0000
0000
1000
0000
0001
0000
0000
0000
1000
0000
0000
0000
0100
1000
0100
0000
,
1000
0000
0001
0000
0100
0001
0000
0000
,
1000
0000
0100
0000
1100
0000
1000
0001
,
0100
0010
1000
1010
,
0000
0000
0000
0000
1000
0000
0000
0000
0001
0000
0000
0000
0010
0001
0010
0000
,
0001
1000
0000
0010
0100
0001
1000
0000
,
1001
0000
0000
0000
0001
0000
0000
0000
0100
0000
0000
0000
0010
1000
0010
0000
,
0100
0001
1000
1001
,
0000
0000
0001
0000
0010
0000
0000
0000
0100
0000
0000
0000
1000
0100
1000
0000
,
0001
0000
0100
0000
0010
1000
0000
0000
,
0001
0000
0000
0000
0010
0000
0100
0000
1000
0000
0000
0000
1000
0000
0001
0100
,
0001
1000
0000
0001
0010
0000
0010
0100
,
0000
0000
0100
0000
1000
0000
0000
0000
0001
0000
0000
0010
0001
0000
0100
0000
,
0010
0000
1000
0010
0100
0001
1000
0000
,
0100
0000
0000
0000
;

//---------------dance-single - Itsugo----------------
#NOTES:
     dance-single:
     Itsugo:
     Medium:
     7:
     0.472,0.620,0.133,0.133,0.000:
0000
0000
0000
0000
,
0000
0000
0000
0000
,
0000
0000
0000
0000
,
0000
0000
0000
0000
,
1010
0000
0000
0000
1000
0000
0000
0010
,
0000
1000
0001
0000
1000
0000
0000
0001
,
0000
0000
0010
0000
0011
0000
0000
0001
,
0000
1000
0100
0000
1000
0000
0000
0000
,
0001
0000
1000
0000
1001
0000
0000
1000
,
0000
0001
0100
0000
0010
0000
0000
0000
,
0100
0000
0001
0000
0010
0000
0000
0001
,
0000
0010
0001
0000
0100
0001
1000
0000
,
0010
0000
0100
0000
0110
0000
0000
0100
,
0000
0010
1000
0000
0001
0000
0000
0000
,
1000
0000
0100
0000
1100
0000
0000
0100
,
0000
1000
0010
0000
0100
0000
0000
0000
,
0001
0000
1000
0000
1001
0000
0000
0001
,
0000
0010
0100
0000
1000
0000
0100
0000
,
0010
0001
0000
0001
1000
0000
1000
0010
,
0000
0010
1000
0100
1000
0001
1000
0000
,
1001
0000
1000
0001
,
1000
0000
0000
0001
0000
0000
1000
0000
,
0000
0020
0000
0000
0130
0000
0001
0000
,
1000
0000
0000
0100
0000
0000
0200
0000
,
0000
0300
1000
0010
,
0100
0000
0000
0001
0000
0000
0100
0000
,
0000
0001
0000
0000
0010
0000
0100
0000
,
1000
0000
0000
0100
0000
0000
0200
0000
,
0000
0300
1000
0100
,
0010
0000
0000
0001
0000
0000
1000
0000
,
0000
0010
0000
0000
1000
0000
0001
0000
,
0010
0000
0000
0100
0000
0000
2000
0000
,
0000
3000
0001
0010
,
0100
0000
0000
0010
0000
0000
0001
0000
,
0000
1000
0000
0000
0100
0000
1000
0000
,
0001
0000
0000
0100
0000
0000
0001
0000
,
0101
0000
0000
0000
0001
0000
0000
1000
,
0000
0100
1000
0000
0001
0000
0000
0000
,
1000
0000
0100
0000
1100
0000
0000
0100
,
0000
1000
0001
0000
0100
0000
0000
0000
,
0010
0000
1000
0000
1010
0000
0000
0010
,
0000
1000
0001
0000
1000
0000
0000
0000
,
0001
0000
0010
0000
0011
0000
0000
0010
,
0000
0001
1000
0000
0010
0100
0001
0000
,
1000
0000
0100
0000
0010
0000
0000
0001
,
0000
1000
0001
0000
0100
0000
0000
0000
,
0010
1000
0000
0001
0010
0000
0010
0100
,
0000
0100
1000
0000
0001
1000
0001
1000
,
0001
1000
0010
0100
,
0001
0000
0000
1000
0000
0000
0200
0000
,
0000
0000
0310
0000
0001
0000
0000
1000
,
0010
0000
0100
0000
0001
1000
0000
0000
,
0100
0010
0001
1000
,
0010
0000
0000
0100
0000
0000
0002
0000
,
0000
0003
0100
0020
,
0000
1030
0002
0000
,
0003
1000
0010
0100
,
0001
0000
0000
0001
0000
0000
0200
0000
,
0000
0000
0301
0000
1000
0000
0000
0001
,
1000
0000
0100
0000
0010
0001
0000
0000
,
1000
0010
0100
0001
,
1000
0100
0000
0010
0001
0000
0010
0001
,
0000
0001
1000
0000
0010
1000
0010
1000
,
0000
0000
0001
0010
0100
0000
1000
0000
,
1100
1000
0100
0010
,
0001
0000
0000
0100
0000
0000
2000
0000
,
0000
0000
3100
0000
0010
0000
0000
1000
,
0001
0000
0010
0000
0001
1000
0000
0000
,
0001
0100
0010
1000
,
0100
0000
0000
0001
0000
0000
0200
0000
,
0000
0300
1000
0100
,
0000
0000
0010
0000
0001
0010
0001
0000
,
1000
0001
0010
0100
,
1000
0000
0000
0001
0000
0000
0200
0000
,
0000
0000
0301
0000
0010
0000
0000
0010
,
0001
0000
1000
0000
0010
1000
0000
0000
,
0001
0000
0010
0000
0001
0100
0000
0001
,
0000
0010
0000
1000
0000
0010
0001
0010
,
0000
0000
1000
0000
0010
0001
0010
0001
,
0000
0000
1000
0010
0000
0100
0000
0000
,
0001
0000
0000
0000
;

//---------------dance-single - Itsugo----------------
#NOTES:
     dance-single:
     Itsugo:
     Easy:
     5:
     0.326,0.487,0.011,0.111,0.000:
0000
0000
0000
0000
,
0000
0000
0000
0000
,
0000
0000
0000
0000
,
0000
0000
0000
0000
,
1001
0000
1000
0000
,
0001
0100
0010
0000
,
1000
0000
0001
0000
,
1000
0100
0010
0000
,
0001
0000
0010
0000
,
0001
1000
0100
0000
,
1000
0000
0001
0000
,
0100
0001
1000
1000
,
0100
0000
1000
0000
,
0001
0100
0010
0000
,
1000
0000
0100
0000
,
0010
0001
1000
0000
,
0001
0000
0100
0000
,
0010
1000
0001
0000
,
0000
0001
0000
0000
0010
0000
0000
0100
,
0000
0000
1000
0000
0000
0100
0000
0000
,
0010
0000
0001
0000
,
0100
0010
1000
0000
,
0001
0000
0010
0000
,
0100
1000
0001
0000
,
1000
0000
0100
0000
,
0010
0001
0100
0000
,
0001
0000
0010
0000
,
0100
1000
0010
0100
,
0001
0000
0010
0000
,
0001
1000
0010
0000
,
1000
0000
0001
0000
,
1000
0100
0010
0000
,
0001
0000
1000
0000
,
0010
0100
0001
0000
,
1000
0000
0100
0000
,
0010
0001
0100
0100
,
0001
0000
0001
0000
,
1000
0100
0010
0000
,
0001
0000
0100
0000
,
0010
1000
0001
0000
,
0010
0000
0100
0000
,
1000
0010
0100
0000
,
0010
0000
1000
0000
,
0001
0010
0100
0100
,
1000
0000
0001
0000
,
0100
0001
1000
0000
,
0200
0000
0300
0020
0000
0030
0002
0000
,
0003
2000
0000
3000
0001
0000
1000
0000
,
0001
0000
1000
0000
,
0010
0000
0000
0100
0000
0000
0002
0000
,
0000
0000
1003
0000
,
0100
1000
0001
0000
,
0100
0000
0001
0000
,
0010
0100
1000
0002
,
0000
0003
0000
0000
1000
0000
0000
0000
,
0100
1000
0001
0001
,
0100
0000
0010
0000
,
1000
0000
0000
0001
0000
0000
0020
0000
,
0000
0000
0130
0000
,
1000
0001
0010
0000
,
0001
0000
0100
0000
,
0010
0000
1000
0000
0001
0000
0000
1000
,
0000
0000
0100
0000
0000
0100
0000
1000
,
0000
0010
1000
0001
,
0001
0000
0010
0000
,
0100
0000
0000
1000
0000
0000
0002
0000
,
0000
0003
0100
0000
,
0010
1000
0001
0000
,
0010
0000
0100
0000
,
1000
0000
0000
0001
0000
0000
2000
0000
,
0000
3000
0100
0000
,
1000
0001
0010
0010
,
0001
0000
0100
0000
,
0010
0000
0000
1000
0000
0000
0002
0000
,
0000
0003
0010
0000
,
0100
1000
0001
0000
,
0100
0000
0010
0000
,
0100
0000
0000
0000
0001
0000
0000
1000
,
0000
0000
0100
0000
0000
0010
0000
0001
,
0000
0000
1000
0000
0000
0010
0000
0000
,
0100
0000
0000
0000
;

//---------------dance-single - Itsugo----------------
#NOTES:
     dance-single:
     Itsugo:
     Beginner:
     2:
     0.152,0.266,0.055,0.011,0.000:
0000
0000
0000
0000
,
0000
0000
0000
0000
,
0000
0000
0000
0000
,
0000
0000
0000
0000
,
0000
0000
1000
0000
,
0000
0000
0001
0000
,
0000
0000
0100
0000
,
0000
0000
0010
0000
,
0000
0000
1000
0000
,
0000
0000
0001
0000
,
0000
0000
0010
0000
,
0000
0000
0100
0000
,
0000
0000
1000
0000
,
0000
0000
0001
0000
,
0000
0000
0100
0000
,
0000
0000
0010
0000
,
0000
0000
1000
0000
,
0000
0000
0001
0000
,
0010
0000
0100
0000
,
1000
0000
0001
0000
,
1001
0000
1000
0000
,
0000
0000
0010
0000
,
0000
0000
0100
0000
,
0000
0000
0001
0000
,
0000
0000
1000
0000
,
0000
0000
0100
0000
,
0000
0000
0010
0000
,
0000
0000
0001
0000
,
0000
0000
1000
0000
,
0000
0000
0010
0000
,
0000
0000
1000
0000
,
0000
0000
0001
0000
,
0000
0000
0010
0000
,
0000
0000
0001
0000
,
0000
0000
1000
0000
,
0000
0000
0010
0000
,
0000
0000
0100
0000
,
0000
0000
0001
0000
,
0000
0000
1000
0000
,
0000
0000
0100
0000
,
0000
0000
0010
0000
,
0000
0000
0001
0000
,
0000
0000
0100
0000
,
0000
0000
0010
0000
,
0000
0000
1000
0000
,
0000
0000
0100
0000
,
0020
0000
0000
0000
,
0000
0000
0031
0001
,
1000
0000
0001
0000
,
0000
0000
0100
0000
,
0000
0000
0010
0000
,
1000
0000
0001
0000
,
1001
0000
1000
0000
,
0000
0000
0100
0000
,
0000
0000
0010
0000
,
0000
0000
0001
0000
,
0000
0000
1000
0000
,
0000
0000
0010
0000
,
0000
0000
1000
0000
,
0100
0000
0010
0000
,
0110
0000
0100
0000
,
0000
0000
1000
0000
,
0000
0000
0001
0000
,
0100
0000
0010
0000
,
0110
0000
0100
0000
,
0000
0000
0001
0000
,
0000
0000
1000
0000
,
0001
0000
0100
0000
,
0101
0000
0001
0000
,
0000
0000
1000
0000
,
0000
0000
0001
0000
,
0000
0000
0010
0000
,
0000
0000
0100
0000
,
0000
0000
1000
0000
,
0000
0000
0100
0000
,
0000
0000
1000
0000
,
0000
0000
0010
0000
,
0000
0000
0100
0000
,
0000
0000
0001
0000
,
0000
0000
1000
0000
,
0100
0000
0000
0000
;
