#TITLE:No Reason;
#SUBTITLE:ヱヴァンゲリヲン新劇場版;
#ARTIST:Sum 41;
#TITLETRANSLIT:No Reason;
#SUBTITLETRANSLIT:Evangelion Shin Gekijouban;
#ARTISTTRANSLIT:Sum 41;
#GENRE:AMV (MAD);
#CREDIT:Itsugo15;
#MENUCOLOR:;
#BANNER:No Reason-bn.jpg;
#BACKGROUND:No Reason-bg.jpg;
#LYRICSPATH:;
#CDTITLE:Itsugo15 SimifileS.png;
#MUSIC:No Reason.ogg;
#OFFSET:1.100;
#SAMPLESTART:49.064;
#SAMPLELENGTH:30.000;
#SELECTABLE:YES;
#LISTSORT:;
#BPMS:0.000=196.000;
#STOPS:;
#TICKCOUNT:0.000=6;
#BGCHANGES:0.000=No Reason.avi=1.000=0=1=0,
99999=-nosongbg-=1.000=0=0=0 // don't automatically add -songbackground-
;
#KEYSOUNDS:;
#ATTACKS:;

//---------------dance-single - Itsugo----------------
#NOTES:
     dance-single:
     Itsugo:
     Challenge:
     16:
     1.000,1.000,0.677,0.575,0.455: // measure 1
0000
0000
0000
0000
,  // measure 2
2002
0000
0000
0000
0000
0000
0000
0000
0000
0000
0000
0000
0000
0000
0000
0000
0000
0000
0000
0000
3003
M00M
0000
0000
0202
0000
0000
0000
0000
0000
0000
0000
,  // measure 3
0000
0000
0000
0000
0303
0M0M
0000
0000
2020
0000
0000
0000
0000
0000
0000
0000
0000
0000
0000
0000
3030
M0M0
0000
0000
2002
0000
0000
0000
3003
M00M
0000
0000
,  // measure 4
0110
0000
0100
0010
0100
1000
2200
0000
,  // measure 5
0000
0000
0000
0000
3300
MM00
0000
0000
0022
0000
0000
0000
0000
0000
0000
0000
0000
0000
0000
0000
0033
00MM
0000
0000
2002
0000
0000
0000
3003
M00M
0000
0000
,  // measure 6
0220
0000
0000
0000
0000
0000
0000
0000
0000
0000
0000
0000
0000
0000
0000
0000
0000
0000
0000
0000
0330
0MM0
0000
0000
2020
0000
0000
0000
0000
0000
0000
0000
,  // measure 7
0000
3030
0202
0000
0000
0303
0220
0330
,  // measure 8
1001
0000
1000
0001
1000
0100
2200
0000
,  // measure 9
0000
3300
0022
0000
0000
0033
1001
0000
,  // measure 10
0001
1000
0001
0000
0101
0000
1000
0000
,  // measure 11
0001
1000
0001
0000
0101
0000
1000
0000
,  // measure 12
0001
1000
0001
0000
0101
0000
1000
0000
,  // measure 13
1100
2200
0000
3300
0011
0022
0000
0033
,  // measure 14
1001
0000
1010
0000
0001
0100
0010
1000
,  // measure 15
1010
0000
0101
0000
1000
0100
0010
0001
,  // measure 16
0011
0000
1100
0000
0001
0010
0100
1000
,  // measure 17
1100
0000
0100
1000
0001
0000
1000
0001
0100
0000
0001
0000
0010
0000
0100
0000
,  // measure 18
1000
0001
0100
0010
1000
0100
0010
0001
,  // measure 19
1000
0010
0100
0001
1000
0100
0001
0100
,  // measure 20
1000
0001
0010
1000
0010
0001
1000
0001
,  // measure 21
0101
0000
0000
0000
1001
0000
0001
1000
0001
1000
0001
1000
0001
1000
0001
1000
,  // measure 22
0001
1000
0010
0100
0001
0010
0100
1000
,  // measure 23
0001
0100
0010
1000
0001
0010
1000
0010
,  // measure 24
0001
1000
0100
0001
0100
1000
0001
1000
,  // measure 25
0001
0100
0001
0100
0000
0010
1000
0010
1000
0000
0001
0000
1000
0001
1000
0000
,  // measure 26
1001
0001
0010
0100
1000
1000
0100
0001
,  // measure 27
0100
0010
0001
1000
0010
0010
0100
0001
,  // measure 28
0100
1000
0100
0010
1000
1000
0001
0010
,  // measure 29
0100
0000
0010
0000
0001
0000
1000
0100
0010
0000
0001
0000
0010
0000
0100
0000
,  // measure 30
1000
1000
0100
0010
0001
0001
0010
1000
,  // measure 31
0010
0100
1000
0001
0100
0100
0010
1000
,  // measure 32
0010
0001
0010
0100
0001
0001
1000
0100
,  // measure 33
0010
0110
0100
1000
1100
0001
0100
0010
,  // measure 34
0110
0100
0010
1000
0001
0010
0100
0010
,  // measure 35
0001
0100
0010
0001
0010
1000
0001
0100
,  // measure 36
1000
0001
0010
1000
0001
0010
0100
0001
,  // measure 37
1000
0010
0100
1000
0001
0100
0010
1000
,  // measure 38
1010
0010
0010
0100
0001
0001
1000
1000
,  // measure 39
0100
0010
0010
0001
0100
0010
1000
0100
,  // measure 40
0010
0000
0001
0000
1000
0010
0100
0000
0001
0000
1000
0000
0100
0010
0001
0000
,  // measure 41
0010
0100
0010
0100
0010
0100
0010
0100
0010
0001
0010
0100
1000
0100
0010
0001
,  // measure 42
0011
0001
0100
0010
1000
0001
0010
1000
,  // measure 43
0010
0100
1000
0010
0001
0010
1000
0010
,  // measure 44
0100
0001
0010
0100
1000
0010
0100
0001
,  // measure 45
1000
0001
1001
1000
1100
0001
0101
1000
,  // measure 46
1100
1000
0010
0100
0001
1000
0100
0001
,  // measure 47
0100
0010
0001
0100
1000
0100
0001
0100
,  // measure 48
0010
1000
0100
0010
0001
0100
0010
1000
,  // measure 49
0001
0000
1000
0000
0100
1000
0100
1000
0100
1000
0001
1000
0001
0100
0001
0100
,  // measure 50
0010
1000
0010
0100
0001
1000
0100
0001
,  // measure 51
0100
0010
0001
0100
1000
0100
0001
0100
,  // measure 52
0010
1000
0100
0010
0001
0100
0010
1000
,  // measure 53
0001
1000
1001
0001
0011
1000
1010
0001
,  // measure 54
0011
0001
0100
0010
1000
0001
0010
1000
,  // measure 55
0010
0100
1000
0010
0001
0010
1000
0010
,  // measure 56
0100
0001
0010
0100
1000
0010
0100
0001
,  // measure 57
1000
0000
0100
0000
0010
0001
0010
0000
0001
0000
0001
0000
1000
0000
1000
0000
,  // measure 58
1001
0001
0101
0000
0100
0010
0110
1010
,  // measure 59
1000
1000
0010
0100
0010
0010
1000
0001
,  // measure 60
1001
1000
0100
0010
0001
0010
0100
0010
,  // measure 61
0001
0100
0010
1000
0100
0010
0100
1000
,  // measure 62
0001
0100
0010
1000
0100
0010
0001
0010
,  // measure 63
0100
0000
1000
0000
0001
0000
0100
0010
1000
0000
0010
0000
0100
0000
0001
0000
,  // measure 64
1000
0001
0010
0100
1000
0100
0010
0100
,  // measure 65
1000
0001
0100
0010
1000
0010
0100
0001
,  // measure 66
0010
0100
1000
0010
0100
0010
1000
0001
,  // measure 67
0010
0000
0011
0000
0001
0000
1000
0000
1001
0000
1000
0000
1010
0000
0010
0100
,  // measure 68
0001
0010
0100
0001
1000
0010
0100
1000
,  // measure 69
0001
0100
0010
0001
1000
0100
0001
1000
,  // measure 70
0100
0010
1000
0001
0100
1000
0001
0010
,  // measure 71
0100
1000
0100
0010
0001
0010
0100
1000
,  // measure 72
1100
0100
0010
0100
1000
0001
0100
0010
,  // measure 73
0100
0001
1000
0100
0010
0001
0010
0100
,  // measure 74
1000
0000
0001
0000
0100
0010
1000
0000
0001
0000
0010
0000
0100
1000
0100
0010
,  // measure 75
0001
0010
0001
0010
0001
0010
0001
0010
0001
0010
0100
1000
0001
0100
0010
1000
,  // measure 76
1010
1000
0010
0100
0001
1000
0100
0001
,  // measure 77
0100
0010
0001
0100
1000
0100
0001
0100
,  // measure 78
0010
1000
0100
0010
0001
0100
0010
1000
,  // measure 79
0001
1000
1001
0001
0011
1000
1100
0001
,  // measure 80
0011
0001
0100
0010
1000
0001
0010
1000
,  // measure 81
0010
0100
1000
0010
0001
0010
1000
0010
,  // measure 82
0100
0001
0010
0100
1000
0010
0100
0001
,  // measure 83
1000
0000
0001
0000
0010
0001
0010
0001
0010
0001
1000
0001
1000
0010
1000
0010
,  // measure 84
0100
0001
0100
0010
1000
0001
0010
1000
,  // measure 85
0010
0100
1000
0010
0001
0010
1000
0010
,  // measure 86
0100
0001
0010
0100
1000
0010
0100
0001
,  // measure 87
1000
0001
1001
1000
1100
0001
0011
1000
,  // measure 88
1100
1000
0010
0100
0001
1000
0100
0001
,  // measure 89
0100
0010
0001
0100
1000
0100
0001
0100
,  // measure 90
0010
1000
0100
0010
0001
0100
0010
1000
,  // measure 91
0001
0000
0010
0000
0100
1000
0100
0000
1000
0000
1000
0000
0001
0000
0001
0000
,  // measure 92
2002
0000
0000
3003
0001
0000
0100
0000
0202
0000
0000
0303
1000
0000
0010
0000
,  // measure 93
2020
0000
0000
3030
1000
0000
0001
0000
2002
0000
0000
3003
0220
0000
0000
0330
,  // measure 94
2002
0000
0000
3003
0001
0000
0010
0000
0022
0000
0000
0033
1000
0000
0100
0000
,  // measure 95
2200
0000
0000
0000
0000
3300
0001
0000
0202
0000
0000
0303
0220
0000
0000
0330
,  // measure 96
2020
0000
0000
3030
1000
0000
1000
0000
2002
0000
0000
3003
0001
0000
0001
0000
,  // measure 97
0022
0000
0000
0033
0010
0000
0010
0000
0220
0000
0000
0330
2002
0000
0000
3003
,  // measure 98
0220
0000
0000
0330
0010
0000
1000
0000
2002
0000
0000
3003
0001
0000
0010
0000
,  // measure 99
0110
0000
0010
0000
0010
0000
0100
0000
2200
0000
0000
3300
0202
0000
0000
0303
,  // measure 100
0101
0100
0110
0000
0100
0010
0100
0001
,  // measure 101
0101
0001
1001
0000
0001
0010
0001
1000
,  // measure 102
1001
1000
1100
0000
0100
0010
0001
1000
,  // measure 103
1001
0202
0000
0303
1001
2200
0000
3300
,  // measure 104
1001
0000
0101
0000
1000
0010
0100
0001
,  // measure 105
0101
0000
1010
0000
0001
0010
0100
1000
,  // measure 106
1100
0000
0011
0000
1000
0100
0010
0001
,  // measure 107
0022
0000
0000
0000
0000
0033
0001
0000
2002
0000
0000
3003
1000
0000
0000
0000
,  // measure 108
2020
0000
0000
3030
1000
0000
0010
0000
0110
0000
0000
0000
0010
0000
0100
0000
,  // measure 109
2002
0000
3103
0010
2002
0000
3013
0100
,  // measure 110
2002
0000
3103
0100
0010
0010
0001
1000
,  // measure 111
0220
0000
1330
0001
0220
0000
0331
1000
,  // measure 112
0220
0000
0331
0100
0100
0010
1000
0001
,  // measure 113
2002
0000
3013
0100
0220
0000
1330
0001
,  // measure 114
2002
0000
3103
0010
0220
0000
0331
1000
,  // measure 115
2002
0000
0000
0000
3103
0000
0010
0000
0220
0000
0000
0330
0010
0000
0002
0000
,  // measure 116
1000
1000
1000
1000
1000
1000
1000
1000
,  // measure 117
1003
0001
1000
0001
1000
0001
1000
0001
1000
0001
1000
0001
1000
0001
1000
0001
,  // measure 118
1001
1000
0010
0100
0001
1000
0100
0001
,  // measure 119
0100
0010
0001
0100
1000
0100
0001
0100
,  // measure 120
0010
1000
0100
0010
0001
0100
0010
1000
,  // measure 121
0001
1000
1001
0001
1001
1000
1001
0001
,  // measure 122
1001
0001
0100
0010
1000
0001
0010
1000
,  // measure 123
0010
0100
1000
0010
0001
0010
1000
0010
,  // measure 124
0100
0001
0010
0100
1000
0010
0100
0001
,  // measure 125
1000
0000
0001
0000
0010
0001
0010
0001
0010
0001
1000
0001
1000
0010
1000
0010
,  // measure 126
0100
0001
0100
0010
1000
0001
0010
1000
,  // measure 127
0010
0100
1000
0010
0001
0010
1000
0010
,  // measure 128
0100
0001
0010
0100
1000
0010
0100
0001
,  // measure 129
1000
0001
1001
1000
1001
0001
1001
1000
,  // measure 130
1001
1000
0010
0100
0001
1000
0100
0001
,  // measure 131
0100
0010
0001
0100
1000
0100
0001
0100
,  // measure 132
0010
1000
0100
0010
0001
0100
0010
1000
,  // measure 133
0001
0000
0010
0000
0100
1000
0100
0000
1000
0000
1000
0000
0001
0100
0001
0000
,  // measure 134
1000
0000
0100
0000
0010
0100
0010
0000
0100
0000
1000
0000
0100
0010
0100
0000
,  // measure 135
1000
0000
0100
0000
0010
0100
0010
0000
0100
0000
1000
0000
0100
0010
0100
0000
,  // measure 136
1000
0000
0100
0000
0010
0100
0010
0000
1000
0000
0100
0000
0010
0100
0010
0000
,  // measure 137
1000
0000
0100
0000
0010
0100
0010
0000
0001
0010
0001
0000
1000
0010
1000
0000
,  // measure 138
0001
0000
0100
0000
0010
0100
0010
0000
0100
0000
0001
0000
0100
0010
0100
0000
,  // measure 139
0001
0000
0100
0000
0010
0100
0010
0000
0100
0000
0001
0000
0100
0010
0100
0000
,  // measure 140
0001
0000
0100
0000
0010
0100
0010
0000
0100
0000
0001
0000
0010
0100
0010
0000
,  // measure 141
0001
0000
1000
0000
0100
1000
0100
1000
0100
0000
0010
0000
0001
1000
0001
1000
,  // measure 142
0001
0100
0001
0100
0001
0100
0001
0100
0001
0100
0001
0100
0001
0100
0001
0100
,  // measure 143
0001
1000
0001
1000
0001
1000
0001
1000
0001
1000
0001
1000
0001
1000
0001
1000
,  // measure 144
0001
1000
0100
1000
0100
1000
0100
1000
0100
1000
0100
1000
0100
1000
0100
1000
,  // measure 145
0100
0010
0100
0010
0100
0010
0100
0010
0100
0010
0100
0010
0100
0010
0100
0010
,  // measure 146
0100
1000
0001
0100
0010
1000
0100
0010
0001
0100
0010
1000
0100
0010
0001
0100
,  // measure 147
0001
1000
0100
1000
0010
0100
0001
0010
0100
1000
0100
0010
0001
1000
0010
0100
,  // measure 148
0001
0100
0010
1000
0001
0010
0100
0010
0001
1000
0100
0010
0100
1000
0001
0100
,  // measure 149
0010
1000
0100
0010
0001
1000
0010
0100
0001
1000
0100
0010
0001
0100
1000
0100
,  // measure 150
0002
0000
2003
0000
,  // measure 151
3020
0000
0000
0000
0000
0000
0000
0000
0000
0000
0000
0000
0000
0000
0000
0000
0000
0000
0000
0000
0000
0000
0000
0000
0000
0000
0000
0000
0000
0000
0000
0000
0030
MMMM
MMM0
0MMM
00M0
0M00
00M0
M000
0MM0
0M00
0M00
00M0
0000
0000
0000
00MM
0000
0000
0000
0000
0000
0000
0000
0000
0000
0000
0000
0000
0000
0000
0000
0000
;
