#TITLE:My Dearest;
#SUBTITLE:ギルティクラウン;
#ARTIST:supercell performed by Koeda;
#TITLETRANSLIT:My Dearest;
#SUBTITLETRANSLIT:Guilty Crown;
#ARTISTTRANSLIT:Supercell Performed by Koeda;
#GENRE:Anime;
#CREDIT:Itsugo15;
#BANNER:My Dearest-bn.jpg;
#BACKGROUND:My Dearest-bg.jpg;
#LYRICSPATH:My Dearest.lrc;
#CDTITLE:Itsugo15 SimifileS.png;
#MUSIC:My Dearest.mp3;
#OFFSET:0.760;
#SAMPLESTART:69.050;
#SAMPLELENGTH:20.000;
#SELECTABLE:YES;
#LISTSORT:;
#DISPLAYBPM:*;
#BPMS:0.000=83.925,14.500=41.965,16.500=167.845,48.500=83.925,96.500=167.845,120.500=41.965,122.000=83.925,123.000=167.845,171.000=20.981;
#STOPS:;
#TICKCOUNT:0.000=6;
#BGCHANGES:1.500=My Dearest.avi=1.000=1=1=0,
172.500=My Dearest.avi=0.000=0=1=0,
99999=-nosongbg-=1.000=0=0=0 // don't automatically add -songbackground-
;
#KEYSOUNDS:;
#ATTACKS:;

//---------------dance-single - Itsugo----------------
#NOTES:
     dance-single:
     Itsugo:
     Beginner:
     3:
     0.210,0.206,0.096,0.075,0.000:
0000
0000
0000
0000
,
0000
0000
0000
0000
,
0000
0000
0000
0000
,
0000
0000
0000
0000
0000
1000
0000
0000
,
0000
0002
0000
0000
0000
0000
0000
0000
,
0000
1003
0000
0000
0010
0000
0000
1000
,
0000
0200
0000
0000
0000
0000
0000
0000
,
0000
0310
0000
0000
0001
0000
0000
1000
,
0000
0020
0000
0000
0000
0000
0000
0000
,
0000
0130
0000
0001
0000
0010
0000
0100
,
0000
1000
0000
0000
0000
0001
0000
0000
,
0000
1000
0000
0000
0000
0010
0000
0000
,
0000
0100
0000
0000
0000
0001
0000
0000
,
0000
0101
0000
0000
0000
0100
0000
0000
,
0000
0001
0000
0001
0000
1000
0000
1000
,
0000
0100
0000
0100
0000
0010
0000
0010
,
0000
0110
0000
0001
0000
1000
0000
0010
,
0000
0100
0000
0100
0000
0001
0000
1000
,
0000
1100
0000
0100
0000
1000
0000
0010
,
0000
0100
0000
0001
0000
0102
0000
0000
,
0000
1003
0000
0010
0000
0100
0000
0001
,
0000
1000
0000
0100
0000
0010
0000
0001
,
0000
1000
0000
0100
0000
1000
0000
0001
,
0000
0100
0000
0001
0000
2000
0000
0000
,
0000
3001
0000
0100
0000
0001
0000
0100
,
0000
0010
0000
1000
0000
0010
0000
1000
,
0000
0001
0000
0010
0000
0001
0000
0010
,
0000
0100
0000
1000
0000
0100
0000
1000
,
0000
0010
0000
0010
0100
0000
0000
0010
,
0000
1000
0000
1000
0001
0000
0000
1000
,
0000
0020
0000
0000
0030
0000
0110
0000
,
0000
0100
0000
0000
0001
0000
0000
0100
,
0000
0101
0001
1000
,
0000
1000
0000
0000
0001
0000
0000
0001
,
0000
0010
0011
0010
,
0000
0100
0000
0000
1000
0000
0000
0001
,
0000
0100
0100
0010
,
0000
0100
0000
0000
0001
0000
0000
1000
,
0000
1001
0001
0100
,
0000
0010
0000
0000
0100
0000
0000
0001
,
0000
0101
0100
0010
,
0000
1000
0000
0000
0001
0000
0000
0010
,
0000
0100
1000
0002
,
0003
0000
0000
0000
;

//---------------dance-single - Itsugo----------------
#NOTES:
     dance-single:
     Itsugo:
     Easy:
     5:
     0.372,0.482,0.117,0.352,0.203:
0000
0000
0000
0000
,
0000
0000
0000
0000
,
0000
0000
0000
0000
0000
1000
0000
0100
,
0000
0010
0000
0001
0000
1000
0000
0000
,
0000
1000
0000
0010
0000
0100
0000
0001
,
0000
0101
0000
0000
0001
0000
0000
1000
,
0000
0001
0000
1000
0000
0100
0000
0010
,
0000
0110
0000
0000
0010
0000
0000
0001
,
0000
1000
0000
0100
0000
1000
0000
0001
,
0000
1001
0000
0001
0000
0100
0000
0010
,
0000
1000
0000
0001
0100
0001
0100
0001
,
0000
1000
0000
0000
0010
0000
0000
0100
,
0000
0002
0000
0000
0000
0000
0003
0000
,
0100
0010
0200
0000
0000
0302
0000
0000
2003
0000
0000
0000
3100
0000
0010
0000
,
0100
0000
2000
0000
0000
3002
0000
0000
0000
0000
0003
0000
0000
0000
0000
0000
,
1000
0010
0200
0000
0000
0000
0302
0000
0023
0000
0000
0030
0200
0000
0000
0000
,
2300
0000
3002
0000
0103
0002
0000
0000
0000
0000
0000
0000
0003
0000
0000
0000
,
0100
0010
0100
0000
0001
0000
1000
0000
0001
0000
0100
0000
0000
0010
0000
0000
,
1000
0100
1000
0000
0001
0200
0000
0000
0000
0000
0000
0000
0000
0000
0000
0000
,
0000
0310
0100
0000
0010
0000
1000
0001
0000
0001
1000
0000
0000
1000
0000
0100
,
0010
0000
0110
0000
0010
0001
0000
0100
0000
0001
0000
0100
0000
0010
0000
1000
,
0000
1000
0001
0000
0010
0100
0000
1000
0000
0100
0000
0010
0001
0020
0000
0000
,
0130
0000
0110
0000
0100
1000
0000
0001
0000
0100
0000
1000
0000
0100
0000
0001
,
0000
0001
0100
0000
0010
1000
0000
0100
0000
0010
0000
0010
0001
0000
1000
0000
,
0010
1000
0001
0000
0000
0000
0010
0000
0100
0000
0000
0000
0110
0000
0000
0000
,
0010
0002
0000
0000
2003
0000
0000
3001
,
0010
0001
0000
0100
0010
0000
0110
0000
,
0100
0002
0000
0000
2003
0000
0000
3200
,
0000
0310
0000
0010
0000
0001
0000
0001
,
0000
0011
0000
0100
0000
1100
0000
1000
,
0000
0002
0000
0000
0003
0000
1001
0000
,
0001
0010
0000
0010
0100
0000
0100
1000
,
0000
1000
0002
0000
0203
0000
0310
0000
,
0010
1000
0000
1000
0100
0000
0100
0010
,
0000
0010
0002
0000
2003
0000
3001
0000
,
1000
0001
0000
0001
1000
0000
0010
0100
,
0000
0100
0020
0000
2030
0000
3001
0000
,
0010
0100
0000
1000
0100
0000
0010
0001
,
0000
1000
0200
0000
0320
0000
0031
0000
,
0100
0010
0000
1000
0000
0100
0000
0010
,
0000
0002
0000
0000
0013
0000
0011
0000
,
0010
0001
0000
0100
0000
0010
0000
1000
,
0200
0000
0000
0320
0000
0000
0032
0000
,
0003
0000
0000
0000
;

//---------------dance-single - Itsugo----------------
#NOTES:
     dance-single:
     Itsugo:
     Medium:
     8:
     0.491,0.527,0.139,0.512,0.288:
0000
0000
0000
0000
,
0000
0000
0000
0000
,
0000
0000
0000
0000
0000
0000
0000
0000
0000
0000
0001
0010
0100
1000
0100
0010
,
0100
1000
0100
0010
0001
0010
0100
1000
0100
0010
0001
0000
0000
0000
0000
0000
,
0000
0011
0000
0010
0000
0001
0100
0001
,
0000
2000
0000
0000
3200
0000
0000
2300
,
0000
3010
0000
0100
0000
0001
0010
0001
,
0000
2000
0000
0000
3002
0000
0000
0203
,
0000
0310
0000
1000
0000
0001
1000
0001
,
0000
0100
0000
0020
0000
2000
0030
0200
,
3000
1300
0000
0001
0100
0001
0100
0001
,
0000
1000
0010
0010
0100
0001
0010
0100
,
0000
0000
1000
0000
0001
0000
0100
0000
0001
0000
1000
0000
0020
0000
0000
0130
,
0001
1000
0100
0000
1000
0010
0000
0100
0001
0001
1000
0000
0002
0000
0023
0000
,
0230
0000
1300
0000
1000
0000
0001
1000
0001
0000
0010
0000
0100
0000
1000
0010
,
0100
0001
1000
0000
0100
0000
0001
0000
0100
0000
1000
0000
0002
0000
0000
0200
,
0003
0000
0310
0000
1000
0000
0100
0010
0000
0010
0100
0000
2000
0000
0000
0200
,
3000
0000
1300
0000
0001
0000
0100
0010
0100
0001
1000
0000
2000
0000
0000
0002
,
3000
0000
1003
0000
0010
0000
0100
0001
1000
0000
0001
0000
0020
0000
0000
0002
,
0030
0000
0103
0000
0010
0000
1000
0010
0000
1000
0001
0000
0010
0100
0000
1000
,
0100
0010
0001
0000
0100
1000
0000
0100
0000
0010
0000
0100
0000
0001
0000
0020
,
0000
0130
0010
0000
0001
0010
0000
0100
0000
1000
0200
0000
0000
0320
0000
0000
,
0032
0000
1003
0000
0001
0010
0000
1000
0000
0010
0000
0001
0000
0010
0000
0200
,
0000
1300
0100
0000
1000
0001
0000
0100
0000
0010
1000
0000
0001
0010
0100
1000
,
0100
0010
0001
0000
0010
0000
0100
0000
1000
0000
0001
0000
0010
0000
0100
0000
,
1000
0001
0010
0100
1000
0100
0010
0001
,
1000
0010
0100
0001
1000
0010
0100
0001
,
1000
0100
0010
0001
0010
0100
1000
0001
,
1000
0020
0000
0230
0000
0302
0000
2003
,
0000
3200
0000
0020
0300
0002
0030
2000
,
0003
0002
0000
0000
3003
0000
2100
0000
,
0000
3020
0000
0000
0230
0000
0000
0302
,
0000
0000
0000
0003
0101
0000
0000
0000
0110
0000
0000
0000
0010
0000
0000
0000
,
0010
1000
0000
1000
0100
0000
0100
0010
,
0000
0010
0011
0000
1100
0000
0002
0000
,
0000
2000
0000
0003
0020
0000
3000
0200
,
0000
0000
0030
0300
0110
0000
0000
0000
1001
0000
0000
0000
1000
0000
0000
0000
,
0100
1000
0000
0100
0010
0001
0000
0010
,
0100
1000
0001
0000
1001
0000
0002
0100
,
0000
0023
1000
0030
0200
0010
0000
2300
,
0001
0000
0000
3000
1001
0000
0000
0000
1001
0000
0000
0000
1000
0000
0000
0000
,
0100
0010
0000
0010
0001
0000
0001
1000
,
0000
1000
1001
0000
0110
0000
0020
0000
,
0030
0000
0000
0000
;

//---------------dance-single - Itsugo----------------
#NOTES:
     dance-single:
     Itsugo:
     Hard:
     11:
     0.704,0.848,0.491,0.373,0.549:
0000
0000
0000
0000
0000
0000
0000
0000
0000
0000
1000
0100
0010
0001
0010
0100
,
0010
0001
0010
0100
1000
0100
0010
0100
1000
0100
0010
0001
0010
0100
0010
0001
,
1000
0100
0010
0001
0010
0100
0010
0001
0010
0100
1000
0100
0010
0001
1000
0010
,
0100
0001
1000
0100
0010
0001
1000
0010
0100
0001
1000
0000
0000
0000
0000
0000
,
0000
1001
0000
0001
0000
0100
0010
0100
,
0000
0010
1000
0000
0000
0000
0100
0000
0010
0000
0001
0000
0000
0000
1000
0000
,
0000
0010
0000
0100
0000
0001
0100
0001
,
0000
1000
0100
0000
0000
0000
0010
0000
0000
0000
0001
1000
0100
0010
0001
0010
,
0100
1000
0001
0000
0000
0000
0100
0000
0000
0000
0010
0000
1000
0000
0100
0000
,
0000
0010
0001
0000
0000
0000
1000
0000
0000
0000
0001
0000
0000
0000
0100
0000
,
0000
0010
0000
1000
1010
0001
0011
1000
,
0000
0001
0100
0000
0010
0000
1000
0000
0100
1000
0100
0000
0010
0000
0001
0000
,
0000
0000
1000
0000
0010
0000
1000
0100
0010
0000
0001
0000
0200
0000
0000
0001
,
0301
1000
0200
0000
0000
0320
0000
0000
0032
0000
0000
0000
1003
0000
1001
0000
,
0100
0000
0101
0000
0001
0100
0020
0030
1000
0001
0020
0030
0200
0000
0000
1000
,
1300
0001
0100
0000
0010
1000
0010
0000
0100
0000
0001
0000
2000
0000
0000
3100
,
0010
0000
0110
0000
0010
0001
1000
0002
1003
1000
0002
0003
0200
0000
0000
0310
,
1000
0000
0001
0000
0010
0000
0000
0000
0100
0000
1000
0000
0100
0000
0000
0000
0010
0001
0000
0000
0001
1000
0000
0000
0020
0000
0000
0000
0000
0000
0100
0000
,
0130
0001
1000
0000
1000
0100
0010
0000
0001
0000
0011
0000
0020
0000
0000
0230
,
0000
0000
0000
0000
1300
0000
0000
0000
0001
0000
0100
0000
0010
0000
2000
0000
3000
0000
0000
0000
1010
0000
0000
0000
0000
0000
1000
0001
0000
0000
0010
0000
,
0100
0000
0110
0000
0010
0000
0001
1000
0010
0000
0200
0000
0000
0002
0300
0000
,
2000
0003
3100
0000
0010
0001
0000
0001
2000
0000
3020
0000
0000
0200
0030
0000
,
0301
0100
0001
0100
0001
0000
0000
0000
1000
0000
0100
0000
0000
0000
0010
0000
0000
0000
0001
0000
0022
0000
0000
0000
0033
0000
0220
0000
0000
0000
0330
0000
,
2200
0000
3300
0000
1000
0000
0000
0000
0001
0000
1000
0000
0000
0000
0010
0000
0000
0000
0100
0000
0110
0000
0010
1000
0001
0000
1000
0100
0010
0000
0001
1000
,
0100
1000
0001
0100
0001
0000
0000
0000
0100
0000
0000
0000
0001
0000
0000
0000
0100
0000
0000
0000
0001
0000
0000
0000
0100
0000
0000
0000
0001
0000
0000
0000
,
0100
0020
0130
0010
2000
3010
0100
0002
,
0103
0001
1000
0001
1000
0001
1000
0001
,
1000
0200
1300
0010
0200
0301
1000
0020
,
1030
0000
0001
0100
0001
0000
0100
0001
0100
0000
0010
1000
0010
0000
1000
0010
,
1000
0000
0001
1000
0001
0000
1000
0001
1000
0100
0010
0001
0010
0100
1000
0100
,
0010
0000
0001
0000
2000
0000
0000
0000
0000
0000
0000
0000
3000
0000
0000
0000
1000
0001
1000
0001
1000
0001
1000
0001
1000
0000
0000
0000
0100
0000
0000
0000
,
0010
0110
0100
1000
1100
0001
0100
0101
,
0001
1000
1001
0000
1001
0000
1001
0001
,
0010
0011
0001
1000
1001
0001
0100
0101
,
0100
0010
0110
0000
0110
0000
0110
0100
,
0001
0101
1000
0100
1100
1000
0010
1010
,
1000
0001
1001
0000
0011
0000
1010
1000
,
0001
1001
1000
0100
1100
1000
0010
1010
,
1000
0000
0001
0000
0010
0100
1000
0000
0100
0010
0001
0000
0011
0000
0010
0000
,
0100
0110
0100
1000
1100
1000
0001
1001
,
0001
0100
0101
0000
1100
0000
0101
0001
,
0010
0011
0010
0100
0110
0100
1000
1100
,
0100
0010
0110
0000
0011
0000
2000
0000
,
3000
0000
0000
0000
;

//---------------dance-single - Copied from Itsugo----------------
#NOTES:
     dance-single:
     Copied from Itsugo:
     Challenge:
     15:
     0.881,1.000,0.853,0.203,0.832: // measure 1
0000
0000
0000
0000
0000
0000
0000
0000
1000
0000
1010
0000
0100
0002
0003
0020
,  // measure 2
0030
2000
3000
0020
0030
0002
0000
0003
1000
0000
1100
0000
0100
2000
3000
0020
,  // measure 3
0030
0001
0000
0001
0020
0000
0000
2000
0000
0000
0002
0000
0000
0000
0000
0000
,  // measure 4
0000
0000
0000
0000
0000
3133
0000
0000
,  // measure 5
0000
0000
0110
0000
0010
0000
1000
0010
1000
0001
1000
0010
1000
0001
1000
0010
,  // measure 6
1000
0001
0010
0000
0001
0000
0001
0000
0010
0000
0001
0000
0100
0000
1000
0000
,  // measure 7
0100
0000
0001
0100
0001
1000
0001
0100
0001
1000
0001
0100
0001
1000
0001
0100
,  // measure 8
0001
1000
0100
0000
0100
0000
0010
0000
0001
0000
1000
0010
0100
0001
0100
0010
,  // measure 9
1000
0001
1000
0100
1000
0001
0100
0001
1000
0010
1000
0001
0010
0001
1000
0001
,  // measure 10
0100
0010
1000
0000
0001
0000
0010
0000
0100
1000
0100
0000
1000
0000
0010
0000
,  // measure 11
0100
0001
0100
0000
0001
0000
1000
0000
1001
0000
0000
0000
1001
0000
0000
0000
,  // measure 12
1000
0100
0010
0000
0001
0000
1000
0000
0010
0100
0001
0000
0100
0000
0010
0000
,  // measure 13
1000
0000
1001
0000
0010
0000
0001
0010
0001
0000
0100
0000
1001
0000
0000
1001
,  // measure 14
0000
0000
1001
0000
1000
0000
0100
0110
0010
0000
0011
0000
1001
0000
0000
1001
,  // measure 15
0000
0000
0000
0000
1001
0000
0000
0000
1000
0000
0100
0000
0010
0000
0001
0000
0010
0000
0100
1000
0001
0000
0000
0000
1001
0000
0000
0000
0000
0000
1001
0000
,  // measure 16
0000
0000
1001
0000
0001
1000
0100
0010
0001
0000
1000
0000
1001
0000
0000
1001
,  // measure 17
0000
0000
1001
0000
0001
0100
0010
1010
0100
0000
0101
0000
1001
0000
0000
1001
,  // measure 18
0000
0000
0000
0000
1001
0000
0000
0000
0001
0000
0100
0000
0010
0000
1000
0000
0100
0010
0000
0000
0001
1000
0000
0000
1001
0000
0000
0000
0000
0000
1001
0000
,  // measure 19
0000
0000
1001
0000
0001
0100
0001
0010
0100
1000
1100
0000
1001
0000
0000
1001
,  // measure 20
0000
0000
1001
0000
0001
0010
0001
1001
1000
0000
1100
0000
0100
0110
0000
0001
,  // measure 21
0011
0000
0000
0000
1001
0000
1000
0010
1000
0000
0001
0100
0001
0000
0010
0001
0010
0000
0100
1000
0100
0000
1000
0001
0100
0000
0001
1000
0100
0000
1000
0001
,  // measure 22
0010
0000
0001
1000
0010
0000
0100
0001
1000
0000
0100
0010
0001
0000
1000
0010
0100
0000
0001
1000
0100
0000
0010
0100
1000
0000
0001
0100
0010
0000
1000
0001
,  // measure 23
0010
0100
1000
0100
0010
0000
0001
0010
0001
0000
1000
0100
1000
0000
0010
1000
0010
0000
0100
0001
0100
0000
0001
1000
0100
0000
1000
0001
0100
0000
0001
1000
,  // measure 24
0010
0000
1000
0001
0010
0000
0100
1000
0001
0000
0100
0010
1000
0000
0001
0010
0100
0000
1000
0001
0100
0000
0101
0000
0001
0000
1000
0000
0100
0000
1100
0000
,  // measure 25
1000
0002
0100
0000
0100
0000
0100
0000
0100
0000
0100
0000
0100
0000
0100
0000
,  // measure 26
0103
0120
0100
0130
2100
0100
3100
0120
,  // measure 27
0130
2010
0010
0010
0010
0010
0010
0010
,  // measure 28
3010
0210
0010
0310
0012
0010
0013
0110
,  // measure 29
0100
0000
0001
0100
0001
0100
0001
1000
0001
1000
0001
0010
0001
0010
0001
1000
,  // measure 30
0001
1000
0001
0100
0001
0100
0001
1000
0001
1000
0001
0010
0100
1000
0100
0010
,  // measure 31
0001
0000
0010
0000
0200
0000
0000
0000
0300
0000
0000
0000
0000
0000
0000
0000
1000
0100
1000
0100
1000
0100
1000
0100
1001
0000
0000
0000
0001
0000
0000
0000
,  // measure 32
0010
0011
1000
0100
1100
0001
0010
0011
,  // measure 33
1000
0001
1101
0100
1101
0100
1101
1000
,  // measure 34
0100
1100
0001
0010
0011
1000
0100
1100
,  // measure 35
0001
1000
1011
0100
1011
0100
1011
0001
,  // measure 36
1000
1001
0100
0010
0110
0100
0001
0101
,  // measure 37
0100
0100
0111
0100
1110
0100
0111
0100
,  // measure 38
0001
0101
0100
0010
0110
0100
0001
0101
,  // measure 39
0001
0000
0000
0000
1000
0000
0000
0000
0100
0010
0001
0000
0010
0000
0100
0000
1000
0001
1000
0000
0001
0000
0000
0000
1101
0000
0000
0000
0001
0000
0000
0000
,  // measure 40
0100
0111
0010
1000
1110
0010
0100
0111
,  // measure 41
0001
1000
1111
0010
1111
0100
1111
1000
,  // measure 42
0100
1110
0010
0001
0111
0100
1000
1110
,  // measure 43
0100
0001
1101
1000
1100
0001
0200
0000
,  // measure 44
0300
0000
0000
0000
;
