#TITLE:気になるあいつは怪獣少年;
#SUBTITLE:触媒ファントムガール さん;
#ARTIST:触媒ファントムガール さん feat. GUMI;
#TITLETRANSLIT:My Crush Was A Monster Boy;
#SUBTITLETRANSLIT:Shokubai Phantom Girl;
#ARTISTTRANSLIT:Shokubai Phantom Girl Feat. Gumi;
#GENRE:Otaku's Dream 3rd Mix (Pad);
#CREDIT:Th!nkPi, bombastik & Itsugo15;
#BANNER:My Crush Was A Monster Boy-bn.jpg;
#BACKGROUND:My Crush Was A Monster Boy-bg.jpg;
#LYRICSPATH:My Crush Was A Monster Boy.lrc;
#CDTITLE:Collab.png;
#MUSIC:My Crush Was A Monster Boy.mp3;
#OFFSET:-1.440;
#SAMPLESTART:44.960;
#SAMPLELENGTH:30.000;
#SELECTABLE:YES;
#LISTSORT:;
#BPMS:0.000=92.500,15.000=185.000;
#STOPS:15.000=0.324
;
#TICKCOUNT:0.000=6;
#BGCHANGES:-1.000=My Crush Was A Monster Boy-VD1.avi=1.000=1=1=1,
205.000=My Crush Was A Monster Boy-VD2.avi=1.000=1=1=0,
99999=-nosongbg-=1.000=0=0=0 // don't automatically add -songbackground-
;
#KEYSOUNDS:;
#ATTACKS:;

//---------------dance-single - Th!nkPi----------------
#NOTES:
     dance-single:
     Th!nkPi:
     Beginner:
     2:
     0.247,0.305,0.000,0.000,0.000:
1000
1000
0001
0001
,
1000
1000
0001
0001
,
0100
0100
0010
0010
,
0100
0100
0010
0000
,
1000
0000
1000
0000
,
0001
0001
0001
0000
,
0100
0000
0100
0000
,
0010
0010
0010
0000
,
1000
0000
1000
0000
,
0001
0001
0001
0000
,
0010
0000
0010
0000
,
0100
0100
0100
0100
,
0100
0000
1000
0000
,
0100
0000
0010
0000
,
0001
0000
0001
0000
,
1000
1000
0010
0010
,
0100
0000
0100
0000
,
0001
0000
1000
0000
,
0010
0000
0010
0000
,
1000
0000
0100
0000
,
0010
0000
0010
0000
,
0001
0000
0001
0000
,
1000
0000
1000
0000
,
0010
0010
0010
0010
,
0010
0000
0100
0000
,
0001
0000
1000
0000
,
0100
0000
0100
0000
,
0010
0000
0001
0000
,
1000
1000
1000
0000
,
0001
0001
0001
0000
,
1000
1000
1000
0000
,
0010
0010
0010
0000
,
0100
0100
0100
0000
,
0001
0001
0001
0000
,
0100
0100
0100
0000
,
0001
0000
1000
0000
,
0100
0000
0010
0000
,
0000
0001
0001
0000
,
0010
0000
0100
0000
,
0000
1000
1000
0000
,
0010
0000
0100
0000
,
0000
0001
0001
0000
,
0100
0000
0010
0000
,
0000
1000
1000
0000
,
0001
1000
0001
0000
,
0000
1000
1000
0000
,
0001
0000
0100
0000
,
0010
0000
1000
0000
,
0001
1000
0001
1000
,
0000
0010
0010
0000
,
1000
0000
0100
0000
,
0010
0000
0001
0000
,
0010
0010
0010
0000
,
0100
0100
0100
0000
,
1000
1000
1000
0000
,
0001
0000
0001
0000
,
0100
0100
0100
0000
,
0010
0010
0010
0000
,
1000
1000
1000
0000
,
0001
0000
1000
0000
,
0010
0000
0100
0000
;

//---------------dance-single - Th!nkPi----------------
#NOTES:
     dance-single:
     Th!nkPi:
     Easy:
     4:
     0.388,0.443,0.258,0.067,0.000:
1000
0001
0100
0000
0001
0001
1000
0001
,
0010
0001
1000
0000
0010
0000
0100
0000
,
0001
1000
0010
0000
0100
0001
1000
0100
,
0010
0010
0001
1000
,
0001
0100
0020
0030
,
1000
0001
0010
0100
,
1000
0100
0010
0001
,
0001
1000
0001
0010
,
0100
1000
0002
0003
,
1000
0010
1000
0001
,
0100
0010
1000
0001
,
0001
1000
0001
1000
,
0100
0000
1100
0000
,
0100
1000
0001
0100
,
0010
0000
0110
0000
,
0010
0100
0001
1000
,
0001
0000
1001
0000
,
1000
0010
0100
0001
,
0010
0010
0100
1000
,
0001
0100
0001
0010
,
0100
0000
1001
0000
,
0001
1000
0010
0100
,
0001
0001
1000
0001
,
0010
0100
1000
0100
,
0010
0010
0001
0000
,
1100
0000
0100
0010
,
0100
1000
0001
0100
,
0010
1000
2020
3030
,
1000
0000
0000
0100
0000
0000
0001
0000
,
0001
0000
0000
0100
0000
0000
1000
0000
,
0010
0000
0000
0100
0000
0000
0001
0000
,
1000
0000
1001
0000
,
0001
0000
0000
0100
0000
0000
1000
0000
,
1000
0000
0000
0100
0000
0000
0001
0000
,
0010
0010
0100
0100
,
1000
0001
0010
0100
,
1000
0000
0100
0000
1000
0000
0000
0001
,
0000
1001
1001
0000
,
1000
0000
0010
0000
0100
0000
0000
0001
,
0000
0101
0101
0000
,
1000
0000
0001
0000
0010
0000
0000
0100
,
0000
0110
0110
0000
,
1000
0000
0010
0000
1000
0000
0000
0100
,
0000
1100
1100
0000
,
0100
0010
0100
0010
,
0000
1001
1001
0000
,
1000
0000
0001
0000
1000
0000
0000
0010
,
0000
1010
1010
0000
,
0010
0000
0100
0000
0001
0000
0000
0010
,
0000
0011
0011
0000
,
0010
0000
0100
0000
1000
0000
0000
0001
,
0000
0101
0101
0000
,
0100
0010
2000
3000
,
0010
0010
1000
0001
,
1000
0100
0010
0001
,
0001
0010
0100
1000
,
0001
0100
0020
0030
,
0100
0010
0010
1000
,
0001
0010
0001
0100
,
0010
1000
0010
1000
,
0001
1000
0100
0001
;

//---------------dance-single - Th!nkPi----------------
#NOTES:
     dance-single:
     Th!nkPi:
     Medium:
     6:
     0.598,0.718,0.213,0.247,0.067:
1000
0010
1000
0000
0001
0000
0000
1000
0100
1000
0100
0000
0100
0000
0010
0000
,
0001
0010
0001
0000
1000
0000
0010
0100
0000
0100
0010
0000
1000
0000
0001
0000
,
1000
0100
1000
0000
0001
0000
0000
1000
0010
1000
0010
0000
0010
0000
0100
0000
,
0001
0100
0001
0000
1000
0000
0001
1000
0000
1000
0001
0000
0000
0000
0000
0000
,
1000
0010
1000
0010
1000
0000
0010
0000
,
0100
0001
0100
0000
0001
0000
1000
0000
,
0100
0010
0100
0010
0100
0000
0010
0001
,
0000
0001
0010
0000
0100
0000
0100
0000
,
1000
0100
1000
0100
1000
0000
0100
0000
,
0010
0001
0010
0000
0001
0000
1000
0000
,
0010
1000
0010
1000
0010
0000
0100
0001
,
0100
0001
0100
0000
0101
0000
0101
0000
,
0001
1000
0100
0000
0010
0000
0001
0000
,
1000
0010
0100
0000
0001
0000
1000
0000
,
0100
0010
0000
0100
1000
0000
0100
0000
,
0010
0010
0001
0001
,
1000
0010
0100
0000
0001
0000
1000
0100
,
0010
0010
0001
0100
,
0010
0100
0010
0000
1000
0000
0001
1000
,
0100
0010
0002
0003
,
1000
0001
1000
0001
0100
0000
0010
0000
,
1010
0110
0101
1001
,
1000
0001
1000
0000
1000
0000
0001
0010
,
0100
1100
0110
0011
,
0001
0010
0100
0000
1000
0100
0010
0000
,
0001
0010
0001
0010
0001
0000
1000
0000
,
0100
0010
0000
0000
1001
0000
0001
0100
,
0010
1000
0100
0010
,
0001
1000
0001
0100
0000
0100
0010
0000
,
1000
0010
1000
0001
0000
0001
0100
0000
,
0010
0000
0010
1000
0000
1000
0100
0010
,
0001
0000
0001
0010
0002
0000
0003
0000
,
1000
0000
1000
0001
0000
0001
0100
0000
,
0010
0000
0010
1000
0000
1000
0001
0000
,
0010
0100
0010
0100
0000
0100
2000
0000
,
3010
0010
0000
0100
0020
0000
1030
0000
,
0001
0000
0101
0000
0200
0000
0310
1000
,
0000
1000
0200
0000
0310
0000
0001
0000
,
1000
0000
1100
0000
0200
0000
0310
0002
,
0000
1003
0010
0100
0020
0000
1030
0000
,
0100
0000
0110
0000
0020
0000
0031
0020
,
0000
0130
1000
0000
0020
0000
0130
0000
,
0001
0000
1001
0000
2000
0000
3001
0020
,
0000
0130
1000
0100
0010
0000
0001
0000
,
1000
0000
1000
0010
0200
0000
0302
0000
,
0003
1100
0101
0000
,
0001
0000
1000
0100
0010
0000
0001
0010
,
0000
0010
0100
1000
0002
0000
0003
0000
,
1000
0000
0010
0000
0100
0000
0100
0002
,
0000
0003
0101
0000
0011
0000
0010
0000
,
0100
0000
1100
0000
2000
0000
3010
0200
,
0000
0310
1000
0001
0020
0000
0130
0000
,
0100
0010
0001
0010
0100
0000
1000
0000
,
0001
1000
0001
0000
0100
0000
0010
0000
,
1000
0010
0100
0001
0100
0000
0010
0000
,
1000
0001
1000
0000
0001
1000
0100
0000
,
0010
0001
0010
0100
1000
0000
0100
0000
,
1000
0001
0100
0000
0010
0000
1000
0000
,
0010
0100
0001
0100
0010
0000
1000
0001
,
1000
0001
0100
0010
0100
0000
0010
0000
,
0100
0010
1000
0001
0010
0100
2000
0000
,
3000
0000
0000
0000
;

//---------------dance-single - Th!nkPi----------------
#NOTES:
     dance-single:
     Th!nkPi:
     Hard:
     8:
     0.792,0.958,0.168,0.381,0.224:
0001
1000
0001
1000
0100
0010
0000
0001
1000
0001
1000
0010
0100
0000
0001
0000
,
1000
0001
1000
0001
0010
0100
1000
0100
0000
0100
0010
0001
0010
0100
1000
0000
,
0001
1000
0001
1000
0010
0100
0000
0001
1000
0001
1000
0001
0010
0000
0100
0000
,
1000
0001
1000
0001
1000
0010
0000
0010
0100
0001
1000
0000
0000
0000
0000
0000
,
0001
0100
0001
1000
0100
0010
0001
1000
,
0010
1000
0010
0100
0001
0100
0020
0000
,
1030
0001
1000
0100
0010
0100
1000
0100
,
0010
0001
0010
0001
1000
0001
0200
0000
,
0310
1000
0010
0100
0001
0100
0001
1000
,
0100
0010
0001
0010
0100
1000
0002
0000
,
1003
0010
0100
0010
1000
0001
1000
0100
,
0010
0000
0100
0000
0010
0000
0001
0000
1000
0100
0010
0001
2000
0000
0000
0000
,
3010
1000
0010
0100
0001
1000
0001
0010
,
0100
1000
0100
0010
0002
0000
2003
0000
,
3010
0010
0000
0100
0001
1000
0010
1000
,
0002
0023
0230
2300
,
3001
0000
0001
0000
0100
0000
0001
0100
0001
0000
0100
0001
0100
0000
0010
0000
,
1000
0001
1000
0100
1000
0010
0100
0000
,
0001
1000
0100
1000
1000
0100
0010
0001
,
0200
0000
0320
0000
2030
0000
3100
0100
,
0010
0001
0010
0100
1000
0001
0010
0000
,
1001
0101
1001
1010
,
1000
0010
0100
0000
0101
0000
0001
1000
,
0200
0320
0032
2003
,
3010
0100
0001
1000
0100
0010
0001
0000
,
0010
0100
0010
0001
0100
0000
0101
0000
,
0100
2000
0000
3100
0001
0000
1000
0100
,
0010
0000
0000
0000
0010
0000
0000
0000
0001
0000
0001
0000
0010
0001
0010
0001
,
0010
0100
1000
0020
0000
0130
0001
0000
,
0010
0001
0100
0020
0000
1030
0100
0000
,
0010
0001
1000
0020
0000
0130
0001
0100
,
0010
1000
0010
1000
0001
0000
1001
0000
,
2000
0000
3100
0002
0000
0103
1000
0000
,
1002
0000
0103
2000
0000
3100
0001
0000
,
1000
0001
0100
0020
0000
1030
0001
0001
,
0010
0000
0001
0000
0100
0000
0010
1000
0010
0000
0100
0000
0001
0000
1000
0001
,
1000
0100
0010
0100
1000
0001
0100
0010
,
0000
0010
0100
0001
0010
0000
1000
0000
,
0010
0001
0100
0001
0010
0100
0010
0001
,
0000
0001
0100
0010
1000
0000
0110
0000
,
0001
0100
0010
1000
0010
0100
0001
1000
,
0000
1000
0001
1000
0010
0000
0001
0000
,
0010
1000
0001
0010
0001
1000
0100
0010
,
0000
0000
0010
0000
0001
0000
1000
0000
0100
1000
0100
1000
0100
0000
0010
0000
,
0001
0010
1000
0010
0001
0010
2000
0000
,
3000
1010
2010
3010
,
0001
0100
0001
1000
0010
0100
0001
0010
,
0000
0010
0100
1000
0001
0100
0010
0100
,
0001
0100
1000
0100
0001
0100
2000
0000
,
3000
1100
2100
3100
,
0110
0000
0110
0000
0010
1000
0100
0010
,
0000
0000
0010
0000
0001
0000
0010
0000
0100
0010
0100
0010
0100
0010
0100
0010
,
0100
1000
0100
0010
0001
1000
0001
0100
,
0010
1000
0010
1000
0001
0010
0200
0000
,
1300
0001
1000
0010
0100
0010
1000
0001
,
0010
0100
1000
0100
1000
0001
0020
0000
,
0130
1000
0100
0010
0001
1000
0001
0100
,
0010
1000
0001
0010
0100
0010
0002
0000
,
1003
0010
0100
0001
1000
0010
1000
0001
,
0010
0000
0100
0000
1000
0100
0010
0001
1000
0000
0100
0000
0100
0000
0001
0000
,
0100
1000
0100
0001
0100
1000
0020
0000
,
0030
0000
0000
0000
;

//---------------dance-single - Itsugo----------------
#NOTES:
     dance-single:
     Itsugo:
     Challenge:
     10:
     0.947,0.992,0.202,0.639,0.320:
1000
0001
1000
0001
0100
0001
0000
0100
0001
1000
0100
1000
0010
0000
1010
0000
,
0001
0100
0010
0100
0001
0100
0010
1000
0000
0010
0100
0001
0010
0100
1000
0000
,
0100
1000
0100
1000
0001
0100
0000
0001
0100
0010
1000
0001
0010
0000
0011
0000
,
0001
0010
0100
0010
0001
1000
0001
0100
0000
0010
1000
0001
0010
0000
00MM
0000
,
1000
0100
0010
0010
0100
1000
0001
0100
,
0000
0010
0001
0010
1000
0000
1010
0000
,
1000
0100
0010
0010
0010
0001
0001
1000
,
0000
0001
1000
0100
0010
0001
0010
0000
,
0001
0010
0100
0100
0010
0001
1000
0010
,
0000
0100
1000
0100
0010
0000
1010
0000
,
0001
0010
0010
0100
0100
1000
1000
0001
,
0000
1000
0001
0010
0100
1000
0100
0010
,
0001
0010
0001
0010
0001
1000
0001
1000
,
0010
0100
0010
1000
0100
0010
0001
0010
,
0100
1000
0100
1000
0100
1000
0001
1000
,
0002
0103
0020
1030
0200
0310
2000
3010
,
0001
0010
0001
1000
0001
0100
0010
1000
,
0001
0010
0100
0010
0001
1000
0010
0100
,
0001
0100
0001
0100
0001
1000
0100
0010
,
0200
1300
0002
0103
0020
0130
2000
3100
,
0001
0100
0020
0130
0001
0100
0020
0130
,
0002
1003
0020
1030
0200
0310
2000
3010
,
0002
1003
0010
1000
0002
1003
0010
1000
,
0002
0013
2000
3010
0200
1300
0020
0130
,
0001
0100
0020
0130
0001
0100
0020
0130
,
0002
0103
0020
1030
0200
0301
2000
3010
,
0100
1000
0002
1003
0100
1000
0002
1003
,
0100
0010
0001
1000
0100
0010
0001
0010
,
0100
1000
0100
1000
0100
0000
1000
0000
1100
0000
0010
0000
0001
0000
1000
0000
,
0001
0100
0001
0100
0001
0000
0100
0000
0101
0000
0010
0000
1000
0000
0001
0000
,
0010
0100
1000
0100
0010
0000
0001
0000
0011
0000
0010
0000
0100
0000
1000
0000
,
0100
0001
0100
1000
0010
0001
0010
1000
,
0001
0100
0001
0100
0001
0000
1000
0000
1001
0000
0001
0000
0010
0000
0100
0000
,
1000
0100
1000
0100
1000
0000
0001
0000
1001
0000
1000
0000
0010
0000
0100
0000
,
0001
0100
1000
0100
0001
0010
1000
0010
,
0001
0001
0010
0010
0100
0100
1000
1000
,
0001
0000
1000
0000
0010
1000
0010
0000
0100
0000
0001
0000
1000
0001
1000
0000
,
0100
0000
0010
0000
0001
0010
0001
0000
1000
0001
1000
0000
0010
1000
0010
0000
,
0100
0000
0001
0000
0010
0001
0010
0000
0100
0000
1000
0000
0001
1000
0001
0000
,
0100
0000
0010
0000
1000
0100
1000
0010
0100
0001
0010
0100
1000
0000
0001
0000
,
1001
0000
1000
0000
0100
1000
0001
0000
0100
0000
0010
0000
1000
0001
0010
0000
,
0100
0000
1000
0000
0010
0100
0001
0000
1000
0100
0010
0000
0001
0010
0100
0000
,
1000
0000
0001
0000
0100
0001
0100
0000
0001
0000
1000
0000
0100
1000
0100
0000
,
0010
0000
0001
0000
1000
0010
0100
0001
0100
0010
1000
0001
0010
0000
0100
0000
,
1000
2000
3100
0200
0310
0020
0031
1000
,
2010
3000
0012
0003
2002
3003
1000
0010
,
0100
0002
1003
0020
1030
0200
0310
2000
,
3010
0100
1000
0100
0010
0001
1000
0010
,
0100
0002
0013
0020
0130
0200
1300
0001
,
0102
0003
2100
3000
2002
3003
0001
0100
,
0010
2000
3001
0200
0301
0020
0130
0002
,
0103
1000
0100
0001
0100
1000
0001
0100
,
0001
0010
0100
0100
0010
0001
1000
0010
,
0000
0100
1000
0100
0001
0000
0101
0000
,
0001
0010
0100
0100
0100
1000
1000
0001
,
0000
1000
0001
0010
0100
1000
0100
0000
,
1000
0100
0010
0010
0100
1000
0001
0100
,
0000
0010
0001
0010
0100
0000
0101
0000
,
1000
0100
0100
0010
0010
0001
0001
1000
,
1000
0010
0010
0001
0001
0010
0010
1000
,
2000
3200
0302
0203
2300
3002
0203
0000
,
0300
0000
0000
0000
;

//---------------dance-single - KB bombastik----------------
#NOTES:
     dance-single:
     KB bombastik:
     Edit:
     11:
     1.000,1.000,1.000,1.000,0.404: // measure 1
1100
0010
0001
0100
1010
0002
0000
0103
1010
0001
0100
0100
0011
1000
2000
0000
,  // measure 2
3101
0010
1000
0100
0011
1000
0010
0100
1001
0110
1001
0110
1001
0110
2002
0000
,  // measure 3
3113
0000
1000
0000
0010
0000
0100
0000
1010
0000
0002
0000
0000
0000
0013
0000
1100
0000
0001
0000
0100
0000
0010
0000
2100
0000
0000
0000
0002
0000
0000
0003
,  // measure 4
3011
0100
1000
0010
0101
2000
0000
3100
0011
0100
0001
1000
MMMM
MMM0
MM00
M000
,  // measure 5
0111
1000
0110
0001
0110
2002
3003
0100
,  // measure 6
0011
0110
1001
1100
0110
1001
0220
0330
,  // measure 7
1110
0001
1010
0100
0012
0203
2310
3002
,  // measure 8
0003
1010
0101
1010
0110
1100
0022
0033
,  // measure 9
0111
0110
1001
0100
0011
0022
0033
0100
,  // measure 10
1010
0001
1100
0010
0102
0000
0123
0000
,  // measure 11
1131
0010
1010
1000
1001
0001
0110
1100
,  // measure 12
0222
0333
0000
0000
0000
0000
1000
0000
0000
0000
0000
0000
0110
0000
0000
0000
0000
0000
0100
0000
0000
0010
0000
0000
1100
0000
0000
0000
0000
0000
0010
0000
0000
0000
0000
0000
0011
0000
0000
0000
0000
0000
0100
0000
0000
0000
0000
0000
,  // measure 13
1100
0110
0011
0110
1001
1100
0011
0100
,  // measure 14
2002
0000
0000
0000
3113
0000
0000
0000
2002
0000
0000
0000
3113
0000
0000
0000
2002
0000
0000
0000
0000
0000
0000
3003
1001
0000
M00M
0000
0MM0
0000
M00M
0000
,  // measure 15
11M1
0110
0011
1100
0110
1001
1010
0101
,  // measure 16
2110
0000
0001
3100
1010
0000
0000
0000
0112
0000
1000
0103
1001
0MM0
M00M
0MM0
,  // measure 17
M111
1100
0012
0M10
2103
0010
3110
0001
,  // measure 18
0110
0000
1001
0000
0101
0000
1010
0000
0110
0000
1100
0000
1002
00M0
MM03
MMM0
,  // measure 19
0111
1100
0120
0001
2130
0010
3101
0010
,  // measure 20
2202
3303
0000
0000
0000
0000
0010
0000
0000
0000
0000
0000
0101
0000
0000
0000
0000
0000
1000
0000
0000
0000
0000
0000
0011
0000
0000
0000
0000
0000
0100
0000
0000
0000
0000
0000
1010
0000
0000
0000
0000
0000
0101
0000
0000
0000
0000
0000
,  // measure 21
1110
0000
0011
0000
1101
0000
1010
0000
0111
0000
0110
0000
2110
000M
30MM
0MMM
,  // measure 22
1102
0000
0010
0003
2100
0000
0001
3000
0120
0000
1000
0030
0202
0000
0000
0303
,  // measure 23
1110
0101
0210
1000
0312
1000
0113
1001
,  // measure 24
2200
0000
0000
3300
0220
0000
0000
0330
2002
0000
0000
3003
0022
0M00
0M00
0M33
,  // measure 25
1110
0000
0101
0000
0110
0000
1010
0000
0011
0000
0110
0000
2100
0000
0000
3000
,  // measure 26
0101
0000
1010
0000
0101
0000
1010
0000
0220
0000
0001
0330
2002
0000
0000
3003
,  // measure 27
0101
1000
0110
0000
0001
0000
1100
0101
,  // measure 28
2220
0330
0000
0000
0000
0000
0000
0000
0000
0000
3000
0000
0012
0000
0000
0000
0000
0000
0000
0000
0000
0000
0003
0000
0210
0000
0000
0000
0000
0000
0011
0000
0000
0000
0000
0000
1310
0000
0000
0000
0000
0000
0100
0000
0000
0010
0000
0000
,  // measure 29
1101
0110
0001
0002
0000
0103
1001
0000
,  // measure 30
0222
0333
0000
0000
0000
0000
0110
0000
0000
0000
0000
0000
1000
0000
0000
0000
0000
0000
2000
0000
0000
0000
0000
0000
0000
0000
0000
0000
0000
0000
3010
0000
0000
0000
0000
0000
1001
0000
0000
0000
0000
0000
0000
0000
0000
0000
0000
0000
,  // measure 31
2202
0303
0000
0000
0000
0000
0000
0000
0000
0000
0000
0000
3110
0000
0000
0000
0000
0000
1020
0000
0000
0000
0000
0000
0000
0000
0000
0000
0000
0000
0031
0000
0000
0000
0000
0000
1100
0000
0000
0000
0000
0000
0010
0000
0000
0000
0000
0000
,  // measure 32
0111
1000
0101
1010
0102
1000
0010
0103
,  // measure 33
2110
0000
3110
0002
0000
0103
1001
0000
,  // measure 34
2202
3003
0000
0000
0000
0000
0000
0000
0000
0000
0000
0000
0311
0000
0000
0000
0000
0000
2000
0000
0000
0000
0000
0000
0000
0000
0000
0000
0000
0000
3001
0000
0000
0000
0000
0000
1100
0000
0000
0000
0000
0000
0000
0000
0000
0000
0000
0000
,  // measure 35
0222
0333
0000
0000
0000
0000
1000
0000
0000
0000
0000
0000
0110
0000
0000
0000
0000
0000
0002
0000
0000
0000
0000
0000
0000
0000
0000
0000
0000
0000
0103
0000
0000
0000
0000
0000
0011
0000
0000
0000
0000
0000
0100
0000
0000
0000
0000
0000
,  // measure 36
1011
0110
1110
0011
0111
1000
0110
0001
,  // measure 37
1110
0000
0100
0010
1001
0000
0100
0000
0011
0000
0100
0001
1010
0000
0100
0000
,  // measure 38
0011
0000
0100
1000
0110
0000
0001
0000
2100
0000
0011
0000
3011
0000
0000
0000
,  // measure 39
0110
0000
0001
0100
1010
0000
0001
0000
0110
0000
0001
0100
1010
0000
0001
0000
,  // measure 40
0110
0000
1000
0100
1001
0000
0010
0000
2100
0000
0011
0000
3011
0000
0000
0000
,  // measure 41
2202
3303
0000
0000
0000
0000
0010
0000
0000
0100
0000
0000
0011
0000
0000
0000
0000
0000
0100
0000
0000
0000
0000
0000
1010
0000
0000
0000
0000
0000
0100
0000
0000
0010
0000
0000
1100
0000
0000
0000
0000
0000
0001
0000
0000
0000
0000
0000
,  // measure 42
1010
0000
0100
0010
1100
0000
0001
0000
2100
0000
0011
0000
3011
0000
0000
0000
,  // measure 43
0110
0000
1000
0001
0110
0000
1000
0000
0101
0000
0010
0100
1001
0000
0110
0000
,  // measure 44
2202
3303
0000
0000
0000
0000
0010
0000
0000
0000
0000
0000
1010
0000
0000
0000
0000
0000
0100
0000
0000
0010
0000
0000
1001
0000
0000
0000
0000
0000
0010
0000
0000
0100
0000
0000
1001
0000
0000
0000
0000
0000
0110
0000
0000
1000
0000
0000
,  // measure 45
0111
0000
0100
0000
1001
0000
0110
0000
0011
0000
0100
0000
2010
0000
0100
3000
,  // measure 46
0022
0000
1000
0033
0220
0000
0001
0330
2002
0000
0100
3003
1110
0000
0001
0000
,  // measure 47
0110
0000
0001
0100
1010
0000
0100
0000
0011
0000
0100
1000
0011
0000
2000
0000
,  // measure 48
0110
0000
3011
0000
1001
0000
1100
0000
0012
0000
1100
0000
1010
0003
0101
0000
,  // measure 49
2220
3330
0000
0000
0000
0000
0001
0000
0000
0100
0000
0000
1010
0000
0000
0000
0000
0000
0001
0000
0000
0000
0000
0000
0110
0000
0000
0000
0000
0000
1000
0000
0000
0100
0000
0000
1010
0000
0000
0000
0000
0000
0001
0000
0000
0000
0000
0000
,  // measure 50
0110
0000
1000
0001
0110
0000
1000
0000
0002
0000
1100
0000
1103
0000
0010
0000
,  // measure 51
1101
0000
0010
0100
0011
0000
1000
0000
0101
0000
0010
0100
1001
0000
0010
0000
,  // measure 52
1100
0010
0100
0001
1100
0010
0001
0100
2010
0001
0100
0010
0001
0100
3010
0001
,  // measure 53
1110
0110
1011
1100
1001
0110
1110
0011
,  // measure 54
1100
0000
0110
0000
0111
0000
1010
0000
0101
0000
1010
0000
2102
0000
0000
3003
,  // measure 55
0110
1010
1011
0110
1010
0101
1110
0110
,  // measure 56
0011
0000
1010
0000
0111
0000
0110
0000
1100
0000
0101
0000
2120
0000
0000
3030
,  // measure 57
0011
0110
1110
0011
1100
0101
0111
1100
,  // measure 58
0110
0000
1001
0000
1110
0000
0110
0000
0101
0000
1010
0000
0122
0000
0000
0033
,  // measure 59
0110
1100
0111
0110
1001
0110
1110
0011
,  // measure 60
2222
3333
0000
0000
0000
0000
0010
0000
0000
0000
0000
0000
0101
0000
0000
0000
0000
0000
0010
0000
0000
1000
0000
0000
0122
0033
0000
0000
0000
0000
0100
0000
0000
0000
0000
0000
0011
0000
0000
0000
0000
0000
2000
0000
0000
0000
0000
0000
,  // measure 61
3020
2030
3002
0203
0302
2003
3200
0000
,  // measure 62
0300
0000
0000
0000
;
