#TITLE:Magia;
#SUBTITLE:魔法少女まどか★マギカ;
#ARTIST:Kalafina;
#TITLETRANSLIT:Magia;
#SUBTITLETRANSLIT:Puella Magi Madoka Magica;
#ARTISTTRANSLIT:Kalafina;
#GENRE:Itsugo15 SimifileS 31-60;
#CREDIT:Itsugo & Sdj';
#BANNER:Magia-bn.png;
#BACKGROUND:Magia-bg.png;
#LYRICSPATH:Magia.lrc;
#CDTITLE:Collab.png;
#MUSIC:Magia.ogg;
#OFFSET:2.149;
#SAMPLESTART:41.900;
#SAMPLELENGTH:30.000;
#SELECTABLE:YES;
#LISTSORT:;
#BPMS:0.000=125.000;
#STOPS:;
#TICKCOUNT:0.000=6;
#BGCHANGES:3.250=Magia.avi=1.000=1=1=0,
190.500=Magia.avi=0.000=0=1=0,
99999=-nosongbg-=1.000=0=0=0 // don't automatically add -songbackground-
;
#KEYSOUNDS:;
#ATTACKS:;

//---------------dance-single - Sdj'----------------
#NOTES:
     dance-single:
     Sdj':
     Challenge:
     10:
     0.889,0.818,0.689,1.000,0.489: // measure 1
0000
0000
0000
0000
,  // measure 2
0000
0000
0000
0000
1000
0001
1000
0001
1000
0004
4000
0000
0000
0000
3003
0000
,  // measure 3
1010
0000
0020
0000
1030
0010
0000
1000
0010
0000
0010
1000
0000
1000
0100
0010
,  // measure 4
0001
0000
0020
0000
0031
0010
0000
0001
0010
0000
0001
1000
0010
0100
0010
1000
,  // measure 5
0001
0000
0200
0000
0301
0100
0000
0001
0100
0000
0100
0001
0000
0010
0100
1000
,  // measure 6
0010
0000
0200
0000
0310
0100
0000
0010
0100
0000
0001
1000
0001
1000
0001
1000
,  // measure 7
0002
0000
0103
0000
0002
0000
0103
0000
0102
0000
1003
0100
0020
0030
0010
0100
,  // measure 8
2000
0000
3010
0000
2000
0000
3010
0000
2010
0000
3001
0010
0200
0300
0010
0001
,  // measure 9
0200
0000
0301
0000
0200
0000
0301
0000
0201
0000
0301
0100
0002
0003
1000
0000
,  // measure 10
0020
0000
0M30
2000
000M
3000
M100
0000
002M
0000
0030
0M02
0000
0003
1000
0001
,  // measure 11
1000
0000
0020
0000
0130
0000
0200
0000
0302
0000
0103
0000
0102
0000
0103
0010
,  // measure 12
2000
3000
0002
0000
1003
0000
2000
0000
3001
0000
1000
0000
2001
0000
3001
0010
,  // measure 13
0200
0300
2000
0000
3010
0000
0020
0000
1030
0000
0010
0000
1020
0000
1030
0001
,  // measure 14
2000
00M0
0000
3200
000M
0000
M310
0000
0M02
0000
00M3
2000
0000
3000
0100
0000
,  // measure 15
21MM
3010
2M1M
3001
2MM2
3003
MM12
0103
,  // measure 16
M1M2
1003
2MM2
3003
0001
0100
0010
0010
,  // measure 17
2000
0000
0000
0000
3100
0000
0010
0000
0200
0000
0000
0300
0010
0000
0002
0000
,  // measure 18
0000
0000
0000
0000
1003
0000
0000
0000
MMMM
0000
0000
0000
1000
0000
0001
0000
4000
0000
0000
0000
0000
3000
0000
0000
2MM2
0000
0000
0000
3003
0000
0000
0000
,  // measure 19
MM12
0103
M1M2
1003
2MM2
3003
21MM
3010
,  // measure 20
2M1M
3001
2MM2
3003
0100
0100
0010
0010
,  // measure 21
1002
0000
0000
0000
1003
0000
0010
0000
0220
0000
0330
0000
0000
0000
1000
0100
,  // measure 22
0010
0000
0000
0022
0033
0000
0001
0000
0101
0000
0000
0110
0000
0000
2001
0000
,  // measure 23
3001
0000
0000
0000
0100
0000
0010
0000
0000
0000
1000
0000
0100
0000
0010
0001
0010
0000
0100
0000
1000
0000
0001
0000
1000
0000
0010
0000
0100
0000
0001
0000
,  // measure 24
0010
0000
0001
0010
0200
0000
1300
0000
1020
0000
1030
0000
1002
0000
1003
0001
,  // measure 25
2000
0000
0000
0000
3001
0000
0000
0000
4004
0000
0000
0000
0000
3003
0000
0000
0001
0000
0000
0000
1000
0000
0000
0000
0010
0000
0000
0000
MMMM
0000
0000
0000
,  // measure 26
0020
0000
1030
0100
0020
0000
0031
0000
0201
0000
0301
0000
2001
0000
3001
1000
,  // measure 27
0002
0000
0000
0000
1003
0000
0000
0000
4004
0000
0000
0000
0000
3003
0000
0000
1000
0000
0000
0000
0001
0000
0000
0000
1000
0000
0000
0000
MMMM
0000
0000
0000
,  // measure 28
1001
0000
0001
0100
0010
0000
0010
0100
0020
0000
1030
0000
1010
0000
1000
0001
,  // measure 29
2000
0000
0000
0000
3000
0000
2200
3300
0220
0330
0022
0033
2002
3003
0000
0000
,  // measure 30
0101
0100
0120
0000
2030
3000
1100
1000
,  // measure 31
2002
0000
3003
0000
0000
0000
1001
0000
1000
0100
0010
0001
1000
0100
0010
0001
,  // measure 32
2000
0000
3001
0100
0020
0000
1030
0000
1200
0000
1300
0000
1002
0000
1003
0001
,  // measure 33
2000
0000
0000
0000
3001
0000
0000
0000
4004
0000
0000
0000
0000
3003
0000
0000
0001
0000
0000
0000
0100
0000
0000
0000
0001
0000
0000
0000
MMMM
0000
0000
0000
,  // measure 34
0002
0000
0013
0100
2000
0000
3100
0000
0210
0000
0310
0000
0001
1000
0001
0000
,  // measure 35
2002
0000
3003
0000
0000
0000
0202
0303
0220
0330
2020
3030
2002
0000
3003
0000
,  // measure 36
1000
0000
0100
0000
0040
0000
0000
0030
0001
0000
0001
0000
1001
0000
MMMM
0000
,  // measure 37
0001
0000
0100
0000
0040
0000
0000
0030
1000
0000
1000
0000
1001
0000
MMMM
0000
,  // measure 38
1000
0000
0100
0010
0000
0001
0100
0001
0010
0100
1000
0000
0110
0000
1000
0001
,  // measure 39
1000
0000
0000
2200
3300
0000
1001
0000
0001
1000
0001
1000
0010
0100
0010
0000
,  // measure 40
1010
0000
1000
0100
0040
0000
0000
0000
0000
0000
0000
0000
0000
0000
0030
0000
,  // measure 41
0002
0000
0000
0203
0000
0000
0302
0000
0023
0000
0000
0230
0000
0000
2300
0000
,  // measure 42
3001
0010
0100
1000
0040
0000
0000
0000
0000
0000
0000
0000
0000
0000
0030
0000
,  // measure 43
4000
0000
0000
0000
0000
3000
0010
0000
2001
0000
3001
1000
0001
1000
0010
0000
,  // measure 44
2000
0000
3100
0010
0001
0010
0100
0000
1000
0000
0001
0100
0000
0010
1000
0000
,  // measure 45
2100
0000
3001
0000
2001
0000
3010
0000
0100
0001
0100
0001
1000
0100
0010
0100
,  // measure 46
2000
0000
0000
0000
,  // measure 47
0000
0000
0000
0000
0000
0000
0000
3000
,  // measure 48
0404
0000
0303
0000
;

//---------------dance-single - Itsugo----------------
#NOTES:
     dance-single:
     Itsugo:
     Beginner:
     3:
     0.092,0.159,0.033,0.078,0.000:
0000
0000
0000
0000
,
0000
0000
0000
0000
,
0000
0000
0000
0000
,
0000
0000
0000
0000
,
0000
0000
0000
0000
,
0000
0000
0000
0000
,
1001
0000
0000
0000
,
1000
0000
0000
0000
,
1000
0000
0000
0000
,
0002
0000
0000
0000
,
0013
0000
0000
0000
,
0010
0000
0000
0000
,
0010
0000
0000
0000
,
0200
0000
0000
0000
,
1300
0000
0000
0000
,
0001
0000
0000
0000
,
0100
0000
0000
0000
,
0010
0000
0000
0000
,
1000
0000
0000
0000
,
0001
0000
0000
0000
,
0010
0000
0000
0000
,
0100
0000
0000
0000
,
0110
0000
0000
0000
,
1001
0000
0001
0000
,
0100
0000
0000
0000
,
0010
0000
1000
0000
,
0100
0000
0000
0000
,
0010
0000
0001
0000
,
0100
0000
0000
0000
,
0010
0000
1000
0000
,
0100
0000
1000
0000
,
0001
0000
0000
0000
,
0100
0000
0010
0000
,
1000
0000
0000
0000
,
0100
0000
0010
0000
,
0001
0000
1000
0000
,
0010
0000
0100
0000
,
0001
0000
0000
0000
,
0100
0000
0010
0000
,
2000
0000
0000
0000
,
0000
0000
0000
0000
,
3002
0000
0000
0000
,
0000
0000
0000
0000
,
0023
0000
0000
0000
,
0000
0000
0000
0000
,
0230
0000
0000
0000
,
0000
0000
0000
0000
,
2000
0000
0000
0000
0000
0000
0000
0000
0000
3300
0000
0000
0000
0000
0000
0000
;

//---------------dance-single - Itsugo----------------
#NOTES:
     dance-single:
     Itsugo:
     Easy:
     4:
     0.202,0.291,0.089,0.178,0.000:
0000
0000
0000
0000
,
0000
0000
0000
0000
,
1000
0000
0000
0000
,
0001
0000
0000
0000
,
1000
0000
0000
0000
,
0001
0000
0000
0000
,
1001
0000
0001
0000
,
0100
0000
0010
0000
,
1000
0000
0100
0000
,
0020
0000
0000
0000
,
0031
0000
0100
0000
,
0010
0000
1000
0000
,
0100
0000
1000
0000
,
0002
0000
0000
0003
,
1001
0000
0001
0000
,
0100
0000
0010
0000
,
1000
0000
0100
0000
,
0010
0000
0001
0000
,
1000
0000
1000
0000
,
0010
0000
0100
0000
,
0001
0000
1000
0000
,
0100
0000
0010
0000
,
0220
0000
0330
0000
,
1001
0001
0100
0100
,
0010
1000
0100
0010
,
0001
0001
1000
1000
,
0010
0100
0001
1000
,
0100
0100
0010
0010
,
0002
0000
1003
0001
,
1001
0001
0100
0010
,
2000
3000
0100
1000
,
1001
0001
0100
0010
,
2000
3000
0100
0100
,
0010
0001
0100
0010
,
2000
3000
0001
1000
,
1001
0001
1000
1001
,
0001
1000
0100
0010
,
0002
0000
0203
0000
,
0310
1000
0100
0010
,
0002
0000
0000
0000
,
2003
0000
0000
0000
,
3020
0000
0000
0000
,
0230
0000
0000
0000
,
0301
0000
1000
0000
,
0100
0000
0010
0000
,
0002
0000
0000
0000
,
0000
0000
0000
0000
,
2000
0000
0000
0000
0000
0000
0000
0000
0000
3003
0000
0000
0000
0000
0000
0000
;

//---------------dance-single - Itsugo----------------
#NOTES:
     dance-single:
     Itsugo:
     Medium:
     6:
     0.352,0.423,0.278,0.178,0.000:
0000
0000
0000
0000
,
0000
0000
0000
0000
,
2000
0001
0001
3001
,
2000
0010
0010
3010
,
2000
0100
0100
3100
,
2000
0001
0001
3001
,
1001
0001
0100
0100
,
0010
1000
0100
0100
,
0010
0001
0100
0010
,
0110
0000
1001
0000
,
0110
0010
0001
0001
,
1000
0010
0100
0100
,
0010
1000
0100
0010
,
0110
0000
1001
0000
,
0110
1010
2200
3300
,
0011
0101
0001
1000
,
1001
0100
0010
0010
,
0100
1000
0001
0100
,
0101
0110
2020
3030
,
1001
0011
0010
0100
,
1000
1000
0100
0100
,
0010
0001
0100
0010
,
0220
0000
0330
0000
,
1001
0000
0001
0000
0010
0000
0100
1000
,
0100
0010
0001
0100
,
0010
0000
1000
0010
0100
0000
0001
0000
,
0010
0000
0100
1000
0100
0010
0001
0000
,
1000
0010
1000
0000
0001
0010
0001
0000
,
1001
0000
1000
0000
0010
0100
0001
0000
,
0010
0100
0010
0000
0001
0000
0001
1000
,
0010
0000
0010
0100
0001
0010
0100
0000
,
0100
0000
1100
0000
1000
0000
0001
0010
,
0100
0000
0100
0010
0001
0100
0010
0000
,
1000
0010
1000
0000
0001
0000
0010
0100
,
0010
0000
0001
0100
0010
1000
0100
0000
,
0010
0001
0100
0000
0010
1000
0100
0000
,
0010
0100
1000
0000
0010
0100
0001
0000
,
0101
1000
1001
1000
,
0100
0010
0001
1000
,
2002
0000
0000
0000
0000
0000
0000
3003
,
0001
1000
0010
0100
,
0220
0000
0000
0330
,
0010
1000
0001
0010
,
0100
0100
1000
1000
,
0010
0010
0100
0001
,
2000
0000
0000
0000
,
0000
0000
0000
0000
,
0004
0000
0000
0000
0000
0000
0000
0000
0000
3003
0000
0000
0000
0000
0000
0000
;

//---------------dance-single - Itsugo----------------
#NOTES:
     dance-single:
     Itsugo:
     Hard:
     8:
     0.514,0.502,0.156,0.189,0.122:
0000
0000
0000
0000
,
0000
0000
0000
0000
,
1001
0000
0001
0000
1000
0000
0000
0000
0010
0000
0000
0010
0000
0000
0100
0000
,
0001
0000
1000
0000
0100
0000
0000
0000
0010
0000
0000
0010
0000
0000
0100
0000
,
1000
0000
0001
0000
0100
0000
0000
0000
0010
0000
0000
0010
0000
0000
0100
0000
,
0001
0000
1000
0000
0100
0000
0000
0000
0010
0000
0000
0001
0000
0000
1000
0000
,
1001
0000
0001
0000
0100
0010
1000
0100
,
0000
0010
0100
1000
0001
0100
0010
1000
,
0000
0100
0010
0100
1000
0010
0100
0001
,
1000
0000
0000
0100
0000
0000
0010
0000
0002
0000
0000
1000
0000
0000
1003
0000
,
0101
0000
0001
0000
1000
0010
0100
0001
,
0000
0010
0100
1000
0100
0010
0001
0100
,
0000
0010
1000
0100
0010
0001
0100
0010
,
1000
0000
0000
0010
0000
0000
0100
0000
0002
0000
0000
1000
0000
0000
1003
0000
,
1100
0100
0010
0001
0100
0000
0100
0010
,
1000
0100
0010
0000
0010
0100
1000
0001
,
0200
0000
0310
1000
0200
0000
0310
0001
,
0100
0010
0000
0100
0001
0010
0100
0000
,
0110
0100
0010
0001
0100
0000
0010
1000
,
0100
0010
0100
0000
1000
0010
0100
0001
,
2000
0000
0000
0000
3100
0000
0010
0000
0002
0000
0000
0003
0101
0000
0100
0000
,
0010
0000
0000
1000
0000
0000
0100
0000
0010
0000
0000
0100
0000
0000
1000
0000
,
1010
0000
0010
0100
0000
0000
0001
0000
1000
0000
0001
0000
0010
0000
0100
0000
,
1100
1000
0010
0100
0010
0010
0100
0001
,
0010
0010
0100
1000
0001
0100
0101
0000
,
0001
1000
0100
0010
0001
0001
0100
0010
,
0010
1000
0100
0010
0001
1000
1001
0000
,
1100
1000
0010
0100
0100
0010
1000
0100
,
0020
0030
0011
0001
0100
0010
2000
3000
,
1010
0010
0200
0000
0301
0000
0010
0100
,
1000
0000
1000
0001
0100
0010
1000
0000
,
1100
0100
0010
0001
0100
0100
0010
0010
,
1000
0100
0010
1000
1000
0010
0100
0100
,
0010
0001
0100
0010
0010
0100
0100
0010
,
1000
0100
0100
0010
0001
0001
0100
0100
,
0001
0020
0100
0100
1030
0020
0100
0100
,
0031
0200
0010
0310
1000
0200
0010
0310
,
0001
0000
0000
0010
0000
0000
0100
0000
1000
0000
0100
0000
1000
0000
0010
0000
,
0100
0000
0000
0001
0000
0000
0010
0000
0100
0000
0000
1000
0000
0000
0001
0000
,
1000
0000
0010
0000
0200
0000
0000
0000
0301
0000
0000
0010
0000
0000
0100
0000
,
1000
0000
0000
0010
0000
0000
0100
0000
0001
0000
0000
0010
0000
0000
0100
0000
,
0010
0000
0001
0000
0100
0000
0010
0000
1000
0000
0000
0100
0000
0000
0010
0000
,
0001
0000
0000
0100
0000
0000
0010
0000
1000
0000
0100
0000
0010
0000
0001
0000
,
2000
0000
0000
0000
3010
0000
0100
0000
0010
0000
0000
1000
0000
0000
0100
0000
,
0010
0000
0000
0001
0000
0000
0100
0000
0010
0000
0000
1000
0000
0000
0100
0000
,
0020
0000
0000
0000
,
0000
0000
0000
0000
,
0034
0000
0000
0000
0000
0000
0000
0000
0000
0003
0000
0000
0000
0000
0000
0000
;
