#TITLE:Light My Fire;
#SUBTITLE:灼眼のシャナIII (Final);
#ARTIST:KOTOKO;
#TITLETRANSLIT:Light My Fire;
#SUBTITLETRANSLIT:Shakugan no Shana Final;
#ARTISTTRANSLIT:Kotoko;
#GENRE:Anime;
#CREDIT:Itsugo15 (Huzure BPM);
#BANNER:Light My Fire-bn.jpg;
#BACKGROUND:Light My Fire-bg.jpg;
#LYRICSPATH:Light My Fire.lrc;
#CDTITLE:Itsugo15 SimifileS.png;
#MUSIC:Light My Fire.mp3;
#OFFSET:1.180;
#SAMPLESTART:52.753;
#SAMPLELENGTH:30.000;
#SELECTABLE:YES;
#LISTSORT:;
#BPMS:0.000=93.000,18.000=186.000,100.000=93.000,120.000=186.000;
#STOPS:18.500=0.323
,19.500=0.323
,120.500=0.161
,121.500=0.161
,122.500=0.161
,123.500=0.161
,124.500=0.323
,163.500=0.323
;
#TICKCOUNT:0.000=6;
#BGCHANGES:0.500=Light My Fire.avi=1.000=1=1=0,
230.000=Light My Fire.avi=0.000=0=1=0,
99999=-nosongbg-=1.000=0=0=0 // don't automatically add -songbackground-
;
#KEYSOUNDS:;
#ATTACKS:;

//---------------dance-single - Challenge Itsugo----------------
#NOTES:
     dance-single:
     Challenge Itsugo:
     Challenge:
     11:
     0.914,1.000,0.521,0.466,0.615:
0000
0000
0000
0000
,
0000
0000
0000
0000
,
0000
0000
0000
0000
,
1000
0000
0100
0000
0010
0000
0001
1000
0010
0000
0100
0000
0000
0000
0000
0000
0001
0000
0100
0000
0010
0000
1000
0001
0010
0000
0100
0000
0000
0000
1000
0100
,
1000
0000
0002
0000
0103
0010
1000
0000
0020
0000
0130
0000
0001
0000
0000
0000
0101
0000
0000
0000
1001
0000
0000
0000
1100
0000
0000
0000
1001
0000
0000
0000
,
0001
0100
0010
1000
0100
1000
0010
0100
0001
0010
0001
0100
0010
1000
0100
0010
,
0001
1000
0100
0010
0001
0100
0010
1000
0001
0100
0010
1000
0100
0010
0100
1000
,
0001
1000
0010
0100
0001
0010
0100
0010
0001
1000
0010
0100
0001
0100
0010
1000
,
0001
0010
0100
1000
0100
0010
0001
0100
0010
1000
0100
1000
0010
0100
0001
0010
,
0001
1000
0000
0002
1000
1003
0000
0002
,
1000
1003
0000
0002
1000
1003
0000
2000
,
0001
3001
0000
2000
0001
3001
0000
2000
,
0001
3001
0000
2000
0001
3001
0000
0002
,
0010
1003
0000
2000
0010
3001
0000
0002
,
0100
1003
0000
2000
0100
3001
0000
1000
,
0001
0001
0010
1000
1000
0010
0001
0001
,
1000
0000
0010
0000
0001
0000
0010
1000
0001
0000
1000
0000
0000
0000
0001
0000
,
1001
0000
0010
0000
0100
0000
1000
0100
1000
0000
0100
0000
0010
0000
0001
0010
,
0001
0000
1000
0000
0010
0000
0100
0001
0100
0000
0010
1000
0001
0000
0010
0000
,
0100
0000
1000
0000
0100
0000
0010
0001
0010
0000
0001
0000
1000
0000
0010
1000
,
0010
0000
0100
0000
0001
0000
1000
0100
0010
0000
0001
0100
0010
0000
1000
0000
,
0100
0000
0001
0000
0100
0000
1000
0001
0100
0000
0010
0000
0001
0000
0010
1000
,
0001
0000
0010
0000
0100
0000
1000
0001
0100
0000
0010
1000
0001
0000
0010
0000
,
0001
0000
0100
0000
0010
0000
1000
0100
0010
0000
0001
0000
0100
0000
0010
0000
,
1000
0010
0100
0000
0110
0000
0010
0100
0001
0000
0101
0000
0000
0000
1001
0000
,
1000
0001
0100
0000
0010
1000
0100
0000
0010
0001
0100
0000
0001
1000
0100
0000
,
1000
0001
0010
0000
0100
1000
0010
0000
0100
0001
0010
0000
0001
1000
0010
0000
,
1000
0100
0001
0000
1000
0010
0001
0000
1000
0010
0001
0000
0010
1000
0001
0000
,
0010
0100
1000
0000
0001
0100
1000
0000
0001
0010
1000
0000
0001
0100
1000
0000
,
0220
0000
0000
0330
,
1010
1100
0011
0101
0110
1001
0110
1001
,
1001
0000
2002
3003
1001
0000
0000
0000
1000
0000
0000
0000
0010
0000
0100
0000
,
0001
0000
0012
0000
0000
0000
0103
0000
0110
0000
0010
1000
0100
0000
0100
0000
,
1000
0000
0001
0000
0100
0000
0000
0000
0101
0000
0100
0010
1000
0000
0100
0000
,
0010
0120
0000
0031
1000
1100
0000
0100
,
1000
0001
0101
1000
1010
1000
0100
0010
,
0001
0000
1002
0000
0000
0000
1003
0000
0010
0000
0010
0100
0001
0000
1000
0000
,
0001
0020
2030
0000
3020
0031
0011
0100
,
2000
0000
0020
0000
0030
0000
3010
0000
0100
0000
0001
1000
0100
0000
0010
0000
,
0001
1000
2100
0000
3001
0100
0010
1000
,
0100
0000
0012
0000
0000
0000
0013
0000
0001
0000
0010
0100
1000
0000
0101
0000
,
2010
0000
3001
0011
0010
0001
1000
2001
,
0000
0000
3010
0000
0100
0000
0010
0000
1000
0000
0001
0000
0010
0100
0000
1000
,
0001
0100
0001
1000
0100
0010
0001
0012
,
0000
1003
0010
1010
1000
0010
0100
0000
,
0101
0000
0001
0000
1000
0000
0000
0100
0010
0000
0001
0000
1000
0000
1002
0000
,
0000
0103
0101
0000
0001
0100
1000
0100
,
0010
0000
1010
0000
1000
0100
0010
0011
,
0000
0100
1000
0000
1001
1001
0000
1020
,
0000
0130
0001
0100
1000
0100
0010
1000
,
0100
0000
0001
0000
0100
0000
0010
0001
0010
0000
0001
0000
1000
0020
0000
0000
,
0130
0000
0001
0000
0100
0000
1000
0100
1000
0000
0100
0000
0010
0000
1000
0000
,
0100
0000
0001
0000
0100
0000
0010
0001
0010
0000
1000
0100
1000
0000
0001
0100
,
0001
0000
1000
0010
1000
0000
0010
0100
0001
0000
0010
0100
1000
0000
0001
0100
,
0010
0000
1000
0100
0010
0000
0001
1000
0010
0000
0100
0001
1000
0000
0001
0020
,
0100
0130
0000
0200
1000
1300
0000
2000
0010
3010
0000
0020
0100
0130
0000
0200
,
0001
0301
0000
0002
1000
1003
0000
0000
2100
0000
0001
0000
3010
0000
0220
0000
,
0000
0330
0000
0000
;

//---------------dance-single - Hard Itsugo----------------
#NOTES:
     dance-single:
     Hard Itsugo:
     Hard:
     9:
     0.678,0.795,0.432,0.055,0.144: // measure 1
0000
0000
0000
0000
,  // measure 2
0000
0000
0000
0000
,  // measure 3
0000
0000
0000
0000
,  // measure 4
0001
0010
0001
0010
0001
0010
0000
0000
0001
1000
0001
1000
0001
1000
0000
0000
,  // measure 5
0001
0100
0001
0100
0001
0100
0000
0000
0010
0000
0010
0000
0100
0000
0100
0000
,  // measure 6
0001
1000
0100
0010
0001
1000
0010
0100
,  // measure 7
0001
0100
0010
1000
0100
1000
0001
0100
,  // measure 8
0010
1000
0100
0010
0001
0010
0100
1000
,  // measure 9
0100
0010
0100
1000
0001
0010
0100
0010
,  // measure 10
0001
0010
0000
0001
1000
0001
0000
0100
,  // measure 11
0001
0100
0000
0001
0100
0010
0000
0100
,  // measure 12
0010
1000
0000
0010
1000
0010
0000
1000
,  // measure 13
0001
1000
0000
0100
1000
0100
0000
1000
,  // measure 14
0001
0100
0000
0001
1000
0100
0000
0010
,  // measure 15
0001
1000
0000
0001
1000
0010
0000
0100
,  // measure 16
0001
1000
0000
0100
0010
0001
0000
0010
,  // measure 17
0100
1000
0000
0100
1000
0001
0000
0000
,  // measure 18
1000
0001
1001
0000
0001
0010
0011
0000
,  // measure 19
0001
0010
0100
1000
0100
0010
0001
1000
,  // measure 20
0010
0100
0110
0000
0100
0001
0101
0000
,  // measure 21
0001
1000
0100
1000
0010
0100
0001
0010
,  // measure 22
0001
0100
0101
0000
1000
0100
1100
0000
,  // measure 23
0001
0100
0010
1000
0010
0100
0001
1000
,  // measure 24
0100
0010
0110
0000
0010
0001
0011
0000
,  // measure 25
0001
1001
0000
1000
0001
0010
0100
1000
,  // measure 26
0001
0100
0100
0010
0010
1000
1000
0100
,  // measure 27
0010
0001
0001
1000
1000
0010
0010
0100
,  // measure 28
0001
1000
1000
0100
0100
0010
0010
0001
,  // measure 29
0100
0010
0010
1000
1000
0100
0010
0002
,  // measure 30
2000
0000
0000
0000
0000
0000
0000
3003
,  // measure 31
1000
1000
0010
0010
0100
0100
0001
0001
,  // measure 32
0101
1001
1001
0000
1000
0100
0010
0100
,  // measure 33
0000
0110
0000
0010
0001
0000
0001
1000
,  // measure 34
0010
0000
1010
0000
1000
0001
0000
0001
,  // measure 35
0100
0101
0000
0001
1000
1001
0001
0010
,  // measure 36
0011
0000
1001
0000
0001
0100
0010
1000
,  // measure 37
0000
1010
0000
1000
0001
0000
0010
0100
,  // measure 38
0110
0000
0010
0000
0001
0010
0100
1000
,  // measure 39
0001
1001
0000
1000
0100
1100
1000
0100
,  // measure 40
0010
0001
0011
0000
0010
0000
0001
1000
,  // measure 41
0000
1001
0000
0001
0100
0101
0001
1000
,  // measure 42
1001
0000
0001
0010
0100
0010
0000
0110
,  // measure 43
0000
0100
1000
0000
1000
0001
0100
0000
,  // measure 44
0101
0000
0001
1000
0000
1000
0010
1010
,  // measure 45
0000
1000
0001
1001
1000
0100
1100
0000
,  // measure 46
1001
0000
1000
0010
0100
0001
0000
0101
,  // measure 47
0000
0001
1000
0000
0100
0010
0110
0000
,  // measure 48
0100
1000
0100
0010
0001
0100
0010
0110
,  // measure 49
0000
0100
0001
0000
0101
0101
0000
2001
,  // measure 50
0000
3001
0100
1000
0100
0010
1000
0001
,  // measure 51
0010
0000
0100
0000
0001
0000
0100
0000
1000
0100
1000
0000
0100
0000
0010
0000
,  // measure 52
0001
0000
0100
0000
0010
0000
0001
0000
0010
0100
0010
0000
1000
0000
0010
0000
,  // measure 53
0100
0000
0001
0000
0100
0000
1000
0000
0100
0010
0100
0000
0001
0000
0100
0000
,  // measure 54
0010
1000
0010
0000
1000
0001
1000
0000
0100
1000
0100
0000
0010
0100
0010
0000
,  // measure 55
0001
0010
0001
0000
1000
0001
1000
0000
0010
1000
0010
0000
0100
0001
0100
0000
,  // measure 56
0001
1000
0100
0000
1000
0001
0100
0000
0001
1000
0010
0000
1000
0001
0010
0000
,  // measure 57
0100
1000
0100
0000
0010
0001
0010
0000
0100
0000
1000
0000
0001
0000
2002
0000
,  // measure 58
0000
0000
0000
3003
0000
0000
0000
0000
;

//---------------dance-single - Beginner Itsugo----------------
#NOTES:
     dance-single:
     Beginner Itsugo:
     Beginner:
     2:
     0.116,0.189,0.089,0.022,0.000:
0000
0000
0000
0000
,
0000
0000
0000
0000
,
0000
0000
0000
0000
,
0001
0000
0000
0000
,
0001
0000
1000
0000
,
1000
0000
0000
0000
,
0010
0000
0000
0000
,
0100
0000
0000
0000
,
0001
0000
0000
0000
,
1000
0000
0000
0000
,
1000
0000
0000
0000
,
0100
0000
0000
0000
,
0100
0000
0000
0000
,
0010
0000
0000
0000
,
0010
0000
0000
0000
,
0001
0000
0000
0000
,
1000
0000
0000
0000
,
1001
0000
0000
0000
,
0001
0000
0000
0000
,
0100
0000
0000
0000
,
0010
0000
0000
0000
,
1000
0000
0000
0000
,
0100
0000
0000
0000
,
0010
0000
0000
0000
,
0001
0000
0000
0000
,
0011
0000
0000
0000
,
0101
0000
0000
0000
,
1010
0000
0000
0000
,
1100
0000
0000
0000
,
2002
0000
0000
0000
,
3003
0000
0000
0000
,
0000
0010
0000
0000
,
0000
1000
0000
0000
0000
0000
0000
0000
,
0000
0001
0000
0000
,
0000
0010
0000
0000
0000
0000
0000
0000
,
0000
0011
0000
0000
,
0000
0001
0000
0000
0000
0000
0000
0000
,
0000
1000
0000
0000
,
0000
0010
0000
0000
0000
0000
0000
0000
,
0000
0100
0000
0000
,
0000
0001
0000
0000
0000
0000
0000
0000
,
1001
0000
0000
0000
0000
0000
0000
1000
,
0000
0000
0000
0000
,
0100
0000
0000
0000
0000
0000
0000
0010
,
0000
0000
0000
0000
,
0001
0000
0000
0000
0000
0000
0000
1000
,
0000
0000
0000
0000
,
0010
0000
0000
0000
0000
0000
0000
0100
,
0000
0000
0000
0000
0000
0000
0000
0001
,
0000
0000
1000
0000
,
0100
0000
0010
0000
,
0001
0000
1000
0000
,
0010
0000
0100
0000
,
0001
0000
1000
0000
,
0010
0000
1000
0000
,
0001
0000
0010
0000
,
0100
0000
0000
0000
1000
0000
0000
1000
;

//---------------dance-single - Easy Itsugo----------------
#NOTES:
     dance-single:
     Easy Itsugo:
     Easy:
     4:
     0.250,0.379,0.122,0.067,0.000:
0000
0000
0000
0000
,
0000
0000
0000
0000
,
0000
0000
0000
0000
,
0001
0000
0001
0000
,
1000
0000
0000
0000
2000
3000
0002
0003
,
1000
0000
0010
0000
,
0100
0000
0001
0000
,
1000
0000
0100
0000
,
0010
0000
0001
0000
,
1000
0000
1000
0000
,
1000
0000
1000
0000
,
0010
0000
0010
0000
,
0010
0000
0010
0000
,
0100
0000
0100
0000
,
0100
0000
0100
0000
,
0001
0000
0001
0000
,
0001
0000
0101
0000
,
1010
0000
1000
0000
,
0100
0000
0010
0000
,
0001
0000
1000
0000
,
0010
0000
0100
0000
,
0010
0000
1000
0000
,
0001
0000
0010
0000
,
0100
0000
1000
0000
,
0100
0000
0010
0000
,
0011
0001
0001
1000
,
1001
1000
1000
0010
,
1010
0010
0010
0100
,
0110
0100
0100
0001
,
0202
0000
0000
0000
,
0300
0000
0000
0000
,
0000
0003
1100
0000
0000
0000
0000
1000
,
0000
0100
0000
0000
0010
0000
0000
0000
,
0001
0000
0000
0000
1000
0000
0000
0010
,
0000
0100
0000
0000
0000
0010
0000
0000
,
1000
0000
0000
0000
0001
0000
0000
1000
,
0000
0100
0000
0000
0010
0000
0000
0000
,
0001
0000
1000
0000
0000
0010
0000
0000
,
0000
1010
0000
0000
1000
0000
0100
0000
,
0010
0000
0011
0000
0000
0000
0000
0001
,
0000
0100
0000
0000
0010
0000
2000
3000
,
1100
0000
0000
0000
0000
0100
0000
0010
,
0000
0001
0000
1000
,
0000
0000
0010
0000
0000
0100
0000
0001
,
0000
1000
0000
0100
,
0000
0000
0010
0000
0000
0001
0000
1000
,
0000
0010
0000
0100
,
0000
0001
0000
1000
,
0000
0000
0100
0000
1000
0000
0000
0010
,
0000
0100
0100
0010
,
0010
1000
1000
0001
,
0010
0100
1000
0010
,
0100
0001
0100
0010
,
1000
1000
0001
0001
,
0010
0010
0100
1000
,
0001
0100
0010
1000
,
0100
0000
0010
0000
0001
0010
0001
2000
,
3000
0000
0000
0000
;

//---------------dance-single - Medium Itsugo----------------
#NOTES:
     dance-single:
     Medium Itsugo:
     Medium:
     7:
     0.391,0.506,0.222,0.100,0.006:
0000
0000
0000
0000
,
0000
0000
0000
0000
,
0000
0000
0000
0000
,
0001
0001
0001
0000
1000
1000
1000
0000
,
0010
0010
0010
0000
0100
0100
0001
0001
,
0001
1000
0100
0010
,
0001
0100
0010
1000
,
0100
0010
0100
1000
,
0001
0100
0010
1000
,
1010
0000
1000
0100
,
0010
0001
0000
1000
0000
0001
0000
0020
,
0000
0000
0000
0000
,
0000
0000
0000
0000
0031
1000
0000
0020
,
0000
0000
0000
0000
,
0000
0000
0030
0000
0000
0000
0100
0000
0001
0000
0000
1000
0000
0000
0200
0000
,
0000
0000
0000
0000
,
0000
0000
0000
0300
1100
0000
0000
0000
,
1000
0001
0010
0100
,
1000
0001
0100
0010
,
1000
0100
0010
0010
,
0001
0100
0010
1000
,
0100
0100
0010
0001
,
0100
0010
1000
0100
,
0001
0100
1000
0001
,
0010
0001
0100
0010
,
0110
0010
0000
1000
0000
0010
0000
1000
,
1010
1000
0000
0001
0000
1000
0000
0001
,
1001
0001
0000
0010
0000
0001
0000
0010
,
0011
0010
0000
0100
0000
0010
0000
0100
,
2000
0000
0000
0000
,
3001
0001
1000
1000
0100
0100
0010
0010
,
0110
0110
0011
0000
0001
0000
1000
0000
,
0000
1001
0000
0000
0001
0000
1000
0000
,
0100
0010
0100
1000
,
0000
1100
0000
0000
1000
0000
0001
0000
,
0010
0100
0010
0001
,
0000
0011
0000
0000
0010
0000
0001
0000
,
0100
0000
0020
0000
0000
2030
0000
0000
,
3000
0201
0000
0000
0302
0000
0000
0000
,
0100
0000
1003
0000
0001
0000
0010
0001
,
0000
0011
0000
0000
0010
0000
0100
1000
,
1100
0000
0010
0000
0001
0000
0000
0011
,
0000
0010
0100
1000
,
0001
0000
0100
0000
0010
0000
0000
0110
,
0000
0010
1000
1010
,
1000
0000
0100
0000
0010
0001
0000
0011
,
0000
0010
0001
1000
,
0001
0000
1000
0000
0100
0000
0010
0001
,
0000
0000
1000
0000
0010
0100
0000
0110
,
0000
0100
0010
1000
,
0100
0000
0001
0000
0100
1000
0001
0000
,
0100
0010
0001
0010
,
1000
0000
0001
0000
0010
0100
1000
0000
,
0100
0010
0001
0000
0010
0001
0100
0000
,
0001
0100
0010
0000
0100
0010
1000
0000
,
0010
0100
0001
1000
0100
0010
0100
1000
,
0001
0100
0010
1000
0010
0100
0001
2000
,
3000
0000
0000
0000
;
