#TITLE:境界の彼方;
#SUBTITLE:境界の彼方;
#ARTIST:茅原実里;
#TITLETRANSLIT:Kyoukai no Kanata;
#SUBTITLETRANSLIT:Kyoukai no Kanata;
#ARTISTTRANSLIT:Chihara Minori;
#GENRE:Otaku's Dream 3rd Mix (Pad);
#CREDIT:Huzure & itsugo15;
#BANNER:Kyoukai-bn.png;
#BACKGROUND:Kyoukai-bg.jpg;
#LYRICSPATH:Kyoukai no Kanata.lrc;
#CDTITLE:Collab.png;
#MUSIC:Kyoukai no Kanata.mp3;
#OFFSET:-0.994;
#SAMPLESTART:52.909;
#SAMPLELENGTH:24.000;
#SELECTABLE:YES;
#LISTSORT:;
#BPMS:0.000=92.000,16.000=184.000,64.000=92.000,80.000=184.000,208.000=92.000,213.000=75.000,213.500=72.500,214.000=52.500,214.500=46.500;
#STOPS:;
#TICKCOUNT:0.000=6;
#BGCHANGES:-1.360=Kyoukai no Kanata OP.avi=1.000=1=0=0,
99999=-nosongbg-=1.000=0=0=0 // don't automatically add -songbackground-
;
#KEYSOUNDS:;
#ATTACKS:;

//---------------dance-single - Huzure----------------
#NOTES:
     dance-single:
     Huzure:
     Hard:
     9:
     0.706,0.966,0.422,0.256,0.222:
0000
0000
0000
0000
,
0000
0000
0000
0000
,
0000
0000
0100
0010
0001
0000
0010
0000
0100
0000
1000
0000
0010
0000
0001
0000
,
1000
0000
0100
0000
0001
0000
1000
0000
0020
0000
0030
0010
0100
0000
0001
0000
,
0101
0110
1010
0101
,
1001
1100
0011
1100
,
0110
0000
0000
0000
0000
0000
0000
0000
0010
0001
0010
0001
0010
0100
1000
0010
,
0100
0001
0100
0001
0010
0100
1000
0001
0100
0000
0100
0000
0010
0000
0010
0000
,
1001
0000
1000
0100
0010
0000
0001
0000
,
0100
0100
0010
1000
0010
0000
1000
0000
,
0011
0000
0001
1000
0100
1000
0010
1000
,
0001
0000
1000
0000
0200
0000
0300
0000
0100
0010
0001
1000
0010
1000
0001
0010
,
0100
1000
1000
0200
1300
1000
0020
1030
,
1000
0200
1300
1000
0002
1003
0010
0100
,
0110
0001
0010
0200
0301
0001
0200
0310
,
0010
0200
1300
1000
0001
0100
0010
1000
,
1100
0000
1000
0000
1000
0000
0001
0000
0100
0010
0100
0000
0002
0000
1000
0000
,
1003
0100
0010
0000
0001
0000
1000
0000
0010
0100
0010
0000
1000
0001
0010
0001
,
1000
0000
0010
0100
0010
0000
1000
0000
2100
0000
0010
3000
1002
0000
0010
0003
,
2100
0000
3001
0010
0100
0010
0001
0000
1000
0100
0011
0000
0101
0001
1000
0100
,
1200
0000
1300
0100
0000
0100
0020
0000
,
0031
0001
0000
0010
0001
0010
1000
0010
,
0011
0000
1100
1001
0000
0010
1100
0000
,
0100
0000
0001
0000
0100
0000
0010
0001
0010
0000
0100
0000
1000
0000
0001
0000
,
0002
0000
1003
0100
0000
0100
0020
0000
,
0031
1000
0001
0100
0010
1000
0001
0100
,
0110
1000
0011
0001
,
0010
1000
0001
0000
0100
0000
1000
0000
,
1001
0001
0100
0001
0100
0001
0100
0002
,
0003
1000
0100
0010
0001
1000
0001
0000
,
1001
0100
0010
1000
0100
1000
0100
0010
,
0001
1000
0100
0010
0001
0010
0100
0010
0001
0010
0100
0010
0001
1000
0100
0010
,
0001
0000
0010
0010
0101
0000
0100
0100
,
0101
0000
0001
0000
1000
0100
1000
0001
,
0100
0000
0010
0010
1100
0000
1000
0001
,
0100
0001
0010
0100
1000
1000
0010
0000
,
0100
0000
0001
0000
0100
1000
0100
0000
,
0010
0000
0100
0001
1000
0010
1000
0001
,
0100
0000
0010
0000
0110
0101
0000
1010
,
0000
0000
1000
0000
0100
0000
1000
0000
0001
1000
0100
0010
0100
1000
0100
0010
,
0001
0000
0100
0100
1010
0000
1000
1000
,
0110
0000
0001
0000
1000
0001
1000
0001
,
0100
0000
0010
0000
0010
1000
0001
0000
,
0010
0000
1000
0010
0001
0010
0100
0000
,
1100
1000
0100
0020
0000
0030
0020
0001
,
0130
0010
0001
1000
1000
0001
0100
0010
,
1001
0000
0001
1000
0100
1000
0001
0010
,
0100
1000
0010
1000
0001
1000
0010
0100
,
0110
0000
0100
0000
0001
0000
0002
0000
1003
0100
1000
0100
0010
0000
0001
0000
,
0000
0010
0000
0100
0000
0100
1000
0000
,
0001
0010
0100
0001
0100
1000
0100
0010
,
0100
1000
0001
0100
0001
0100
0001
0100
,
0001
0100
0010
0100
0001
1000
2000
3000
,
1000
0010
1000
0100
0001
0010
2000
0000
,
0000
0000
0000
0000
0000
3000
0000
0000
0000
0000
0000
0000
0000
0000
0000
0000
;

//---------------dance-single - Huzure----------------
#NOTES:
     dance-single:
     Huzure:
     Medium:
     7:
     0.548,0.573,0.056,0.189,0.028:
0000
0000
0000
0000
,
0000
0000
0000
0000
,
0000
0000
1000
0100
1000
0000
0100
0000
0010
0000
0001
0000
0010
0000
0001
0000
,
1000
0000
0100
0000
0010
0000
0001
0000
0200
0000
0300
0010
0100
0000
0001
0000
,
1001
0100
0010
0100
,
0001
1000
0010
1000
,
0001
1000
0100
0010
0001
1000
0010
0100
,
0001
1000
0100
0010
0001
1000
1000
0100
,
0200
0000
0310
0001
0010
0000
0100
0000
,
1000
0100
0010
0100
0001
0000
0100
0000
,
1000
0001
0100
0010
1000
0100
0010
0001
,
0010
0100
0010
0000
0002
0003
0002
0003
,
1100
0000
0100
0010
0000
0001
0010
0000
,
1000
0010
0000
0001
0010
0000
0100
0010
,
0100
0000
1000
0100
0000
0001
0100
0000
,
1000
0100
0000
0001
0100
0000
0010
0001
,
1000
1000
0100
0100
0100
0000
1000
1000
,
0010
0000
0001
0010
0010
0100
0020
0000
,
0030
0000
1000
0010
1000
0000
0010
0000
0100
0000
0001
0000
0100
0000
0001
0000
,
0001
0000
1000
0000
1000
0000
0100
0000
0010
0000
0100
0001
0100
1000
0001
0000
,
0100
0000
0010
1000
0000
0001
0020
0000
,
0130
1000
0100
0000
0010
0001
1000
0010
,
0100
0000
0001
1000
0000
1000
0001
0000
,
0010
0001
0010
0000
0100
1000
0100
0010
,
0100
0000
1000
0001
0000
1000
0010
0000
,
0100
0001
0100
0010
1000
0000
0100
0000
,
0200
0000
1300
0000
0001
0000
0100
0001
,
1000
0001
0100
0000
0010
0000
1000
0000
,
1100
0100
0010
0100
0010
0001
0100
0001
,
0100
0010
1000
0001
1000
0100
0010
0001
,
0020
0000
0230
0000
,
2300
0000
3001
0100
0001
1000
0001
0100
,
0020
0000
1030
0010
1000
0000
0010
0100
,
0010
1000
0001
0100
,
0200
0000
0301
0010
0100
0000
0100
0010
,
0001
1000
0010
0100
0001
0010
0100
0000
,
1000
0001
0100
0001
0010
0001
0100
0001
,
1000
0000
1100
0000
0011
0000
0010
0100
,
1000
0000
0010
0000
0100
0010
0000
0020
,
0000
1030
0100
1000
0010
0100
0010
0001
,
0010
0000
1000
0010
1000
0000
0001
1000
,
0001
0000
0100
0000
0010
0100
0010
1000
,
0001
0000
0010
0000
0001
1000
0100
0000
,
0001
0000
0100
0010
0001
1000
0010
0000
,
0200
1000
0010
0301
0000
0000
0200
1000
,
0010
0301
0000
1000
0100
0010
0001
0000
,
1000
0000
0100
0000
1000
0100
1000
0100
,
0010
0001
0001
1000
1000
0100
0100
1000
,
2000
0000
3100
0010
0000
0001
0010
0100
,
0000
0001
0000
0100
0000
0100
1000
0000
,
0010
1000
0100
0010
0100
1000
0010
0100
,
0001
1000
0001
0010
0100
0010
0001
1000
,
0100
0100
0010
0001
0010
0000
0100
0010
,
0100
0000
1000
0010
0100
0001
2000
0000
,
0000
0000
0000
0000
0000
3000
0000
0000
0000
0000
0000
0000
0000
0000
0000
0000
;

//---------------dance-single - Huzure----------------
#NOTES:
     dance-single:
     Huzure:
     Beginner:
     1:
     0.086,0.149,0.011,0.000,0.000:
0000
0000
0000
0000
,
0000
0000
0000
0000
,
0000
0000
0000
0000
,
0000
0000
0000
0000
,
0001
0000
0000
0000
,
0001
0000
0000
0000
,
0100
0000
0000
0000
,
0010
0000
0000
0000
,
1010
0000
0000
0000
,
0010
0000
0000
0000
,
0001
0000
0000
0000
,
0000
0000
0000
0000
,
1000
0000
0000
0000
,
0100
0000
0000
0000
,
1000
0000
0000
0000
,
0100
0000
0000
0000
,
0010
0000
0001
0000
,
0010
0000
0010
0000
,
0100
0000
1000
0000
,
0001
0000
0100
0000
,
0001
0000
0000
0000
,
0000
0000
0000
0000
,
1000
0000
0000
0000
,
0000
0000
0000
0000
,
0100
0000
0000
0000
,
0000
0000
0000
0000
,
0100
0000
0000
0000
,
0010
0000
0000
0000
,
0001
0000
0000
0000
,
0100
0000
0000
0000
,
0001
0000
0000
0000
,
1000
0000
0000
0000
,
0010
0000
0000
0000
,
0010
0000
0000
0000
,
0100
0000
0000
0000
,
0100
0000
0000
0000
,
0001
0000
0000
0000
,
1000
0000
0000
0000
,
0100
0000
0000
0000
,
0010
0000
0000
0000
,
0001
0000
0000
0000
,
0010
0000
0000
0000
,
0100
0000
0000
0000
,
0010
0000
0000
0000
,
0001
0000
0000
1000
,
0000
0000
0000
0000
,
0010
0000
0000
0000
,
1000
0000
0000
0000
,
0001
0000
0000
0000
,
0010
0000
0000
0000
,
0100
0000
0000
0000
,
1000
0000
0000
0000
,
0001
0000
0100
0000
,
0010
0000
1000
1000
;

//---------------dance-single - Huzure----------------
#NOTES:
     dance-single:
     Huzure:
     Easy:
     4:
     0.364,0.453,0.089,0.178,0.000:
0000
0000
0000
0000
,
0000
0000
0000
0000
,
0000
0000
0000
0000
,
0000
0000
0000
0000
,
0000
0010
0100
0010
,
0001
1000
0010
1000
,
0001
0000
0202
0303
,
0202
0303
2020
3030
,
0010
0000
1000
0001
1000
0000
0010
0000
,
0100
0001
0010
0001
,
1000
0000
0100
0010
0000
0001
0010
0000
,
0100
0010
0000
0000
0001
0000
1000
0001
,
0100
0010
1000
0010
,
1000
0100
0010
0001
,
0010
0010
0001
1000
,
0100
0000
0100
0000
0010
0000
0001
1000
,
0001
0100
0010
0100
1000
0000
0100
0001
,
0100
0000
0010
0100
0001
0100
0002
0000
,
0003
1000
0100
0010
0100
0001
0100
1000
,
0100
0010
0001
1000
0100
0000
0110
0000
,
0020
0000
0000
0031
0000
0000
0200
0000
,
0000
0000
0310
0000
1000
0000
0001
1000
,
0002
0000
0000
1003
0000
0000
2000
0000
,
0000
0000
3100
0000
0010
0000
0010
0001
,
0200
0000
0000
0310
0000
0000
0020
0000
,
0000
1030
0001
0100
,
0001
0000
1000
0000
,
0100
0000
0010
0010
,
0001
1000
0100
0010
,
0100
0010
0001
0100
,
0010
0010
1000
1000
,
0001
0010
0100
0010
,
0001
0000
0000
0001
0100
0000
0000
0000
,
0010
1000
0001
1000
,
0100
0000
0000
0100
0010
0000
0000
0000
,
0001
0100
0010
0100
,
0000
0001
0001
0010
,
0010
0100
1000
0001
,
0100
0000
0000
0000
0010
0100
0000
0001
,
0000
1000
0100
1000
,
0110
0000
0000
0001
1000
0000
0000
0001
,
0010
0100
0010
0001
,
0000
0000
0100
0000
0010
0000
1000
0010
,
0000
1000
0010
1000
0000
0010
0100
0000
,
0001
0000
0000
0011
0000
0000
1000
0000
,
0000
1100
0000
0000
0100
0000
0100
0000
,
0011
0001
1000
0001
,
0100
0000
0010
0000
1000
0000
0100
1000
,
0100
0000
0010
0000
0001
0000
1000
0010
,
0000
0100
0000
0001
0000
0001
0010
0000
,
0200
0000
0300
0200
0000
1300
0000
0100
,
0000
0010
0000
0001
0100
0000
0001
0100
,
0001
1000
0100
0010
0001
0000
0100
0010
,
0100
0000
0010
1000
0100
0001
0020
0000
,
0000
0000
0000
0000
0000
0030
0000
0000
0000
0000
0000
0000
0000
0000
0000
0000
;

//---------------dance-single - Itsugo----------------
#NOTES:
     dance-single:
     Itsugo:
     Challenge:
     12:
     0.860,0.846,0.856,0.533,0.206: // measure 1
1000
0000
0010
0000
0100
0000
0001
0000
2000
0000
0000
3000
0100
0000
0010
0000
,  // measure 2
0002
0000
0000
0003
1000
0000
0010
0000
0100
0000
0001
0000
2000
0000
0000
0000
,  // measure 3
3100
0000
1000
0010
0100
0000
0001
0000
0010
0000
0100
0000
0010
0000
0001
0000
,  // measure 4
1000
0000
0010
0000
0100
0000
0001
0000
2000
0000
0000
3100
0010
0000
0001
0000
,  // measure 5
0011
0010
0001
0010
0001
1000
0001
1000
,  // measure 6
0001
0100
0010
1000
0100
0010
0100
1000
,  // measure 7
1100
0000
0000
0000
1001
0000
0001
0000
1000
0001
0100
0001
1000
0100
0010
0001
,  // measure 8
1000
0010
0100
0001
0100
0010
1000
0001
0010
0100
1000
0000
0100
0000
0010
0000
,  // measure 9
0110
0000
0010
0001
0011
0000
1001
0000
,  // measure 10
0101
0100
0010
0000
0110
0000
1010
0000
,  // measure 11
1001
0001
0010
0100
1000
0001
0010
0100
,  // measure 12
1000
0000
0100
0000
0010
0000
0001
0000
1000
0100
0010
0001
1000
0100
0010
0001
,  // measure 13
0011
0001
0001
1000
0010
0010
0100
0001
,  // measure 14
0001
1000
0100
0010
0010
0001
1000
1000
,  // measure 15
1001
0001
0001
0100
0010
0010
1000
0001
,  // measure 16
0001
1001
0101
0110
1010
1001
0011
0110
,  // measure 17
1200
1000
1000
1300
2001
0001
0001
3001
,  // measure 18
0201
0000
0010
0000
1000
0000
0310
0000
0120
0000
0001
0000
0100
1000
0030
0010
,  // measure 19
1010
0000
0010
1000
0100
0000
0010
0000
0110
0000
0010
0000
0001
0000
1000
0000
,  // measure 20
1001
0000
1000
0000
0010
0000
0100
0000
0110
0000
1001
0000
1000
0100
0010
0001
,  // measure 21
0022
0033
0001
2002
3003
0001
0202
0303
,  // measure 22
0100
0110
0000
1000
0001
0010
0100
1000
,  // measure 23
2200
3300
1000
2002
3003
1000
2020
3030
,  // measure 24
1000
0000
0010
0100
0001
0000
1000
0000
0100
0000
0100
0000
0010
0000
0010
0000
,  // measure 25
0220
0330
1000
2200
3300
0001
0202
0303
,  // measure 26
0001
0100
0010
1000
1010
0001
0101
1000
,  // measure 27
1100
0001
1001
1010
,  // measure 28
1000
0001
0010
0000
0011
0000
0010
0100
,  // measure 29
0110
0100
1000
0100
0001
0100
0010
0001
,  // measure 30
0100
0010
0001
0010
1000
0010
0100
0001
,  // measure 31
1000
0100
0010
0001
1000
0100
0010
0001
,  // measure 32
1000
0000
0100
0000
0010
0000
0001
0000
1000
0000
0100
0000
0010
0000
0001
0000
1000
0000
0100
0000
0010
0000
0001
0000
1000
0100
0010
0001
0000
0000
1000
0000
,  // measure 33
1001
0001
1000
0100
1100
1000
0100
0010
,  // measure 34
0012
0000
0000
0000
0203
0000
0000
0000
0320
0000
0000
0000
0032
0000
0000
0003
,  // measure 35
0011
0010
1000
0001
0101
0001
1000
0100
,  // measure 36
2100
0000
0000
0000
3200
0000
0000
0000
0302
0000
0000
0000
2003
0000
0000
3000
,  // measure 37
1001
1000
0010
0100
0010
0001
1000
0100
,  // measure 38
0010
0100
1000
0001
0010
1000
0010
0001
,  // measure 39
1000
0000
1001
0000
1010
1000
0000
1001
,  // measure 40
0000
0000
1000
0000
0100
0000
0010
0000
0001
0010
0100
1000
0001
0010
0100
1000
,  // measure 41
1100
1000
0001
0010
0011
0001
0010
0100
,  // measure 42
2100
0000
0000
0000
3002
0000
0000
0000
0203
0000
0000
0000
2300
0000
0000
3000
,  // measure 43
1100
1000
0100
0010
0001
0010
1000
0001
,  // measure 44
0100
0010
1000
0001
0010
0100
1000
0001
,  // measure 45
2002
3003
0001
0101
0000
0001
2002
3003
,  // measure 46
1000
0000
1100
0000
0000
0000
0100
0000
0110
0000
0010
0000
0001
1000
0010
0100
,  // measure 47
0001
0100
0010
1000
0001
0010
0100
1000
,  // measure 48
1100
1001
0101
0110
1010
0101
0011
1100
,  // measure 49
0110
0010
0001
1000
0010
0100
0001
0100
,  // measure 50
0010
1000
0100
1000
0010
0100
0001
0010
,  // measure 51
0001
1000
0010
0100
0001
1000
0100
0010
,  // measure 52
0001
0011
0011
0011
0011
0001
1000
0010
,  // measure 53
0100
0001
1000
0100
0020
0030
0001
1000
,  // measure 54
0020
0030
1000
0200
0020
0002
2000
0000
,  // measure 55
0000
0000
0000
3333
0000
0000
0000
0000
;
