#TITLE:カゲロウデイズ;
#SUBTITLE:メカクシティデイズ;
#ARTIST:自然の敵P feat. 初音ミク;
#TITLETRANSLIT:Kagerou Days;
#SUBTITLETRANSLIT:Mekakucity Days;
#ARTISTTRANSLIT:Shizen No Teki-P feat. Hatsune Miku;
#GENRE:Kagerou Project;
#CREDIT:Gpop & Itsugo;
#BANNER:Kagerou Days - bn.png;
#BACKGROUND:Kagerou Days - bg.png;
#LYRICSPATH:Kagerou Daze.lrc;
#CDTITLE:Collab.png;
#MUSIC:Kagerou Daze.ogg;
#OFFSET:-0.257;
#SAMPLESTART:57.869;
#SAMPLELENGTH:19.199;
#SELECTABLE:YES;
#DISPLAYBPM:200.000;
#BPMS:0.000=200.000,191.000=300.000,192.000=200.000,319.000=300.000,320.000=200.000;
#STOPS:191.000=0.100
,319.000=0.100
;
#BGCHANGES:0.000=Kagerou Days.avi=1.000=1=0=0=StretchNoLoop==CrossFade==,
99999=-nosongbg-=1.000=0=0=0 // don't automatically add -songbackground-
;
#KEYSOUNDS:;

//---------------dance-single - Itsugo----------------
#NOTES:
     dance-single:
     Itsugo:
     Hard:
     9:
     0.776,0.830,0.354,0.375,0.028:
0000
0000
0000
0000
,
0000
0000
0000
0000
,
0000
0000
0000
0000
,
0000
0000
0000
0000
,
1000
0010
1000
0010
1000
0010
1000
0001
,
0010
0000
0000
0000
,
0001
0010
0001
0010
0001
0010
0001
0010
,
0001
1000
0001
0000
,
1001
0000
1000
0010
1000
0000
0001
0000
,
0010
0000
0100
0010
0100
0000
1000
0000
,
0001
0000
0100
0001
0100
0000
0010
0000
,
1000
0000
0001
1000
0001
0000
0010
0000
,
0011
0000
0001
0010
0001
0000
1000
0000
,
0100
0000
0010
0100
0010
0000
0001
0000
,
1000
0000
0010
0100
0001
0000
1000
0000
,
0100
0000
0010
0001
1000
0000
0100
0000
,
1100
0000
1000
0100
0010
0100
1000
0000
,
0001
0000
0100
0010
1000
0000
1000
0010
,
0200
0000
0300
0001
2000
0000
3000
0100
,
0020
0000
0030
0001
1000
0100
1000
0001
,
0100
0000
0101
0000
0110
0000
0010
1000
,
0010
0001
0010
1000
0002
0000
1003
0000
,
1100
0000
0011
0000
0110
0000
0100
1000
,
0100
0001
0100
1000
0001
0000
M001
0000
,
1001
1000
0010
0200
,
0301
0000
1000
0100
0010
0000
0010
0100
,
2000
0000
3000
0001
0200
0000
0300
0010
,
0002
0000
0003
0010
1000
0001
1000
0010
,
0100
0000
0110
0000
0101
0000
0001
0100
,
0010
0100
0001
0010
0100
0000
1000
0000
,
1100
0000
1000
0100
0010
0001
1000
0010
,
0100
0001
0100
0010
1000
0000
0010
0100
,
0002
0100
0100
0100
,
0103
0000
0100
0001
0100
0001
0100
0001
,
2000
0100
0100
0100
,
3100
0000
0100
1000
0100
0010
0100
1000
,
0002
0000
0203
0000
0320
0000
1030
0010
,
1000
0000
0010
0100
0010
0000
0100
0001
,
1000
0001
0100
0010
2000
0000
0010
0000
,
0010
0010
3010
0100
,
0102
0100
0000
1000
,
1003
0000
1000
0010
1000
0001
1000
0100
,
2100
0100
0000
0001
,
3001
0000
0001
1000
0001
0010
0001
1000
,
0020
0000
0230
0000
0302
0000
0103
0010
,
1000
0000
0100
0010
0001
0000
0001
1000
,
0001
1000
0M00
1000
0001
0M00
0001
M010
,
000M
0010
0100
0000
1001
0000
MMMM
0000
,
1001
0000
1000
0010
0100
0010
1000
0100
,
0010
0100
1000
0001
0100
0000
0010
0001
,
0010
0000
0100
0001
1000
0000
1001
0000
,
1000
0100
0010
0001
2000
0000
3000
0000
,
1001
0000
0001
0100
0010
0001
0010
0100
,
0001
0000
1000
0100
0001
0100
0010
0001
,
1000
0000
0010
0100
0001
1000
0100
0010
,
0002
0000
2003
0000
3001
0100
0010
0000
,
0110
0000
0010
1000
0100
0010
0100
1000
,
0100
1000
0001
0100
0101
0000
0001
1000
,
0200
1300
0010
1010
,
1000
0010
0100
0010
2000
0000
3001
0000
,
1001
0000
0001
0010
1000
0010
0100
1000
,
0001
0000
1000
0010
0100
1000
0100
0001
,
2000
3200
0302
0203
,
0310
0100
0010
0001
0011
0000
1100
0000
,
1001
0000
0001
0000
0100
0010
1000
0200
,
0000
1300
0010
0200
0000
0301
0010
1000
,
0010
0100
1000
0001
0100
0010
0001
0010
,
1000
0002
0000
0023
0000
0130
1000
0020
,
0000
0000
1030
0010
1000
0000
0010
0000
0100
0000
0001
0000
0100
0001
0100
0000
,
0001
2000
0000
3200
0000
0310
0001
2000
,
0000
0000
0000
3010
0200
0000
0000
0301
2000
0000
0000
3100
0010
0000
0001
0000
,
0010
0001
0010
0000
0001
0000
1000
0001
1000
0000
0010
0000
1000
0010
1000
0000
,
0010
0100
0001
1000
0100
0010
0001
1000
,
0010
0100
0001
0100
0010
1000
0001
0010
,
0100
1000
0001
0100
0010
0100
0001
1000
,
0100
0000
0010
0000
0100
0000
2000
0000
0000
0000
0000
3000
0000
0000
1000
0000
,
0100
0010
0001
0000
1000
0000
1001
0000
,
0001
0010
0100
1000
0001
0100
0010
1000
,
0000
0010
0100
0001
1000
0100
0010
0001
,
1000
0000
1001
0000
0001
1000
000M
0000
,
1001
0000
0001
0100
0010
0100
0001
0010
,
0100
0010
0001
1000
0010
0000
0100
1000
,
0100
0000
0010
1000
0001
0000
1001
0000
,
0001
0010
0100
1000
0002
0000
0003
0000
,
1001
0000
1000
0010
0100
1000
0100
0010
,
1000
0000
0001
0010
1000
0010
0100
1000
,
0001
0000
0100
0010
1000
0001
0010
0100
,
2000
0000
3002
0000
1003
0010
0100
0000
,
0110
0000
0100
0001
0010
0100
0010
0001
,
0010
0001
1000
0010
1010
0000
1000
0001
,
0020
0031
0100
0101
,
0001
0100
0010
0100
0002
0000
1003
0000
,
1001
0000
1000
0100
0001
0100
0010
0001
,
1000
0000
0001
0100
0010
0001
0010
1000
,
0002
0023
2030
3020
,
0130
0010
0100
1000
1100
0000
0011
0000
,
1001
0000
1000
0001
1000
0000
0010
1000
,
0010
0100
0010
1000
0010
0100
0010
1000
,
0001
0000
1000
0001
1000
0000
0001
0010
,
0001
1000
0001
0010
0001
1000
0001
0010
,
0100
0000
0010
0100
0010
0000
0100
1000
,
0100
0010
0100
1000
0100
0010
0100
1000
,
0001
0000
1000
0001
1000
0000
0001
0100
,
0001
1000
0001
0100
0001
0000
0010
0000
,
0011
0000
0001
0000
0010
0000
0100
1000
,
0001
0000
1000
0001
0100
0000
0001
0100
,
0020
0000
0030
1000
0002
0000
0003
0010
,
0200
0000
0300
1000
0100
0010
0001
1000
,
0010
0000
1010
0000
0110
0000
0010
0100
,
0010
0100
0010
0100
0010
0000
1000
0000
,
0001
0000
1001
0000
0011
0000
0001
0010
,
0001
0010
0001
0010
0001
0000
1000
0000
,
1001
0000
1000
0010
1000
0000
0010
0000
,
0100
0000
0100
0001
1000
0000
0001
1000
,
0200
0000
0300
0010
0002
0000
0003
1000
,
0020
0000
0030
0100
0001
0100
0010
1000
,
0001
0000
1001
0000
1010
0000
1000
0010
,
1000
0010
1000
0010
1000
0000
0001
0000
,
1001
0000
0011
0000
0110
0000
0100
1000
,
1100
0011
1001
0000
;

//---------------dance-single - Itsugo----------------
#NOTES:
     dance-single:
     Itsugo:
     Beginner:
     2:
     0.098,0.166,0.104,0.007,0.000:
0000
0000
0000
0000
,
0000
0000
0000
0000
,
0000
0000
0000
0000
,
0000
0000
0000
0000
,
0000
0000
0000
0000
,
0000
0000
0000
0000
,
0000
0000
0000
0000
,
0000
0000
0000
0000
,
1010
0000
0000
0000
,
0000
0000
0000
0000
,
1100
0000
0000
0000
,
0000
0000
0000
0000
,
0011
0000
0000
0000
,
0000
0000
0000
0000
,
0101
0000
0000
0000
,
0000
0000
0000
0000
,
1001
0000
0000
0000
,
0000
0000
0000
0000
,
0001
0000
0000
0000
,
0000
0000
0000
0000
,
0001
0000
0000
0000
,
0000
0000
0000
0000
,
0010
0000
0000
0000
,
0000
0000
0000
0000
,
0010
0000
0000
0000
,
0000
0000
0000
0000
,
0100
0000
0000
0000
,
0000
0000
0000
0000
,
0100
0000
0000
0000
,
0000
0000
0000
0000
,
1000
0000
0000
0000
,
0000
0000
0000
0000
,
1000
0000
0000
0000
,
0000
0000
0000
0000
,
0001
0000
0000
0000
,
0000
0000
0000
0000
,
0100
0000
0000
0000
,
0000
0000
0000
0000
,
0010
0000
0000
0000
,
0000
0000
0000
0000
,
1000
0000
0000
0000
,
0000
0000
0000
0000
,
0100
0000
0000
0000
,
0000
0000
0000
0000
,
0010
0000
0000
0000
,
0000
0000
0000
0000
,
0001
0000
0000
0000
,
0000
0000
0000
0000
,
0011
0000
0000
0000
,
0001
0000
0000
0000
,
1000
0000
0000
0000
,
0010
0000
0000
0000
,
1010
0000
0000
0000
,
1000
0000
0000
0000
,
0100
0000
0000
0000
,
0010
0000
0000
0000
,
0110
0000
0000
0000
,
0010
0000
0000
0000
,
0001
0000
0000
0000
,
0100
0000
0000
0000
,
0101
0000
0000
0000
,
0001
0000
0000
0000
,
0100
0000
0000
0000
,
0010
0000
0000
0000
,
0110
0000
0000
0000
,
1000
0000
0000
0000
,
0100
0000
0000
0000
,
1000
0000
0000
0000
,
0010
0000
0000
0000
,
0100
0000
0000
0000
,
0001
0000
0000
0000
,
0010
0000
0000
0000
,
0001
0000
0000
0000
,
1000
0000
0000
0000
,
0010
0000
0000
0000
,
0100
0000
0000
0000
,
0001
0000
0000
0000
,
1000
0000
0000
0000
,
0100
0000
0000
0000
,
0010
0000
0000
0000
,
0110
0000
0000
0000
,
0100
0000
0000
0000
,
1000
0000
0000
0000
,
0001
0000
0000
0000
,
1001
0000
0000
0000
,
0001
0000
0000
0000
,
0100
0000
0000
0000
,
0010
0000
0000
0000
,
0110
0000
0000
0000
,
0010
0000
0000
0000
,
1000
0000
0000
0000
,
0001
0000
0000
0000
,
1001
0000
0000
0000
,
0001
0000
0000
0000
,
0010
0000
0000
0000
,
0100
0000
0000
0000
,
0110
0000
0000
0000
,
0100
0000
0000
0000
,
0000
0000
0000
0000
,
1000
0000
0000
0000
,
0000
0000
0000
0000
,
0010
0000
0000
0000
,
0000
0000
0000
0000
,
0100
0000
0000
0000
,
0001
0000
0000
0000
,
0000
0000
0000
0000
,
0001
0000
0000
0000
,
0000
0000
0000
0000
,
1000
0000
0000
0000
,
0000
0000
0000
0000
,
1000
0000
0000
0000
,
0000
0000
0000
0000
,
0100
0000
0000
0000
,
0000
0000
0000
0000
,
0100
0000
0000
0000
,
0000
0000
0000
0000
,
0010
0000
0000
0000
,
0000
0000
0000
0000
,
0010
0000
0000
0000
,
0002
0000
1003
0000
;

//---------------dance-single - Itsugo----------------
#NOTES:
     dance-single:
     Itsugo:
     Easy:
     4:
     0.241,0.332,0.160,0.007,0.000:
0000
0000
0000
0000
,
0000
0000
0000
0000
,
0000
0000
0000
0000
,
0000
0000
0000
0000
,
0000
0000
0000
0000
,
0000
0000
0000
0000
,
0000
0000
0000
0000
,
0000
0000
0000
0000
,
1001
0000
1000
0000
,
0001
0000
0010
0000
,
0100
0000
1000
0000
,
0010
0000
0100
0000
,
0001
0000
1000
0000
,
0100
0000
0010
0000
,
0100
0000
1000
0000
,
0001
0000
0100
0000
,
0101
0000
0100
0000
,
0001
0000
1000
0000
,
0100
0000
0010
0000
,
0100
0000
1000
0000
,
0001
0000
0010
0000
,
0001
0000
0100
0000
,
0010
0000
1000
0000
,
0010
0000
0100
0000
,
0110
0000
0100
0000
,
0001
0000
1000
0000
,
0100
0000
0010
0000
,
0001
0000
0100
0000
,
0010
0000
1000
0000
,
0010
0000
0100
0000
,
0001
0000
1000
0000
,
0100
0000
0010
0000
,
0110
0000
0000
0000
,
0100
0000
0000
0000
,
1000
0000
0000
0000
,
1000
0000
0000
0000
,
0010
0000
0000
0000
,
0010
0000
0000
0000
,
0100
0000
0000
0000
,
0100
0000
0000
0000
,
0110
0000
0000
0000
,
0100
0000
0000
0000
,
0001
0000
0000
0000
,
1000
0000
0000
0000
,
0100
0000
0000
0000
,
0010
0000
0000
0000
,
0001
0000
0001
0000
,
0001
0000
1000
0000
,
1001
0000
0001
0000
,
0100
0000
0010
0000
,
0110
0000
0010
0000
,
1000
0000
0010
0000
,
1010
0000
0010
0000
,
1000
0000
0001
0000
,
1001
0000
0001
0000
,
0010
0000
0100
0000
,
0110
0000
0010
0000
,
0001
0000
1000
0000
,
1001
0000
1000
0000
,
0100
0000
0010
0000
,
0110
0000
0010
0000
,
0001
0000
1000
0000
,
1001
0000
1000
0000
,
0010
0000
0100
0000
,
0110
0000
0100
0100
,
0001
0000
1000
1000
,
0010
0010
0100
0100
,
0001
0000
1000
0000
,
0100
0100
0010
0010
,
0001
0001
1000
0000
,
0010
0010
0100
0100
,
0001
1000
0100
0010
,
0001
0001
0010
0010
,
0100
0100
1000
1000
,
0001
1000
0010
0100
,
0001
1000
0100
0000
,
1000
1000
0010
0000
,
0100
0100
0001
0000
,
1000
1000
0100
0100
,
0010
0010
0002
0003
,
0011
0000
0001
0000
,
1000
0000
0010
0000
,
1010
0000
1000
0000
,
0001
0000
0100
0000
,
0101
0000
0001
0000
,
1000
0000
0100
0000
,
1100
0000
0100
0000
,
0010
0000
0001
0000
,
0011
0000
0001
0000
,
0010
0000
0100
0000
,
0110
0000
0010
0000
,
0001
0000
1000
0000
,
1001
0000
1000
0000
,
0001
0000
0010
0000
,
0011
0000
0010
0000
,
0100
0000
1000
0000
,
1100
0000
1000
0000
,
1000
0000
0001
0000
,
0001
0000
0100
0000
,
0100
0000
0010
0000
,
0010
0000
1000
0000
,
1000
0000
0001
0000
,
0001
0000
0010
0000
,
0010
0000
0100
0000
,
0100
0000
0000
0000
,
1000
0000
0000
0000
,
0010
0000
0000
0000
,
0100
0000
0000
0000
,
0001
0000
0000
0000
,
0001
0000
0000
0000
,
0010
0000
0000
0000
,
0100
0000
0000
0000
,
1000
0000
0000
0000
,
0001
0000
0000
0000
,
0100
0000
0000
0000
,
0010
0000
0000
0000
,
1000
0000
0000
0000
,
1000
0000
0000
0000
,
0001
0000
0000
0000
,
0010
0100
1000
0000
;

//---------------dance-single - Itsugo----------------
#NOTES:
     dance-single:
     Itsugo:
     Medium:
     7:
     0.546,0.664,0.417,0.014,0.000:
0000
0000
0000
0000
,
0000
0000
0000
0000
,
0000
0000
0000
0000
,
0000
0000
0000
0000
,
1000
0000
1000
0010
,
1010
0000
0000
0000
,
0001
0000
0100
0001
,
0101
1000
1100
0000
,
0011
0010
0001
1000
,
0100
1000
0010
0100
,
0001
0100
0010
1000
,
0001
0010
0100
1000
,
1100
0100
0010
0100
,
1000
0001
0100
0010
,
1000
0100
0010
0001
,
0010
0100
0010
0001
,
0011
0000
0001
1000
,
1001
0000
1000
0010
,
1010
0000
0100
0001
,
0101
0000
1000
0010
,
1010
0010
0010
1000
,
0100
0001
0100
1000
,
0001
0100
0100
0001
,
0010
1000
0010
0001
,
0011
0000
0001
1000
,
1001
0000
1000
0010
,
1010
0000
0010
0100
,
0110
0000
0100
0001
,
0101
0100
0100
0001
,
1000
0100
0001
0100
,
1000
1000
0010
0010
,
0100
0001
0010
0100
,
0110
0010
0000
0010
,
0000
0010
0001
1000
,
0010
0100
0000
0100
,
0000
0100
0001
0010
,
0100
1000
0010
0100
,
0001
0100
0010
1000
,
0100
0010
0001
0010
,
0000
0100
0000
1000
,
1100
1000
1000
1000
,
0001
0100
0010
0100
,
0001
0010
0010
0010
,
0010
0100
1000
0100
,
0010
0001
0100
0010
,
1000
0100
0010
0001
,
1000
1000
0000
0010
0010
0000
0100
0100
,
0000
0001
0001
0000
0101
0000
0000
0000
,
1010
0000
0010
0000
1000
0000
0001
0010
,
0100
0000
1000
0000
0100
0000
1000
0001
,
0100
0010
1000
0010
,
0100
0001
1000
0100
0020
0000
0000
0030
,
0011
0000
0001
0000
1000
0000
0010
0100
,
0001
0000
1000
0000
0100
0000
0010
0001
,
1000
0000
0010
0000
0001
0000
0010
0100
,
0001
0000
1000
0000
0001
1000
0100
0000
,
1100
1000
0010
0100
,
0001
0000
1000
0001
1000
0000
0100
0000
,
1100
0100
1000
0010
,
0100
0000
0001
0100
0001
0000
1000
0000
,
1001
0000
0001
0000
1000
0000
0010
1000
,
0010
0000
0100
0000
0001
0000
0100
0001
,
0100
0001
0010
0100
,
1000
0100
0010
0001
1000
0000
1001
0000
,
0110
0000
0010
0000
1000
0010
1000
0010
,
0000
0100
0001
0100
0000
0001
1000
0100
,
1000
0010
0100
0001
,
0100
0001
0000
0101
0000
0001
1000
0100
,
0000
0100
1000
0000
0010
0000
0100
0000
,
0001
0010
0100
1000
,
0100
0100
1000
0010
,
0100
0001
0100
0010
,
1000
0010
1000
0010
1000
0001
1000
0001
,
1000
0001
0010
0001
0010
0100
1000
0010
,
0100
0001
1000
0000
0100
0000
0010
0000
,
0100
1000
0001
0100
,
0101
0101
1000
0100
,
1100
1100
1000
0010
,
0100
0001
0010
0100
,
0110
0011
1010
MMMM
,
0101
0000
0100
0000
0001
0000
1000
0100
,
0010
0000
0001
0000
0010
0000
0001
1000
,
0010
0100
0001
0100
,
0010
1000
0001
0010
0200
0000
0000
0300
,
1100
0000
1000
0000
0001
0000
0100
0010
,
1000
0000
0001
0000
0010
0000
0100
1000
,
0001
0000
0100
0000
1000
0000
0100
0010
,
1000
0000
0001
0000
1000
0001
0010
0000
,
0011
0001
0100
0010
,
1000
0000
0001
1000
0001
0000
0010
0000
,
0011
0010
0001
0100
,
0010
0000
1000
0010
1000
0000
0001
0000
,
1001
0000
1000
0000
0001
0000
0100
0001
,
0100
0000
0010
0000
1000
0000
0010
1000
,
0010
1000
0100
0010
,
0001
0010
0100
1000
0001
0000
1001
0000
,
1010
0000
0010
0000
1000
0000
0010
1000
,
0010
0000
1000
0010
1000
0000
0001
0000
,
1001
0000
0001
0000
0010
0000
0001
0010
,
0001
0000
0010
0001
0010
0000
0100
0000
,
0110
0000
0100
0000
1000
0000
0001
0100
,
0010
0000
1000
0001
0010
0000
0100
0000
,
0110
0000
0010
0000
0001
0000
0010
0100
,
1000
0000
0010
0100
0001
0000
1000
0000
,
1001
1000
0001
0100
,
0101
0001
0100
0010
,
0110
0100
0101
0001
,
1001
1000
1100
0100
,
0110
0010
0001
0100
,
1000
0100
0001
1000
,
1001
1000
0100
0001
,
0100
1000
0001
0100
,
0101
0100
0000
0100
,
0110
0010
0000
0010
,
1010
1000
0000
1000
,
1001
0001
0000
0001
,
0011
0010
0100
1000
,
0100
0010
0001
1000
,
1001
1000
0010
0100
,
0110
0110
1001
0000
;

//---------------dance-single - Gpop----------------
#NOTES:
     dance-single:
     Gpop:
     Challenge:
     11:
     0.946,0.998,0.674,0.618,0.118:
0000
0000
0000
0000
,
0000
0000
0000
0000
,
0000
0000
0000
0000
,
0000
0000
0000
0000
,
1000
1000
0001
0100
0010
0010
1000
0001
,
0010
0000
0100
1000
0100
1000
0002
0000
,
0103
0100
0010
1000
0001
0001
0010
0100
,
1000
1100
0022
0033
,
1000
0010
1000
0001
0010
0100
0010
0001
,
0100
0010
1000
0001
0010
0001
1000
0010
,
1000
1000
0010
0100
0001
0010
0100
1000
,
0100
0010
0001
0100
0010
1000
0010
0100
,
0101
0001
1000
0100
1000
0001
0100
0001
,
0010
0100
1000
0010
0100
0001
0100
0010
,
1000
1000
0010
1000
0001
1000
0100
0010
,
0001
0010
0110
0100
1100
1000
1001
0000
,
1010
0000
0010
0100
0001
0010
2000
0000
,
3020
0000
0031
0100
2000
0000
3100
0001
,
0020
0000
0000
0130
0020
0000
0000
0031
,
0020
0000
0000
0130
1000
0001
0100
0010
,
2000
0000
3002
0000
0203
0000
0310
1000
,
0100
0010
0001
0010
0000
0100
1000
0001
,
0200
0000
0320
0000
2030
0000
3001
0010
,
0001
0001
0100
0010
2000
0000
3002
0000
,
0013
0200
2300
3020
,
0230
0000
0301
0010
2000
0000
3010
0001
,
0200
0000
0000
0310
0200
0000
0000
0301
,
0200
0000
0000
0310
1000
0001
0010
0100
,
2000
0000
3200
0000
0320
0000
0031
0100
,
0001
1000
0010
0100
0001
0100
0010
1000
,
0002
0000
0013
0100
1000
0010
1000
0100
,
0010
0000
0001
1000
0001
0000
0100
0000
0010
0000
0000
0000
1000
0000
0001
0000
,
0020
0000
0100
0000
0100
0030
0100
0000
,
0100
1000
0001
0100
0010
1000
0010
0100
,
0002
1000
1000
1003
,
1000
0100
0010
0100
0010
0001
1000
0010
,
0200
0000
0302
0000
0023
0000
0130
1000
,
0020
0000
0130
0001
2000
0000
3100
0010
,
0100
0010
0001
2000
0010
0000
0010
3000
,
0010
0000
0100
0000
0001
0000
1000
0000
0001
0000
0000
1000
0001
0000
0100
0000
,
2010
0010
0010
3010
,
0010
0100
0001
0010
0001
1000
0100
0010
,
0002
1000
1000
1003
,
1000
0010
1000
0100
0010
0001
0100
0010
,
2000
0000
3020
0000
0230
0000
0310
1000
,
0200
0000
0310
0001
2000
0000
3001
0100
,
0110
0110
0000
1010
1010
0000
0011
0011
,
0000
1001
1001
0000
2200
0000
3300
0000
,
10M1
0000
1M01
1000
001M
0100
M001
0010
,
010M
0010
0M01
1000
1M10
0000
011M
0100
,
M001
0000
1M01
0001
M010
0000
011M
0000
,
11M0
1000
00M1
0100
011M
0000
M110
0000
,
101M
0000
1M10
1000
0M01
0010
010M
1000
,
1M10
0000
01M1
0001
M010
0001
10M0
0100
,
110M
0000
M110
0010
M001
0100
001M
1000
,
1M01
0000
0000
0000
011M
0000
0000
0000
10M1
0000
1000
0100
0010
0001
0010
0001
,
1M00
0000
101M
0010
M100
0001
0M10
0001
,
1M00
0010
M100
0001
0M11
0000
M110
0100
,
100M
0000
10M1
0001
M100
0000
011M
0000
,
1M10
1000
0M01
0010
M011
0000
0M11
0000
,
10M1
0000
101M
0010
M100
0010
1M00
0001
,
M011
0000
011M
0100
10M0
0001
M100
0010
,
101M
0000
1M01
0000
M011
0000
011M
0100
,
M010
0001
M100
0010
101M
0100
10M1
0000
,
1100
0000
0000
0000
0002
0000
0000
0000
0103
0000
0010
0000
1000
0001
0020
0000
,
0000
0000
0130
1000
0001
0100
0020
0000
0000
0000
1030
0000
0100
0000
1000
0010
,
0100
0000
0001
0000
0010
0001
1000
0000
0010
0000
0100
0000
0001
0010
0100
0000
,
1000
0010
0000
0200
0000
0301
0010
0002
,
0000
0000
1003
0100
0010
0100
0010
0001
0010
0100
1000
0001
0100
0001
1000
0010
,
0100
0002
0000
0023
0000
0130
1000
0002
,
0000
0000
0000
1003
0010
0000
0000
0010
0100
0000
0001
1000
0100
0000
0010
0001
,
1000
0000
0010
0100
0010
1000
0001
0010
0100
0010
0001
1000
0010
0100
0001
1000
,
0100
0100
0010
0001
1000
1000
0010
0100
,
0002
0000
0013
0100
1000
1000
0001
0100
,
0010
1000
0001
1000
0100
0010
0100
0010
,
0001
1000
0020
0200
0000
0000
0330
0001
,
1000
0100
0020
0000
0031
1000
0100
2000
,
0000
3010
0200
0000
0301
1000
0100
0020
,
0000
0130
1000
0010
0100
0010
0100
0010
,
1000
0000
0001
0000
0010
0000
0100
1000
0001
0000
0100
0000
M00M
0000
0000
0000
,
1MM1
0000
101M
0010
M100
0001
M010
0100
,
M010
0001
1M00
0010
011M
0000
M101
0000
,
10M1
0000
110M
0100
M010
0000
0M11
0001
,
1M00
0010
1M00
0001
M011
0000
0M11
0000
,
M110
0000
110M
1000
00M1
0100
001M
1000
,
11M0
0000
011M
0010
0M01
1000
001M
0100
,
M101
0000
10M1
1000
0M01
0010
010M
1000
,
1M10
0000
0000
0000
M101
0000
0001
0000
10M0
0000
0100
0010
0001
0010
0100
1000
,
00M1
0000
1M01
1000
001M
0100
001M
1000
,
010M
0010
0M01
1000
101M
0000
1M01
0001
,
M010
0000
011M
0100
10M0
0000
1M01
0000
,
01M1
0100
M001
0010
011M
0000
M110
0000
,
11M0
0000
1M01
0001
01M0
0001
M010
0100
,
110M
0000
1M10
0010
010M
0010
1M00
0001
,
M011
0000
011M
0000
11M0
0000
1M01
0001
,
M100
0010
010M
0010
1M10
0000
10M1
0000
,
1100
0100
0010
0100
1000
0001
0100
0001
,
1000
0100
0010
0001
0100
0010
1000
0010
,
0100
0100
0001
0100
0001
0010
0100
1000
,
0010
0100
0001
0100
0010
1000
0100
0010
,
0011
0001
1000
0010
1000
0001
0010
0001
,
0100
0010
1000
0100
0010
0001
0100
0001
,
1000
1000
0100
0010
0100
0010
0001
0010
,
0100
1000
0010
0100
0101
0000
1010
0000
,
1001
0000
2000
0000
3200
0000
1300
0010
,
0002
0000
0013
0100
0002
0000
0103
0010
,
2000
0000
0000
3010
2000
0000
0000
3100
,
2000
0000
0000
3001
0010
0100
1000
0001
,
0020
0000
0032
0000
0203
0000
0310
1000
,
0001
0010
0001
2000
0000
3100
0010
0100
,
2000
0000
3020
0000
0230
0000
0301
0010
,
0001
1000
0010
0100
0002
1000
1003
0000
,
1100
0000
0100
0010
0200
0000
0302
0000
,
0103
0000
1000
0010
0001
0000
0010
1000
,
0002
0000
0000
0013
0002
0000
0000
0103
,
0002
0000
0000
1003
0010
0100
0010
1000
,
0200
0000
0320
0000
0032
0000
1003
0010
,
1000
0100
0010
0001
2000
0000
3002
0000
,
0103
0000
0020
0000
2030
0000
3001
0010
,
0110
0000
0100
0000
1100
0000
1000
0001
0200
0000
0000
0000
0300
0000
0000
0000
;
