#TITLE:紅蓮の弓矢;
#SUBTITLE:進撃の巨人;
#ARTIST:Linked Horizon;
#TITLETRANSLIT:Guren no Yumiya;
#SUBTITLETRANSLIT:Shingeki no Kyojin;
#ARTISTTRANSLIT:Linked Horizon;
#GENRE:Anime;
#CREDIT:Grc-009 & Itsugo15;
#BANNER:Guren no Yumiya-bn.png;
#BACKGROUND:Guren no Yumiya-bg.png;
#LYRICSPATH:Guren no Yumiya.lrc;
#CDTITLE:Collab.png;
#MUSIC:Guren no Yumiya.mp3;
#OFFSET:-0.980;
#SAMPLESTART:46.940;
#SAMPLELENGTH:22.120;
#SELECTABLE:YES;
#LISTSORT:;
#BPMS:0.000=180.640;
#STOPS:;
#BGCHANGES:-2.890=Guren no Yumiya.avi=1.000=0=0=0,
268.000=Guren no Yumiya-bg.png=1.000=1=0=0,
99999=-nosongbg-=1.000=0=0=0 // don't automatically add -songbackground-
;
#ATTACKS:;

//---------------dance-single - Challenge Itsugo----------------
#NOTES:
     dance-single:
     Challenge Itsugo:
     Challenge:
     10:
     0.865,0.874,0.783,0.467,0.136:
0000
0000
0000
0000
,
0000
0000
0000
0000
0000
0000
1000
0010
,
1010
1000
0001
0100
0101
0001
1000
0100
,
1100
0220
0330
2200
0000
3300
1000
0100
,
1100
1000
0001
0100
0101
0002
0003
2000
,
3000
0200
0000
0020
0000
0330
0110
0010
,
0100
1000
1100
0100
1000
0010
1010
1000
,
0001
2002
3003
2002
0000
3003
1001
1000
,
0001
0010
0011
0001
1000
1001
0000
1010
,
0000
1001
0000
0011
0000
0001
0010
0100
,
1000
0100
0010
0001
1000
0100
0010
0000
,
0001
0000
0000
0000
1000
0000
0000
0000
0010
0000
1000
0010
1000
0000
0000
0000
,
0001
0010
0100
0110
,
0100
0000
0000
0000
1000
0000
0000
0000
0001
0000
1000
0001
1000
0000
0000
0000
,
0001
0000
1000
0010
1000
0001
1000
0010
1000
0001
1000
0010
0100
0000
0000
0000
,
0001
0000
0000
0000
1000
0000
0000
0000
0100
0000
1000
0100
1000
0000
0000
0000
,
0100
0010
0001
0011
,
0001
0000
0000
0000
1000
0000
0000
0000
0010
0000
1000
0010
1000
0000
0000
0000
,
0001
0000
0010
0200
0000
0000
1300
0001
,
0100
0000
0001
0000
1000
0000
0001
0000
0100
0000
0001
1000
0001
0000
0010
0000
,
0100
0000
0010
0001
0010
0000
0100
0010
0100
0000
1000
0100
1000
0000
0100
0000
,
1000
0000
0001
0000
0100
0000
0010
0000
1000
0000
0010
1000
0010
0000
0100
0000
,
0001
0000
0100
0001
0100
0000
0001
1000
0001
0000
1000
0100
1000
0000
0100
0000
,
0010
0000
0001
0000
1000
0000
0010
0000
0100
0000
0001
0100
0001
0000
1000
0000
,
0100
0000
1000
0100
1000
0000
0100
0010
0100
0000
0010
0001
0010
0000
0001
0000
,
1000
0000
0010
0100
0001
0000
0100
0000
0010
1000
0001
0000
0010
0000
0100
1000
,
0100
0020
0000
0032
0000
0003
0011
0001
,
1000
0010
1000
0001
0010
0100
0110
0000
,
0110
0000
0100
1000
0001
0100
0101
0000
,
1000
0100
1100
0000
0001
0010
0011
0000
,
1000
0010
1010
1000
0001
1001
0000
0001
,
0010
0100
0010
0001
1000
0001
0100
0010
,
1000
1010
0000
1010
0000
1000
0001
0100
,
0001
1000
0100
1000
0010
0100
0001
1000
,
0100
0010
0001
0100
0001
1000
1001
0001
,
1000
0010
0100
0010
1000
0100
1000
0001
,
0100
0001
1000
0001
0010
0100
0110
0010
,
0001
1000
0010
0100
0001
0101
0001
1000
,
0100
1100
0000
2002
0000
3003
1001
1000
,
0010
0100
0001
0100
0010
1000
0001
0010
,
0100
0010
0001
1000
0100
0010
0110
0010
,
0100
1000
0010
1000
0001
1001
0000
0202
,
0000
0303
0101
0000
1010
0000
1001
1000
,
0001
0100
0010
0100
0001
0010
0001
1000
,
0010
1000
0001
1000
0100
0010
0110
0100
,
1000
0001
0100
0010
1000
1010
1000
0001
,
0010
0011
0000
2002
0000
3003
1001
0001
,
0100
0010
1000
0010
0100
0001
1000
0100
,
0010
0100
1000
0001
0010
0100
0220
0000
,
0000
0000
0000
0000
0000
0000
0000
0330
0100
0000
0010
0000
0001
0000
0100
0000
,
0101
0001
1000
0010
1010
1000
0001
0010
,
0011
0220
0330
0022
0000
0033
0001
0010
,
0011
0001
1000
0010
1010
2000
3000
0002
,
0003
0020
0000
0200
0000
0330
0110
0100
,
0010
0001
0011
0010
0001
0100
0101
0001
,
1000
2002
3003
2002
0000
3003
1001
0001
,
1000
0100
1100
1000
0001
0200
0000
0020
,
0300
2000
0030
0002
3000
0013
0001
1000
,
1001
0100
1000
0001
1001
0100
0001
1000
,
1001
0100
1000
0001
1001
0010
0001
1000
,
1001
0010
1000
0001
1001
0010
0001
1000
,
1001
0010
1000
0002
0000
0000
0013
1000
,
0010
0100
0001
0100
1000
0010
0001
1000
,
0100
0001
0100
1000
0001
0010
0011
0000
,
0010
0110
0000
0100
0202
0000
0000
0000
,
0000
0000
0000
0000
0000
0020
0000
0000
0000
0000
0000
0000
0000
0000
0000
0000
,
0000
0000
0000
0030
,
0303
0000
0000
0000
;

//---------------dance-single - Grc-009----------------
#NOTES:
     dance-single:
     Grc-009:
     Hard:
     9:
     0.786,0.801,0.467,0.326,0.168: // measure 1
0000
0000
0000
0000
,  // measure 2
0000
0000
0000
0000
0000
0000
0010
0001
,  // measure 3
1001
0010
1000
0001
0110
1000
0010
0100
,  // measure 4
1010
0001
0100
0010
2000
0000
3010
1000
,  // measure 5
1100
0001
0100
1010
0000
0110
0000
0101
,  // measure 6
0000
1001
0000
0021
0000
0000
0031
0010
,  // measure 7
0110
1000
0100
0010
1001
0010
0100
0001
,  // measure 8
0101
1000
0001
0100
0020
0000
1030
0100
,  // measure 9
1100
0010
0100
0011
0000
0110
0000
1100
,  // measure 10
0000
0101
0000
1002
0000
0000
1003
0100
,  // measure 11
0010
0001
0010
0100
2000
0000
3100
0000
,  // measure 12
1000
0000
0000
0000
0001
0000
0000
0000
0100
0000
0010
1000
0010
0000
0000
0000
,  // measure 13
1000
0010
0001
0100
,  // measure 14
0010
0000
0000
0000
1000
0000
0000
0000
0100
0000
0010
0001
0010
0000
0000
0000
,  // measure 15
0001
0000
0000
0000
1000
0100
1000
0100
0010
0001
0010
0100
1000
0000
0000
0000
,  // measure 16
0100
0000
0000
0000
1000
0000
0000
0000
0010
0000
1000
0100
1000
0000
0000
0000
,  // measure 17
0001
0100
0010
1000
,  // measure 18
0100
0000
0000
0000
0010
0000
0000
0000
0001
0000
1000
0010
1000
0000
0000
0000
,  // measure 19
0001
0000
0000
0000
1000
0000
0200
0000
0000
0000
0000
0000
1300
0000
0001
0100
,  // measure 20
0001
0000
0000
0000
1000
0000
0010
0100
0010
0000
0000
0000
0100
0000
0001
0010
,  // measure 21
0001
0000
0000
0000
1000
0000
0010
0000
0000
0000
0010
0000
0100
0000
0001
0010
,  // measure 22
0001
0000
0000
0000
1000
0000
0010
0100
0010
0000
0000
0000
1000
0000
0001
0100
,  // measure 23
0001
0000
0000
0000
1000
0000
0010
0000
0000
0000
0010
0000
0100
0000
0001
0010
,  // measure 24
0001
0000
0000
0000
1000
0000
0010
0100
0010
0000
0000
0000
1000
0000
0001
0100
,  // measure 25
0001
0000
0000
0000
1000
0000
0010
0000
0000
0000
0010
0000
0100
0000
0001
1000
,  // measure 26
0001
0000
1000
0000
0001
0100
0000
0100
,  // measure 27
0000
0010
0000
1000
0200
0000
0310
0000
,  // measure 28
0001
1000
0100
1000
0001
0100
0010
1000
,  // measure 29
0001
0000
0100
0000
0001
0000
0001
0000
1000
0000
0000
0001
0200
0000
0000
0000
,  // measure 30
0310
0000
0000
1000
0200
0000
0000
0000
1300
0000
0000
0001
0200
0000
0000
0000
,  // measure 31
0310
0000
0000
1000
0200
0000
0000
0000
0300
0000
1000
0000
0001
0000
0010
0000
,  // measure 32
0001
1000
0010
0100
0001
0100
1000
0001
,  // measure 33
0100
0110
0000
0110
0000
1000
0001
0100
,  // measure 34
0010
1000
0001
0010
0001
1000
0001
0010
,  // measure 35
0100
0000
1000
0000
0001
0000
0100
0000
0010
0000
1000
0001
1000
0000
0010
0000
,  // measure 36
0100
0001
1000
0010
0100
0001
0010
1000
,  // measure 37
0001
0100
0010
1000
0100
0010
0001
1000
,  // measure 38
0001
0010
0001
1000
0010
0110
0010
1000
,  // measure 39
0001
0200
0000
0320
0000
0000
1030
0001
,  // measure 40
0100
0001
1000
0100
1000
0010
0100
0001
,  // measure 41
1000
0010
0100
0001
1000
0001
0100
0010
,  // measure 42
1000
0100
0010
0001
1000
0001
0100
0220
,  // measure 43
0000
0330
2020
0000
0000
3030
0100
1000
,  // measure 44
0001
0100
0010
1000
0001
0010
0001
1000
,  // measure 45
0001
0010
0100
1000
0001
0100
0010
1000
,  // measure 46
0001
1000
0100
1000
0001
0200
0000
0310
,  // measure 47
1000
0200
0000
2300
0000
0000
3010
1000
,  // measure 48
0001
0100
0001
1000
0001
0010
0100
1000
,  // measure 49
0001
0100
0010
1000
0001
0100
0220
0000
,  // measure 50
0330
0000
0000
0000
0000
0000
0001
0010
,  // measure 51
0001
1000
0010
0001
0100
0001
0010
0100
,  // measure 52
1000
0001
0100
0020
0000
0000
1030
0100
,  // measure 53
1000
0010
0100
0101
0000
0110
0000
1010
,  // measure 54
0000
1001
0000
0012
0000
0000
1003
0100
,  // measure 55
0110
0001
1000
0010
0101
0001
1000
0010
,  // measure 56
0110
0001
1000
0010
1000
0100
0010
0001
,  // measure 57
0101
0000
0010
0000
1000
0000
0001
0000
0100
0000
0010
0000
1000
0100
1000
0000
,  // measure 58
0001
0100
0001
0000
1000
0001
1000
0000
0200
0000
0000
0000
1300
0000
0001
0000
,  // measure 59
0011
0010
0001
1000
0101
0010
1000
0001
,  // measure 60
1001
0010
0100
1000
0002
0000
0013
0100
,  // measure 61
0110
1000
0001
0010
0100
2000
0000
3200
,  // measure 62
0000
0000
0320
0000
0000
0000
0031
0000
1000
0100
0010
0100
1000
0000
0010
0000
,  // measure 63
1010
0001
0100
0010
1001
0100
0010
1000
,  // measure 64
1100
0010
0001
0100
0010
1000
1001
0000
,  // measure 65
1000
0000
1100
0000
0000
0000
0001
0000
1010
0000
0000
0000
0000
0000
0100
1000
,  // measure 66
0100
1000
0100
1000
0200
0000
0000
0000
0000
0000
0000
0000
0000
0000
0000
0000
,  // measure 67
0000
0000
0000
0000
,  // measure 68
0300
0000
0000
0000
;

//---------------dance-single - Grc-009----------------
#NOTES:
     dance-single:
     Grc-009:
     Medium:
     6:
     0.478,0.473,0.022,0.326,0.000:
0000
0000
0000
0000
,
0000
0000
0000
0010
,
0001
1000
0000
0010
0000
0100
0000
0001
,
0000
0010
0000
0002
0000
0000
0103
0000
,
0010
1000
0000
0100
0000
0010
0000
0001
,
0000
0010
0000
0200
0000
0000
1300
0000
,
0001
0100
0000
0001
0000
1000
0000
0100
,
0000
0010
0000
0002
0000
0000
0013
0000
,
0001
1000
0000
0010
0000
0100
0000
0001
,
0000
1000
0000
0200
0000
0000
1300
0010
,
1000
0000
0001
0010
0001
0010
0100
0000
,
1000
0100
0010
0001
,
0100
0010
1000
0001
,
0010
0000
0100
0000
1000
0100
1000
0000
,
0001
0100
0010
1000
,
0100
0000
0010
0000
0001
1000
0100
0000
,
1000
0001
0100
0010
,
1000
0000
0100
0000
0010
0001
1000
0000
,
0010
0100
0001
1000
,
0100
0000
1000
0001
0010
0000
0001
0000
,
1000
0000
0010
1000
0000
1000
0000
0000
,
0001
0000
0100
0010
1000
0000
0001
0000
,
0010
0000
0001
0100
0000
0100
0000
0000
,
0001
0000
1000
0010
0100
0000
0001
0000
,
1000
0000
0001
0010
0000
0010
0000
0000
,
0001
0000
1000
0000
0010
1000
0000
1000
,
0000
0001
0000
1000
0020
0000
0130
0000
,
0100
0000
0001
1000
0100
0000
1000
0000
,
0001
0000
1000
0000
0001
0100
1000
0000
,
1000
0100
0001
0000
1000
0010
0100
0000
,
0100
0001
0010
0000
0001
0000
1000
0000
,
0010
0000
0100
0001
1000
0000
0001
0000
,
0010
0001
0000
0001
0000
0010
0000
0100
,
0000
1000
0001
0000
1000
0000
0020
0000
,
0000
0000
0230
0000
0000
0000
0310
1000
,
0001
0100
0000
0010
0000
1000
0000
0001
,
0100
0001
0000
2000
0000
0000
3100
1000
,
0001
0010
0000
0001
0000
1002
0000
0000
,
0000
2003
0000
3200
0000
0000
1300
0100
,
0010
0001
0000
1000
0000
0020
0000
0000
,
0130
0001
0000
0002
0000
0000
1003
0010
,
0100
0001
0000
1000
0000
0001
0000
0020
,
0000
0000
0230
0000
0000
0000
1300
0001
,
0010
0001
0000
1000
0000
0010
0000
0100
,
0001
1000
0000
2000
0000
0000
3001
0100
,
0010
1000
0000
0010
0000
2001
0000
0000
,
3100
0200
0000
2300
0000
3000
1000
0010
,
0100
0001
0000
0010
0000
0001
0000
1000
,
0010
0100
0000
0020
0000
0000
2030
0000
,
3000
0000
0000
0001
,
1000
0010
0000
0100
0000
0001
0000
0010
,
0000
0100
0000
2000
0000
0000
3001
0000
,
0100
0010
0000
1000
0000
0001
0000
0100
,
0000
0010
0000
2000
0000
0000
3001
0000
,
0100
0010
0000
1000
0000
0001
0000
1000
,
0000
0100
0000
0020
0000
0000
0130
0000
,
1000
0100
0000
1000
0000
0100
0000
0010
,
0000
0001
0000
2000
0000
0000
3100
0000
,
1000
0001
0000
0010
0000
0010
0000
0100
,
0000
1000
0000
0002
0000
0000
1003
0000
,
0010
0100
0000
0001
0000
1000
0000
0010
,
0000
0100
0000
0002
0000
0000
1003
0000
,
0001
0010
0000
0001
0000
0010
0000
0100
,
0000
1000
0000
0020
0000
0000
0130
0000
,
0010
1000
0000
1000
0010
0000
0000
0100
,
0020
0230
0000
0000
,
0000
0000
0000
0000
,
0300
0000
0000
0000
;

//---------------dance-single - Itsugo----------------
#NOTES:
     dance-single:
     Itsugo:
     Beginner:
     2:
     0.110,0.109,0.043,0.022,0.000:
0000
0000
0000
0000
,
0000
0000
0000
1000
,
0000
0000
0000
0001
,
0000
0000
0000
0100
,
0000
0000
0000
0010
,
0000
0000
0000
1000
,
0000
0000
0000
0100
,
0000
0000
0000
0010
,
0000
0000
0000
0001
,
0000
0000
0000
1000
,
0000
0000
0000
1001
,
0000
0000
0000
1000
,
0000
0000
0000
0001
,
0000
0000
0000
0100
,
0000
0000
0000
0010
,
0000
0000
0000
1000
,
0000
0000
0000
0100
,
0000
0000
0000
0010
,
0000
0000
0000
0001
,
0000
0000
0000
0010
,
0000
0000
0000
0100
,
0000
0000
0000
1000
,
0000
0000
0000
0010
,
0000
0000
0000
0100
,
0000
0000
0000
0001
,
0000
0000
0000
1000
,
0000
0000
0000
1001
,
0000
0000
0000
1000
,
0000
0000
0000
0001
,
0000
0000
0000
1000
,
0000
0000
0000
0100
,
0000
0000
0000
0010
,
0000
0000
0000
0001
,
0000
0000
0000
1000
,
0000
0000
0000
0010
,
0000
0000
0000
0100
,
0000
0000
0000
0001
,
0000
0000
0000
0100
,
0000
0000
0000
0010
,
0000
0000
0000
1000
,
0000
0000
0000
0001
,
0000
0000
0000
0010
,
0000
0000
0000
0001
,
0000
0000
0000
1000
,
0000
0000
0000
0010
,
0000
0000
0000
1000
,
0000
0000
0000
0100
,
0000
0000
0000
0010
,
0000
0000
0000
0110
,
0000
0000
0000
0001
,
0000
0000
0000
0010
,
0000
0000
0000
0100
,
0000
0000
0000
1000
,
0000
0000
0000
0010
,
0000
0000
0000
0100
,
0000
0000
0000
0001
,
0000
0000
0000
0010
,
0000
0000
0000
0100
,
0000
0000
0000
1000
,
0000
0000
0000
0001
,
0000
0000
0000
0100
,
0000
0000
0000
0010
,
0000
0000
0000
1000
,
0000
0000
0000
0001
,
0000
0000
1000
0000
,
0000
2002
0000
0000
,
0000
0000
0000
3003
;

//---------------dance-single - Itsugo----------------
#NOTES:
     dance-single:
     Itsugo:
     Easy:
     4:
     0.208,0.218,0.120,0.054,0.000:
0000
0000
0000
0000
,
0000
0000
0000
1000
,
0000
1000
0000
0100
,
0000
0010
0000
0001
,
0000
0001
0000
1000
,
0000
0010
0000
0100
,
0000
0100
0000
0001
,
0000
1000
0000
0100
,
0000
0100
0000
1000
,
0000
0001
0000
0020
,
0000
0000
0000
0031
,
0000
0000
0000
0001
,
0000
0000
0000
1000
,
0000
0000
0000
1000
,
0000
0000
0000
0010
,
0000
0000
0000
0010
,
0000
0000
0000
0100
,
0000
0000
0000
0100
,
0000
0000
0000
0001
,
0000
0100
0000
0010
,
0000
1000
0000
0001
,
0000
0010
0000
0100
,
0000
1000
0000
0100
,
0000
0010
0000
0001
,
0000
1000
0000
0010
,
0000
0100
0000
0001
,
0000
1000
0000
1001
,
0000
0001
0000
0101
,
0000
0002
0000
1000
,
0000
1000
0000
1000
,
0000
1003
0000
0001
,
0000
1000
0000
0100
,
0000
1100
0000
1000
,
0000
0001
0000
0100
,
0000
0010
0000
1000
,
0000
1000
0000
0010
,
0000
0010
0000
0100
,
0000
0001
0000
0101
,
0000
1000
0000
1001
,
0000
0001
0000
1000
,
0000
1000
0000
0100
,
0000
0010
0000
0110
,
0000
1100
0000
1001
,
0000
0001
0000
0100
,
0000
0010
0000
1000
,
0000
0001
0000
1001
,
0000
1000
0000
1100
,
0000
0100
0000
0010
,
0000
0001
0000
2000
,
0000
3000
0000
0001
,
0000
1000
0000
0010
,
0000
0100
0000
0100
,
0000
0001
0000
1000
,
0000
1000
0000
0100
,
0000
0010
0000
0001
,
0000
0001
0000
1000
,
0000
0010
0000
0100
,
0000
0100
0000
0001
,
0000
1000
0000
0100
,
0000
1000
0000
0001
,
0000
0100
0000
0010
,
0000
1000
0000
0001
,
0000
0010
0000
0001
,
0000
1000
0000
0100
,
0000
0010
0000
0000
0001
0000
0000
0000
,
0000
2002
0000
0000
,
0000
0000
0000
3003
;
