#TITLE:絵空事;
#SUBTITLE:さんかれあ;
#ARTIST:nano.RIPE;
#TITLETRANSLIT:Esoragoto;
#SUBTITLETRANSLIT:Sankarea;
#ARTISTTRANSLIT:Nano.Ripe;
#GENRE:Otaku's Dream 3rd Mix (Pad);
#CREDIT:Itsugo15;
#BANNER:Esoragoto-bn.png;
#BACKGROUND:Esoragoto-bg.jpg;
#JACKET:Esoragoto-Jacket.jpg;
#LYRICSPATH:Esoragoto.lrc;
#CDTITLE:Itsugo15 SimifileS.png;
#MUSIC:Esoragoto.mp3;
#OFFSET:2.345;
#SAMPLESTART:53.360;
#SAMPLELENGTH:30.000;
#SELECTABLE:YES;
#LISTSORT:;
#DISPLAYBPM:184.000;
#BPMS:0.000=92.000,24.000=184.000,312.000=92.000;
#STOPS:;
#TICKCOUNT:0.000=6;
#BGCHANGES:3.583=Esoragoto.avi=1.000=1=1=0,
256.000=Esoragoto.avi=0.000=0=1=0,
99999=-nosongbg-=1.000=0=0=0 // don't automatically add -songbackground-
;
#KEYSOUNDS:;
#ATTACKS:;

//---------------dance-single - Itsugo15----------------
#NOTES:
     dance-single:
     Itsugo15:
     Beginner:
     1:
     0.069,0.131,0.033,0.000,0.000:
0000
0000
0000
0000
,
0000
0000
0000
0000
,
0000
0000
0000
0000
,
0000
0000
0000
0000
,
0000
0000
0000
0000
,
0000
0000
0000
0000
,
1001
0000
0000
0000
,
0000
0000
0000
0000
,
1000
0000
0000
0000
,
0000
0000
0000
0000
,
0010
0000
0000
0000
,
0000
0000
0000
0000
,
0100
0000
0000
0000
,
0000
0000
0000
0000
,
0001
0000
0000
0000
,
0000
0000
0000
0000
,
0010
0000
0000
0000
,
0000
0000
0000
0000
,
0100
0000
0000
0000
,
0000
0000
0000
0000
,
1000
0000
0000
0000
,
0000
0000
0000
0000
,
0010
0000
0000
0000
,
0100
0000
0000
0000
,
0001
0000
0000
0000
,
1000
0000
0000
0000
,
0100
0000
0000
0000
,
0010
0000
0000
0000
,
0001
0000
0000
0000
,
1000
0000
0000
0000
,
0010
0000
0000
0000
,
0000
0000
0000
0000
,
0100
0000
0000
0000
,
0000
0000
0000
0000
,
0001
0000
0000
0000
,
0000
0000
0000
0000
,
1000
0000
0000
0000
,
0100
0000
0000
0000
,
0010
0000
0000
0000
,
0100
0000
0000
0000
,
1000
0000
0000
0000
,
0001
0000
0000
0000
,
0100
0000
0000
0000
,
0010
0000
0000
0000
,
1000
0000
0000
0000
,
1010
0000
0000
0000
,
0010
0000
0000
0000
,
0100
0000
0000
0000
,
0001
0000
0000
0000
,
1000
0000
0000
0000
,
0100
0000
0000
0000
,
0010
0000
0000
0000
,
0001
0000
0000
0000
,
0100
0000
0000
0000
,
0000
0000
0000
0000
,
0010
0000
0000
0000
,
0000
0000
0000
0000
,
0110
0000
0000
0000
,
0000
0000
0000
0000
,
0100
0000
0000
0001
;

//---------------dance-single - Itsugo15----------------
#NOTES:
     dance-single:
     Itsugo15:
     Challenge:
     10:
     0.660,0.806,0.537,0.340,0.104: // measure 1
0000
0000
0000
0000
,  // measure 2
0000
0000
0000
0000
,  // measure 3
0000
0000
0000
0000
,  // measure 4
0000
0000
0000
0000
,  // measure 5
0000
0000
0000
0000
,  // measure 6
0002
4000
0000
0000
0000
0000
0000
3003
,  // measure 7
1002
0000
0100
0100
0000
1000
1000
0000
,  // measure 8
0010
0010
0000
1000
1000
0000
0103
0000
,  // measure 9
2001
0000
0010
0010
0000
0001
0001
0000
,  // measure 10
0100
0000
0100
0000
0000
0000
0001
0000
0001
0000
0000
0000
0100
0000
0000
3000
,  // measure 11
1002
0000
0010
0010
0000
1000
1000
0000
,  // measure 12
0100
0000
0100
0000
0000
0000
1000
0000
1000
0000
0000
0000
0010
0000
0000
0003
,  // measure 13
1001
0000
0001
0010
0000
0100
0000
0110
,  // measure 14
0000
0000
1100
0000
0100
0000
1000
0000
0100
1000
0100
1000
0100
1000
0100
1000
,  // measure 15
0001
0100
0101
0000
0001
0000
0101
0000
,  // measure 16
0001
0000
0101
0000
0001
0000
0101
0001
,  // measure 17
1000
0100
1100
0000
1000
0000
1100
0000
,  // measure 18
1000
0000
1100
0000
1000
0000
1100
0100
,  // measure 19
0010
0001
0011
0000
0001
0000
0011
0000
,  // measure 20
0001
0000
0011
0000
0001
0000
0011
0001
,  // measure 21
1000
0010
1010
0000
1000
0000
1010
0000
,  // measure 22
1000
1010
1000
1010
,  // measure 23
1001
0001
0010
0000
0100
1000
0010
0000
,  // measure 24
0100
0001
1000
0000
0100
1000
0010
0100
,  // measure 25
0110
0010
1000
0000
0001
0010
0100
0000
,  // measure 26
1000
0010
0100
0000
0001
1000
0100
0010
,  // measure 27
0110
0100
1000
0000
0001
0100
0010
0000
,  // measure 28
1000
0100
0010
0000
0100
1000
0001
0100
,  // measure 29
0101
0110
0010
1010
,  // measure 30
1000
1001
0011
1100
,  // measure 31
1101
0000
0001
0000
0101
0000
0001
0100
,  // measure 32
0000
0100
0010
0000
0110
0000
0010
1000
,  // measure 33
0001
0000
1000
0000
1100
0000
0010
0001
,  // measure 34
0000
1000
0010
0000
1010
0000
0100
0000
,  // measure 35
1001
0000
0001
0101
0000
1000
1010
0010
,  // measure 36
0000
0100
0001
1000
0100
0010
0001
1000
,  // measure 37
2002
0000
0000
0000
0000
0000
0000
0000
0000
0000
3003
0000
1000
0001
1000
0001
,  // measure 38
1000
0001
1000
0010
0100
0010
1000
0100
,  // measure 39
0010
0001
0010
0100
1000
0010
0100
0010
,  // measure 40
2000
3010
0100
0020
1030
0001
0020
0031
,  // measure 41
0100
0020
1030
0001
0200
0301
2000
3100
,  // measure 42
1100
0100
0010
0001
1000
0010
0100
0001
,  // measure 43
0010
1000
0010
0001
0100
0010
1000
0100
,  // measure 44
0002
0103
0010
0200
1300
0001
0200
0301
,  // measure 45
0010
0000
0200
0000
1300
0000
0001
0000
0010
0001
0010
0001
0010
0001
0010
0001
,  // measure 46
1000
0010
0100
0001
1000
0100
0001
0100
,  // measure 47
0010
0001
1000
0010
0001
0010
0100
0001
,  // measure 48
2000
3100
0010
0200
1300
0100
0020
0031
,  // measure 49
1000
0002
0103
0001
0020
0031
0200
0310
,  // measure 50
2000
3010
0001
0020
1030
0001
0200
1300
,  // measure 51
0100
0002
0013
1000
0020
0031
0200
0301
,  // measure 52
1000
0100
0010
0001
0010
0100
1000
0001
,  // measure 53
0100
0001
0010
0100
1000
0100
0010
0001
1000
0010
0100
0001
,  // measure 54
1000
0100
1100
1000
,  // measure 55
0001
0000
0100
0000
0010
0000
0000
0000
0110
0000
0000
0000
0100
0000
0000
0001
,  // measure 56
1000
0100
1100
0100
,  // measure 57
0010
0001
1000
0000
0010
0000
1010
0000
,  // measure 58
1001
0001
0011
0010
,  // measure 59
0100
1000
0001
0000
1001
0000
0001
0100
,  // measure 60
0010
0000
1000
0001
0010
0000
0022
0000
,  // measure 61
0000
0000
0000
0000
,  // measure 62
0000
0000
0000
0000
,  // measure 63
0030
0000
0000
0000
,  // measure 64
0000
0000
0000
0000
,  // measure 65
0003
0000
0000
0000
;

//---------------dance-single - Itsugo15----------------
#NOTES:
     dance-single:
     Itsugo15:
     Hard:
     8:
     0.501,0.603,0.405,0.340,0.044:
0000
0000
0000
0000
,
0000
0000
0000
0000
,
0000
0000
0000
0000
,
0000
0000
0000
0000
,
0000
0000
0000
0000
,
2000
0000
0000
0000
,
3010
0000
0100
0001
0000
1000
0100
0000
,
1000
0010
0000
0100
0001
0000
0101
0000
,
1001
0000
0001
0010
0000
0001
1000
0000
,
0001
0100
0000
0010
1000
0000
1010
0000
,
1001
0000
0001
0100
0000
0010
1000
0000
,
0100
0010
0000
0001
1000
0000
1001
0000
,
0101
0000
0100
0010
0000
1000
0100
1100
,
0000
1001
0000
0001
0020
0000
0130
0000
,
0110
1000
1000
0001
,
0001
0100
0100
0010
,
0110
0100
0100
0001
,
0001
1000
1000
0100
,
1100
1000
1000
0001
,
0001
0100
0100
0010
,
0110
0100
0100
0001
,
0001
1000
1000
0010
,
1010
1000
0001
0010
,
0001
1000
0010
0100
,
0110
0010
1000
0100
,
1000
0001
0100
0001
,
0101
0100
0010
1000
,
0001
0010
0100
1000
,
1100
0011
1000
1010
,
0001
0101
1001
1100
,
0110
0000
0010
0000
0011
0000
0001
1000
,
0000
1000
0010
0000
1010
0000
1000
0000
,
1001
0000
0001
0000
0011
0000
0010
0100
,
0000
0100
1000
0000
1100
0000
1000
0000
,
1001
0000
0001
0100
0000
0010
1000
0001
,
0000
0010
0100
0000
1000
0100
0010
0001
,
2000
0000
0000
3002
,
2003
3020
0230
0302
,
2003
3200
0320
0230
,
1300
0000
0001
0100
0000
0010
1000
0000
,
0100
0010
0000
0001
1000
0000
0010
0000
,
1020
0230
0302
2003
,
3200
0320
0032
0023
,
0130
0000
1000
0001
0000
0100
0010
0000
,
1000
0100
0000
0010
0004
0000
0000
0000
,
2003
3200
0320
0032
,
0023
0230
2300
3002
,
0103
0000
0010
1000
0000
0100
1000
0000
,
0001
0100
0000
0010
1000
0000
0001
0000
,
0010
0000
0100
1000
0000
0100
0010
0000
,
0001
1000
0000
0010
0100
0000
0001
0100
,
0010
0000
1000
0001
0000
0010
0100
1000
,
0100
0010
0001
0010
0100
0010
0001
0010
0100
1000
0100
0010
,
0001
0000
1000
0000
1001
0000
1000
0010
,
0000
0100
0001
0000
0101
0000
0001
0000
,
1001
0000
1000
0000
1100
0000
0100
0010
,
0000
0001
1000
0000
1001
0000
0001
0000
,
0101
0000
0100
0000
0110
0000
0010
1000
,
0000
1000
0001
0000
1001
0000
1000
0100
,
0020
0000
0031
0010
0100
0000
2000
0000
,
0000
0000
0000
0000
,
0000
3000
0000
0000
0000
0000
0000
0000
;

//---------------dance-single - Itsugo15----------------
#NOTES:
     dance-single:
     Itsugo15:
     Medium:
     5:
     0.310,0.502,0.186,0.383,0.000:
0000
0000
0000
0000
,
0000
0000
0000
0000
,
0000
0000
0000
0000
,
0000
0000
0000
0000
,
0000
0000
0000
0000
,
2000
0000
0000
3000
,
1100
0000
0000
0100
0000
0000
0010
0000
,
0000
0001
0000
0000
1000
0000
0010
0000
,
1010
0000
0000
0010
0000
0000
0100
0000
,
0000
0001
0000
0000
1000
0000
0100
0000
,
1100
0000
0000
1000
0000
0000
0001
0000
,
0000
0100
0000
0000
0010
0000
1000
0000
,
1010
0000
0000
0010
0000
1000
0000
0001
,
0000
0001
0000
1000
0200
0000
0000
0000
,
1300
0001
0000
0100
,
0000
0010
0000
1000
,
0001
0010
0000
0001
,
0000
1000
0000
0010
,
0100
0001
0000
1000
,
0000
0010
0000
1000
,
0001
0010
0000
0100
,
0000
1000
0000
0001
,
1001
1000
0000
0010
,
0000
0100
0000
0001
,
2000
3100
0000
0010
,
0000
0001
0000
1000
,
0020
0130
0000
0010
,
0000
1000
0000
0001
,
0020
0031
0002
1003
,
2000
3010
1010
1010
,
0101
0000
1001
0000
,
1000
0000
1100
0000
,
0100
0000
0110
0000
,
0011
0001
1000
1001
,
0101
0000
0000
0100
0000
0000
0010
0000
,
0000
1000
0000
0000
0001
0000
0010
0000
,
0011
0000
0000
0200
,
1300
0010
0000
0100
,
0000
0001
0000
0100
,
0020
0030
0000
2000
3000
0000
0002
0003
,
0000
0020
0030
0000
0200
0300
1000
0000
,
0100
0010
0000
0001
,
0000
1000
0000
0010
,
0200
0300
0000
0002
0003
0000
2000
3000
,
0000
0200
0300
0000
0020
0030
0002
0000
,
1003
0010
0000
0100
,
0000
0001
0000
1000
,
0200
0300
0000
2000
3000
0000
0002
0003
,
0000
0200
0300
0000
0020
0030
2000
3000
,
0002
0003
0000
0020
0030
0000
0200
0300
,
0000
2000
3000
0000
0200
0300
0020
0030
,
0001
0000
0000
1000
0000
0000
0010
0000
,
0200
0000
0302
0000
,
1003
0000
0100
0000
,
0010
0000
0001
0000
,
1000
0000
0010
0000
,
0100
0000
0001
0000
,
0101
0000
0010
0000
,
1000
0000
0001
0000
,
0010
0100
0000
2200
,
0000
0000
0000
0000
,
0000
3300
0000
0000
0000
0000
0000
0000
;

//---------------dance-single - Itsugo15----------------
#NOTES:
     dance-single:
     Itsugo15:
     Easy:
     3:
     0.196,0.268,0.055,0.077,0.000:
0000
0000
0000
0000
,
0000
0000
0000
0000
,
0000
0000
0000
0000
,
0000
0000
0000
0000
,
0000
0000
0000
0000
,
0002
0000
0000
0000
,
1003
0000
1000
0000
,
0001
0000
0001
0000
,
0010
0000
0010
0000
,
0100
0000
0100
0000
,
1000
0000
1000
0000
,
0100
0000
0100
0000
,
0010
0000
0000
0000
0010
0000
0000
0001
,
0000
0001
0000
0000
1000
0000
0000
0000
,
1001
0001
0000
0100
,
0000
0010
0000
1000
,
0000
0100
0000
1000
,
0000
0001
0000
0100
,
0000
0010
0000
0100
,
0000
0001
0000
1000
,
0000
0100
0000
0010
,
0000
0001
0000
1000
,
1001
0001
0000
0100
,
0000
0100
0000
0010
,
0000
0010
0000
1000
,
0000
1000
0000
0001
,
0000
0001
0000
0010
,
0000
0010
0000
0100
,
0000
0010
0000
0001
,
0000
1000
0010
0100
,
0110
0000
0010
0000
,
0000
0000
1000
0000
,
0000
0000
0001
0000
,
0000
0000
0010
0000
,
0011
0000
0000
0001
0000
0000
1000
0000
,
0000
0010
0000
0000
0100
0000
0001
0000
,
2000
0000
0000
0000
,
3001
1000
0000
0010
,
0000
0100
0000
0001
,
0000
1000
0000
0100
,
0000
0010
0000
0001
,
1000
0010
0000
0100
,
0000
0001
0000
0100
,
0000
0010
0000
1000
,
0000
0100
0020
0000
,
0031
1000
0000
0010
,
0000
1000
0000
0001
,
0000
0010
0000
0100
,
0000
1000
0000
0010
,
0100
0001
0000
1000
,
0000
0100
0000
0010
,
0000
0001
0000
1000
,
0200
0000
0320
0000
,
0031
0000
0010
0000
,
0000
0000
0100
0000
,
0000
0000
1000
0000
,
0001
0000
0100
0000
,
0101
0000
0001
0000
,
0000
0000
1000
0000
,
0100
0020
0000
0032
,
0000
0000
0000
0000
,
0000
0003
0000
0000
0000
0000
0000
0000
;
