#TITLE:End Of Daylight (REDALiCE Remix);
#SUBTITLE:FLASHLIGHT;
#ARTIST:Alstroemeria Records;
#TITLETRANSLIT:End Of Daylight (REDALiCE Remix);
#SUBTITLETRANSLIT:Flashlight;
#ARTISTTRANSLIT:Alstroemeria Records;
#GENRE:Touhou;
#CREDIT:Itsugo15;
#BANNER:End of Daylight (REDALiCE Remix)-bn.png;
#BACKGROUND:End of Daylight (REDALiCE Remix)-bg.png;
#LYRICSPATH:End of Daylight (REDALiCE Remix).lrc;
#CDTITLE:Itsugo15 SimifileS.png;
#MUSIC:End of Daylight (REDALiCE Remix).ogg;
#OFFSET:0.000;
#SAMPLESTART:76.750;
#SAMPLELENGTH:12.000;
#SELECTABLE:YES;
#LISTSORT:;
#BPMS:0.000=175.000,160.000=87.500,192.000=175.000;
#STOPS:;
#TICKCOUNT:0.000=6;
#BGCHANGES:0.000=End of Daylight (REDALiCE Remix)-bg1.jpg=1.000=1=1=0,
32.000=End of Daylight (REDALiCE Remix)-bg2.jpg=1.000=1=1=0,
64.000=End of Daylight (REDALiCE Remix)-bg3.jpg=1.000=1=1=0,
96.000=End of Daylight (REDALiCE Remix)-bg4.jpg=1.000=1=1=0,
128.000=End of Daylight (REDALiCE Remix)-bg5.jpg=1.000=1=1=0,
160.000=End of Daylight (REDALiCE Remix)-bg6.jpg=1.000=1=1=0,
176.000=End of Daylight (REDALiCE Remix)-bg7.jpg=1.000=1=1=0,
192.000=End of Daylight (REDALiCE Remix)-bg8.jpg=1.000=1=1=0,
224.000=End of Daylight (REDALiCE Remix)-bg9.jpg=1.000=1=1=0,
256.000=End of Daylight (REDALiCE Remix)-bg10.jpg=1.000=1=1=0,
288.000=End of Daylight (REDALiCE Remix)-bg11.jpg=1.000=1=1=0,
320.000=End of Daylight (REDALiCE Remix)-bg12.jpg=1.000=1=1=0,
352.000=End of Daylight (REDALiCE Remix)-bg.png=1.000=1=1=0,
99999=-nosongbg-=1.000=0=0=0 // don't automatically add -songbackground-
;
#KEYSOUNDS:;
#ATTACKS:;

//---------------dance-single - Itsugo----------------
#NOTES:
     dance-single:
     Itsugo:
     Easy:
     5:
     0.198,0.296,0.052,0.134,0.000:
0000
0000
0000
0000
,
0000
0000
0000
0000
,
0000
0000
0000
0000
,
0000
0000
0000
0000
,
1000
0000
0010
0000
,
0100
0000
0002
0000
,
1000
1000
1000
1000
,
2003
0000
0000
0000
,
3001
0000
0010
0000
,
0100
0000
1000
0000
,
0002
0000
0000
0000
,
1003
0000
0001
0000
,
1000
0000
0010
0000
,
0100
0000
0001
0000
,
2000
0000
0000
0000
,
3001
0000
0010
0000
,
0100
0000
0100
0000
,
1000
0000
1000
0000
,
0001
0000
0001
0000
,
0100
0000
0100
0000
,
0010
0000
1000
0000
,
0001
0000
0010
0000
,
0200
0000
0000
0000
,
1300
0000
0000
0000
,
1000
0000
0001
0000
,
0100
0000
0010
0000
,
1000
0000
0001
0000
,
0010
0000
0010
0000
,
0001
0000
1000
0000
,
0010
0000
0100
0000
,
0001
0000
1000
0000
,
0100
0000
1000
0000
,
0001
0000
0100
0000
,
0010
0000
1000
0000
,
0001
0000
0010
0000
,
0100
0000
0100
0000
,
0010
0000
0001
0000
,
0100
0000
0010
0000
,
1000
0000
0001
0000
,
0010
0000
0000
0000
,
0100
0000
1000
0000
,
0020
0000
0000
0000
0000
0030
0000
0000
,
0100
0000
0001
0000
,
0020
0000
0000
0030
,
0001
0000
1000
0000
,
0200
0000
0000
0300
,
1000
0000
0001
0000
,
0200
0000
0310
0000
,
0110
0000
0100
0000
,
0101
0000
0001
0000
,
1001
0000
1000
0000
,
1100
0000
0100
0000
,
0110
0000
0010
0000
,
0011
0000
0001
0000
,
2000
0000
3020
0000
,
0230
0000
0302
0000
,
1003
0000
1000
0000
,
0001
0000
0010
0000
,
0100
0000
0100
0000
,
1000
0000
0001
0000
,
0100
0000
0010
0000
,
1000
0000
0001
0000
,
0010
0000
0100
0000
,
2000
0000
0002
3003
,
1001
0000
1000
0000
,
1000
0000
1000
0000
,
0001
0000
0001
0000
,
0001
0000
0001
0000
,
0010
0000
0100
0000
,
1000
0000
0001
0000
,
0100
0000
0010
0000
,
2000
0000
0000
3000
,
0001
0000
0010
0000
,
0100
0000
1000
0000
,
0100
0000
0010
0000
,
0001
0000
1000
0000
,
0010
0000
0100
0000
,
0001
0000
0100
0000
,
0010
0000
0010
0000
,
1000
0000
1000
0000
,
0001
0000
0010
0000
,
0100
0000
0010
0000
,
0001
0000
1000
0000
,
0010
0000
0100
0000
,
0010
0000
0010
0000
,
1000
0000
1000
0000
,
0001
0000
0010
0000
,
0200
0000
2300
0000
,
3001
0000
0000
0000
;

//---------------dance-single - Itsugo----------------
#NOTES:
     dance-single:
     Itsugo:
     Challenge:
     10:
     0.732,1.000,0.403,0.806,0.123: // measure 1
0000
0000
0000
0000
,  // measure 2
0000
0000
0000
0000
,  // measure 3
0000
0000
0000
0000
,  // measure 4
0000
0000
0000
0000
,  // measure 5
2000
3000
0010
0100
0002
0003
0010
0100
,  // measure 6
2000
3000
0001
0100
0020
0030
1000
0100
,  // measure 7
0040
0000
0000
0000
0000
0000
0000
0030
,  // measure 8
0110
0000
0000
0000
1001
0000
0000
0000
0110
0000
0010
1000
0001
0000
0000
0000
,  // measure 9
1001
1000
0001
1000
0001
0100
0001
0100
,  // measure 10
0010
0100
0010
0100
0010
1000
0010
1000
,  // measure 11
0010
1000
0001
1000
0100
1000
0001
1000
,  // measure 12
0010
1000
0001
1000
0100
1000
0100
1000
,  // measure 13
0100
0010
0100
0010
0001
0010
0001
0010
,  // measure 14
0001
0100
0001
0100
0010
1000
0010
1000
,  // measure 15
0100
0010
0100
0001
0100
0010
0100
1000
,  // measure 16
0100
0010
0100
0001
0100
0010
0001
1000
,  // measure 17
1001
0101
1001
1100
,  // measure 18
1001
0011
1001
1010
,  // measure 19
1001
0011
0110
1100
,  // measure 20
1001
1010
0110
0101
,  // measure 21
1001
1000
0100
0100
0010
0001
1000
1000
,  // measure 22
0010
0100
0001
0001
1000
0100
0010
0010
,  // measure 23
0001
0010
0001
0010
0001
0010
0001
0010
0001
0010
0001
0010
0001
0010
0001
0010
,  // measure 24
0004
4000
0003
3040
0400
0330
0110
0000
,  // measure 25
1001
0010
0100
1000
0100
0000
0010
0001
,  // measure 26
1000
0010
0100
0000
0001
1000
0100
0010
,  // measure 27
0001
0000
0010
0100
1000
0100
0010
0000
,  // measure 28
0010
0100
1000
0001
0100
0000
0101
0000
,  // measure 29
0100
0010
1000
0001
0010
0000
0010
0001
,  // measure 30
1000
0010
0100
0000
0001
1000
0100
0010
,  // measure 31
0001
0000
0010
0100
0000
2000
0000
0002
,  // measure 32
0000
3003
1100
0110
,  // measure 33
0011
0000
1001
1000
0001
0000
0101
0000
,  // measure 34
1010
1000
0001
0000
1001
0000
0011
0010
,  // measure 35
0100
0000
0110
0000
1100
1000
0001
0000
,  // measure 36
1001
0001
0100
1000
0100
0000
0110
0000
,  // measure 37
1010
1000
0100
0000
1100
0000
0011
0010
,  // measure 38
0100
0000
0110
0000
1100
1000
0001
0000
,  // measure 39
1001
0000
0101
0001
0100
1000
0100
0000
,  // measure 40
0002
0000
0000
0000
,  // measure 41
2003
3200
0320
0032
,  // measure 42
2003
0000
0000
0000
0000
3000
0001
1000
,  // measure 43
0020
0230
0302
2003
,  // measure 44
3200
0000
0000
0300
,  // measure 45
0020
0032
2003
3020
,  // measure 46
0230
0000
0000
0300
,  // measure 47
0001
0100
0001
1000
0100
0000
1000
0010
0100
0001
1000
0000
0100
0010
0001
0010
,  // measure 48
0100
1000
0100
1000
0100
1000
0100
1000
0001
1000
0001
1000
0001
1000
0001
1000
0020
0000
0000
0000
0000
0000
0000
0000
0030
0000
0000
0000
0000
0000
0000
0000
,  // measure 49
2010
0000
0001
0001
3001
0000
1002
0000
,  // measure 50
0010
0010
0013
0000
1000
0010
0001
1000
,  // measure 51
2001
0000
0100
0100
3100
0000
1002
0000
,  // measure 52
0100
0100
0103
0000
1000
0100
0001
0000
,  // measure 53
0201
0000
0010
0010
0310
0000
0120
0000
,  // measure 54
1000
1000
1030
0000
0010
0001
0010
1000
,  // measure 55
0002
0000
0023
0000
,  // measure 56
0230
0000
0000
0000
2300
0000
0000
3000
,  // measure 57
1100
0000
1000
0001
0100
0000
0101
0000
,  // measure 58
0100
0001
1000
0000
0100
0001
0100
1000
,  // measure 59
1100
0000
1000
0001
0100
0000
0101
0000
,  // measure 60
0001
1000
0100
0000
0010
1000
0010
0100
,  // measure 61
0010
0001
1000
0010
0100
0000
0001
1000
,  // measure 62
0100
0010
0001
0000
0010
0100
1000
0001
,  // measure 63
0100
0000
0010
1000
0001
0010
0100
1000
,  // measure 64
0001
0000
0001
0000
0001
0000
0001
0000
1000
0001
1000
0001
0200
0000
0000
0000
,  // measure 65
0301
0100
0010
1000
0001
0100
0010
1000
,  // measure 66
0001
0000
0100
0000
0010
0000
1000
0000
0200
0000
0302
0000
0203
0000
0000
1300
,  // measure 67
0001
0010
0100
1000
0001
0010
0100
1000
,  // measure 68
0001
0000
0010
0000
0100
0000
1000
0000
0002
0000
0203
0000
2300
0000
3000
0100
,  // measure 69
0010
1000
1000
1000
0001
0010
0010
0010
,  // measure 70
0001
0100
0100
0100
1000
0001
0001
0001
,  // measure 71
0040
0000
0000
0000
0000
0000
0000
0000
0000
0000
0000
0000
0000
0000
0000
0030
,  // measure 72
0020
0000
0000
0000
,  // measure 73
0230
0302
2003
3200
0302
2003
3020
0032
,  // measure 74
0203
2300
3002
0023
2030
3002
0023
0230
,  // measure 75
2300
3002
0203
0320
0032
0023
2030
3002
,  // measure 76
0023
2030
3020
0230
2300
3002
0023
0230
,  // measure 77
2300
3020
0032
2003
3200
0320
2030
3002
,  // measure 78
0023
2030
3002
0203
2300
3002
0023
0230
,  // measure 79
2300
3000
1000
0002
0003
0001
0200
0300
,  // measure 80
0100
0020
0030
0010
2000
3002
0023
0230
,  // measure 81
2300
0000
0100
0100
0100
0000
0100
0000
,  // measure 82
0100
0000
0001
0000
0000
0000
0001
0000
3000
0000
0001
1000
0001
0000
1000
0000
,  // measure 83
0002
0000
0100
0100
0100
0000
0100
0000
,  // measure 84
0100
0000
1000
0000
0000
0000
1000
0000
0003
0000
1000
0001
1000
0000
0001
0000
,  // measure 85
0010
0001
0010
0001
1000
0001
1000
0001
,  // measure 86
1000
0010
1000
0010
1000
0010
0100
0010
,  // measure 87
0200
0000
0001
0000
0001
0000
0001
0000
0001
0000
0001
0000
0001
0000
0001
0300
,  // measure 88
0404
0000
0000
0000
0000
0000
0000
0000
0000
0000
0000
0000
0000
0000
0000
0303
,  // measure 89
1000
0000
0000
0000
;

//---------------dance-single - Itsugo----------------
#NOTES:
     dance-single:
     Itsugo:
     Beginner:
     2:
     0.099,0.131,0.007,0.022,0.000:
0000
0000
0000
0000
,
0000
0000
0000
0000
,
0000
0000
0000
0000
,
0000
0000
0000
0000
,
0001
0000
0000
0000
,
0001
0000
0000
0000
,
1000
0000
0000
0000
,
1000
0000
0000
0000
,
1001
0000
0000
0000
,
1000
0000
0000
0000
,
0010
0000
0000
0000
,
0100
0000
0000
0000
,
0001
0000
0000
0000
,
1000
0000
0000
0000
,
0100
0000
0000
0000
,
0010
0000
0000
0000
,
0001
0000
0000
0000
,
0001
0000
0000
0000
,
1000
0000
0000
0000
,
1000
0000
0000
0000
,
0010
0000
0000
0000
,
0010
0000
0000
0000
,
0200
0000
0000
0000
,
0300
0000
0000
0000
,
0001
0000
0000
0000
,
0001
0000
0000
0000
,
0100
0000
0000
0000
,
0100
0000
0000
0000
,
0010
0000
0000
0000
,
0010
0000
0000
0000
,
1000
0000
0000
0000
,
0001
0000
0000
0000
,
1000
0000
0000
0000
,
1000
0000
0000
0000
,
0100
0000
0000
0000
,
0100
0000
0000
0000
,
0010
0000
0000
0000
,
0010
0000
0000
0000
,
0001
0000
0000
0000
,
1000
0000
0000
0000
,
0001
0000
0000
0000
,
0001
0000
0000
0000
,
0010
0000
0000
0000
,
0010
0000
0000
0000
,
0100
0000
0000
0000
,
0100
0000
0000
0000
,
1000
0000
0000
0000
,
2000
0000
3000
0000
,
0010
0000
0000
0000
,
0010
0000
0000
0000
,
0100
0000
0000
0000
,
0100
0000
0000
0000
,
0001
0000
0000
0000
,
0001
0000
0000
0000
,
1000
0000
0000
0000
,
1000
0000
0000
0000
,
0001
0000
0000
0000
,
0001
0000
0000
0000
,
0010
0000
0000
0000
,
0010
0000
0000
0000
,
0100
0000
0000
0000
,
0100
0000
0000
0000
,
1000
0000
0000
0000
,
0001
0000
1000
0000
,
0010
0000
0000
0000
,
0010
0000
0000
0000
,
0100
0000
0000
0000
,
0100
0000
0000
0000
,
0001
0000
0000
0000
,
0001
0000
0000
0000
,
1000
0000
0000
0000
,
2000
0000
0000
3000
,
0100
0000
0010
0000
,
0001
0000
0000
0000
,
1000
0000
0010
0000
,
0100
0000
0000
0000
,
0001
0000
1000
0000
,
0100
0000
0000
0000
,
1000
0000
0001
0000
,
0100
0000
0000
0000
,
0010
0000
0000
0000
,
0010
0000
0000
0000
,
1000
0000
0000
0000
,
1000
0000
0000
0000
,
0100
0000
0000
0000
,
0100
0000
0000
0000
,
0010
0000
0000
0000
,
0010
0000
0000
0000
,
0001
0000
0000
0000
;

//---------------dance-single - Itsugo----------------
#NOTES:
     dance-single:
     Itsugo:
     Medium:
     7:
     0.394,0.460,0.306,0.142,0.000:
0000
0000
0000
0000
,
0000
0000
0000
0000
,
0000
0000
0000
0000
,
0000
0000
0000
0000
,
1000
1000
0010
0010
,
0100
0100
0001
0002
,
1000
1000
1000
1000
,
1003
0001
1000
0001
,
0010
0010
0001
1000
,
0010
0010
0100
0001
,
2000
0001
0000
0001
,
0000
3001
1000
0010
,
0100
0100
0001
1000
,
0100
0100
0010
0001
,
2000
0001
0000
0001
,
0000
3001
0100
0010
,
0110
0100
0101
0001
,
1001
1000
1100
0100
,
0110
0010
0011
0001
,
1001
1000
1010
0010
,
0110
0100
0100
0100
,
0001
0001
0001
0001
,
2000
0000
0000
0000
,
3002
0000
0023
0000
,
0031
0100
0010
0010
,
1000
0100
0100
1000
,
0001
0001
0100
0010
,
0010
1000
0100
0010
,
0001
1000
1000
0010
,
0100
0100
0001
1000
,
0100
0010
0100
1000
,
0001
0100
0101
1001
,
1100
0100
1000
1100
,
1000
0001
1001
0001
,
0100
0101
0100
0010
,
0110
1010
1001
0001
,
0011
0010
0100
0110
,
0100
1000
1100
1000
,
0001
1001
0001
0100
,
0010
0000
0000
0000
,
1000
0100
0010
0001
,
2000
0000
0000
0000
0000
3000
0001
0000
,
0100
0010
1000
0001
,
0020
0000
0000
0030
,
0001
1000
0010
0100
,
0002
0000
0000
0003
,
0100
0010
1000
0001
,
0010
0000
0000
0000
0100
0000
0000
0000
2000
0000
0000
0000
0000
3000
0000
0000
,
1000
0001
1001
0001
,
0100
0101
0001
0001
,
0101
0001
1000
1001
,
1000
0100
0010
0001
,
0011
0001
1000
1001
,
1000
0010
0100
0001
,
2000
0000
3200
0000
,
0320
0000
0032
0003
,
0011
0001
1000
1001
,
1000
0010
0100
0100
,
0110
0100
0001
0101
,
0001
1000
0100
0010
,
0001
1000
0010
0010
,
0100
0001
0001
1000
,
0100
0100
0010
0001
,
2000
0000
0020
3030
,
1010
1000
0010
1000
,
0010
1000
0001
0010
,
0100
0010
0100
0010
,
0100
0010
0001
1000
,
0010
0100
0001
1000
,
0100
0010
0001
0010
,
0100
1000
0001
0100
,
0020
0000
0000
0030
,
0010
1000
0001
0010
,
0100
1000
1100
1100
,
1000
0001
0100
0010
,
1000
0100
0010
0110
,
0110
0010
0001
1000
,
0010
0100
0001
1000
,
0100
0000
0010
0001
0000
1000
0010
0000
,
0100
0001
0000
1000
0100
0010
0001
0010
,
0100
1000
0001
0100
,
0010
1000
0001
1001
,
1001
1000
0100
0010
,
0001
0100
0010
0110
,
0110
0010
1000
0001
,
0010
0100
1000
0100
,
0010
0010
0010
0010
,
0020
0000
0002
0000
,
1033
0000
0000
0000
;

//---------------dance-single - Itsugo----------------
#NOTES:
     dance-single:
     Itsugo:
     Hard:
     9:
     0.591,0.920,0.149,0.358,0.049:
0000
0000
0000
0000
,
0000
0000
0000
0000
,
0000
0000
0000
0000
,
0000
0000
0000
0000
,
1000
0000
0001
0010
0100
0000
1000
0100
,
0001
0000
0100
1000
0001
0000
0100
0020
,
1000
1000
1000
1000
1000
1000
1000
1030
,
1010
0000
0000
0000
1001
0000
0000
0000
0011
0000
0000
0001
1000
0000
0000
0000
,
0020
0000
0130
0001
2000
0000
3100
0010
,
0002
0000
0013
0100
2000
0000
3001
0100
,
0010
1000
0001
0010
,
0100
1000
0200
0310
,
0020
0000
0031
1000
0020
0000
0130
0001
,
2000
0000
3100
0010
0002
0000
0013
0100
,
1000
0001
0100
0010
,
1000
0001
0010
0100
,
0110
0000
0100
0100
2000
0000
3001
0001
,
0200
0000
0310
0010
2000
0000
3001
0001
,
0010
0100
0010
0001
,
1000
0010
0200
0301
,
0001
1000
0001
1000
0010
0100
0010
0100
,
0001
1000
0001
1000
0100
0010
0100
0010
,
0004
0000
0000
0000
,
1003
0010
0000
0100
0001
0000
0101
0000
,
1001
0100
0001
0100
1000
0000
0001
0100
,
1000
0100
0001
0000
1000
0100
0010
0001
,
1000
0000
0001
0010
0100
1000
0001
0000
,
0100
0010
1000
0100
0010
0000
0110
0000
,
0010
0001
0100
0010
1000
0000
0100
1000
,
0010
0100
0001
0000
1000
0100
0010
0001
,
1000
0000
0001
0100
0000
0020
0000
2000
,
0000
3030
0000
0000
1010
0000
1001
0000
,
0001
0001
0010
0100
1000
0000
1000
1000
,
0010
0100
0001
0000
0100
0001
1000
1000
,
0100
0000
0100
1000
0001
0001
0100
0000
,
0010
1000
0100
1000
0010
0000
0100
0000
,
0001
1000
0001
0010
0001
0000
1000
0010
,
1000
0001
1000
0000
0100
0010
0001
1000
,
0010
0000
0100
0001
0010
0100
1000
0000
,
0100
0010
0100
0010
0100
0000
1000
0000
,
0002
0203
0320
2030
,
3002
0000
0000
0000
0000
0003
0010
0100
,
2000
3002
0203
0320
,
2030
0000
0000
0000
0000
0000
0000
0000
0000
0000
0000
0000
0000
3000
0000
0000
,
0002
0023
0230
2300
,
3002
0000
0000
0003
,
1000
0010
1000
0010
1000
0000
0001
1000
0001
1000
0001
0000
0010
0001
0010
0001
,
0010
0000
0100
1000
0100
0010
0001
0000
1000
0001
1000
0001
1000
0000
0001
0000
,
1001
0000
0001
1000
1000
0000
1010
0000
,
0010
0100
0100
0000
0001
0100
0001
1000
,
1001
0000
1000
0001
0001
0000
0011
0000
,
0010
0100
0100
0000
1000
0001
0100
0000
,
0101
0000
0100
0010
0010
0000
1010
0000
,
1000
0001
0001
0000
0010
0100
0010
0001
,
2000
0000
3020
0000
,
0230
0000
0000
0000
0302
0000
0000
0003
,
0101
0000
0001
1000
0100
0000
1100
0000
,
1000
0001
0100
0000
0010
1000
0001
0010
,
0011
0000
0001
1000
0010
0000
1010
0000
,
1000
0001
0010
0000
0100
1000
0100
0010
,
0001
0010
0001
1000
0010
0000
1000
0010
,
1000
0010
0100
0000
0001
1000
0100
0010
,
0001
0000
0001
0010
0100
1000
0002
0000
,
1000
1000
1000
1000
2000
0000
0000
3003
,
1001
0001
0100
1000
,
0100
0000
0000
0000
0010
0000
0000
0000
1000
0000
0000
0000
0001
0000
0000
0001
,
0010
0100
0010
0001
,
1000
0000
0000
0000
0100
0000
0000
0000
0010
0000
0000
0000
0001
0000
0000
0001
,
0010
0100
1000
0001
0100
0010
1000
0001
,
0010
0100
1000
0100
0010
0001
1000
0100
,
0020
0000
0000
0000
,
0032
0000
0000
1003
,
0010
0100
0010
1000
0100
1000
0010
0100
,
0010
1000
0100
0010
0001
0010
0100
1000
,
0001
0100
0001
0010
0100
0010
0001
0100
,
0010
0100
0001
0010
0100
1000
0001
0100
,
0010
1000
0100
0001
0100
1000
0001
0100
,
1000
0100
0001
0100
0010
1000
0001
0010
,
0100
0000
1000
0100
0000
0010
0001
0000
,
1000
0010
0000
0100
0001
1000
0100
0010
,
0002
0000
0013
0001
0010
0001
1000
0001
,
0010
0001
1000
1000
0010
0010
0100
0001
,
2000
0000
3100
1000
0100
1000
0001
1000
,
0100
1000
0001
0001
0100
0100
0010
1000
,
0002
0000
0013
0100
2000
0000
3100
0010
,
0002
0000
1003
0010
0200
0000
0301
0200
,
0010
0010
0010
0010
0010
0010
0010
0010
,
0020
0000
0000
0000
,
1330
0000
0000
0000
;
