#TITLE:0.2 [OP] どらぶ;
#SUBTITLE:Each And Every Word Leaves Me Here Alone;
#ARTIST:Foreground Eclipse;
#TITLETRANSLIT:0.2 [OP] Dora bu;
#SUBTITLETRANSLIT:Each And Every Word Leaves Me Here Alone;
#ARTISTTRANSLIT:Foreground Eclipse;
#GENRE:J-Rock;
#CREDIT:Itsugo15;
#BANNER:Dora bu-bn.jpg;
#BACKGROUND:Dora bu-bg.jpg;
#LYRICSPATH:Dora bu.lrc;
#CDTITLE:Itsugo15 SimifileS.png;
#MUSIC:Dora bu.mp3;
#OFFSET:-1.525;
#SAMPLESTART:56.384;
#SAMPLELENGTH:30.000;
#SELECTABLE:YES;
#LISTSORT:;
#BPMS:0.000=96.000,4.000=192.000,156.000=96.000,162.000=192.000,286.000=96.000,292.000=192.000;
#STOPS:;
#TICKCOUNT:0.000=6;
#BGCHANGES:4.000=Dora bu-bg1.jpg=1.000=1=1=0,
20.000=Dora bu-bg10.jpg=1.000=1=1=0,
36.000=Dora bu-bg11.jpg=1.000=1=1=0,
52.000=Dora bu-bg13.jpg=1.000=1=1=0,
68.000=Dora bu-bg14.jpg=1.000=1=1=0,
100.000=Dora bu-bg15.jpg=1.000=1=1=0,
132.000=Dora bu-bg2.jpg=1.000=1=1=0,
156.000=Dora bu-bg3.jpg=1.000=1=1=0,
166.000=Dora bu-bg4.jpg=1.000=1=1=0,
198.000=Dora bu-bg5.jpg=1.000=1=1=0,
230.000=Dora bu-bg6.jpg=1.000=1=1=0,
262.000=Dora bu-bg7.jpg=1.000=1=1=0,
286.000=Dora bu-bg8.jpg=1.000=1=1=0,
296.000=Dora bu-bg9.jpg=1.000=1=1=0,
328.000=Dora bu-bg1.jpg=1.000=0=1=0,
329.000=Dora bu-bg10.jpg=1.000=0=1=0,
330.000=Dora bu-bg11.jpg=1.000=0=1=0,
331.000=Dora bu-bg12.jpg=1.000=0=1=0,
332.000=Dora bu-bg13.jpg=1.000=0=1=0,
333.000=Dora bu-bg14.jpg=1.000=0=1=0,
334.000=Dora bu-bg15.jpg=1.000=0=1=0,
335.000=Dora bu-bg2.jpg=1.000=0=1=0,
336.000=Dora bu-bg3.jpg=1.000=0=1=0,
337.000=Dora bu-bg4.jpg=1.000=0=1=0,
338.000=Dora bu-bg5.jpg=1.000=0=1=0,
339.000=Dora bu-bg6.jpg=1.000=0=1=0,
340.000=Dora bu-bg7.jpg=1.000=0=1=0,
341.000=Dora bu-bg8.jpg=1.000=0=1=0,
342.000=Dora bu-bg9.jpg=1.000=0=1=0,
343.000=Dora bu-bg1.jpg=1.000=0=1=0,
344.000=Dora bu-bg10.jpg=1.000=0=1=0,
345.000=Dora bu-bg11.jpg=1.000=0=1=0,
346.000=Dora bu-bg12.jpg=1.000=0=1=0,
347.000=Dora bu-bg13.jpg=1.000=0=1=0,
348.000=Dora bu-bg14.jpg=1.000=0=1=0,
349.000=Dora bu-bg15.jpg=1.000=0=1=0,
350.000=Dora bu-bg2.jpg=1.000=0=1=0,
351.000=Dora bu-bg3.jpg=1.000=0=1=0,
352.000=Dora bu-bg4.jpg=1.000=0=1=0,
353.000=Dora bu-bg5.jpg=1.000=0=1=0,
354.000=Dora bu-bg6.jpg=1.000=0=1=0,
355.000=Dora bu-bg7.jpg=1.000=0=1=0,
356.000=Dora bu-bg8.jpg=1.000=0=1=0,
357.000=Dora bu-bg9.jpg=1.000=0=1=0,
358.000=Dora bu-bg1.jpg=1.000=0=1=0,
359.000=Dora bu-bg10.jpg=1.000=0=1=0,
360.000=Dora bu-bg.jpg=1.000=1=1=0,
99999=-nosongbg-=1.000=0=0=0 // don't automatically add -songbackground-
;
#KEYSOUNDS:;
#ATTACKS:;

//---------------dance-single - Itsugo15----------------
#NOTES:
     dance-single:
     Itsugo15:
     Challenge:
     11:
     0.779,0.766,0.611,0.476,0.111: // measure 1
0000
0000
0000
0000
,  // measure 2
1000
0010
0100
0001
0000
1000
0100
0010
,  // measure 3
0100
1000
0100
0010
0100
1000
0100
0010
,  // measure 4
0001
1000
0010
0100
0000
0001
0100
0010
,  // measure 5
0100
0001
0100
0010
0100
0001
0100
0010
,  // measure 6
1000
0001
0010
1000
0000
0010
0001
0010
,  // measure 7
0100
0010
0001
0010
0100
0010
0001
0010
,  // measure 8
0100
1000
0001
0100
0000
0010
1000
0010
,  // measure 9
0100
0010
1000
0010
0100
0001
0101
0000
,  // measure 10
1100
0000
0100
1000
0010
0100
0001
0000
,  // measure 11
0101
0000
0100
0001
1000
0100
0010
0000
,  // measure 12
0110
0000
0010
0100
1000
0001
0010
0000
,  // measure 13
0011
0000
0001
0010
0100
1000
0010
0000
,  // measure 14
1010
0000
0010
0001
1000
0100
0001
0000
,  // measure 15
0101
0000
0100
1000
0001
0010
0100
0000
,  // measure 16
0110
0000
0010
1000
0100
0010
0001
0000
,  // measure 17
0011
0000
0001
1000
0010
0100
0001
0000
,  // measure 18
0101
0000
0001
0000
1000
0000
0001
0000
0100
0001
0100
0000
0010
0000
1000
0010
,  // measure 19
0100
0000
0001
0000
1000
0100
0010
0000
0100
0000
0010
0000
0100
0000
0010
0000
,  // measure 20
0001
0000
1000
0100
0010
0000
0001
0000
0010
0000
0001
0010
0100
0000
1000
0100
,  // measure 21
0010
0001
1000
0010
0100
0001
0100
0010
,  // measure 22
0110
0000
0100
0001
1000
0100
0010
0000
,  // measure 23
0110
0000
0100
1000
0001
0010
0100
0000
,  // measure 24
0110
0000
0100
1000
0010
0100
0001
0000
,  // measure 25
0101
0000
0001
0100
0010
1000
0001
1000
,  // measure 26
1001
0000
1000
0001
1000
0000
0100
0000
1000
0000
0001
0100
0010
0000
1000
0001
,  // measure 27
0010
0000
0100
0000
1000
0100
0010
0000
0001
0000
1000
0000
0010
0000
0100
0000
,  // measure 28
0001
0000
0100
0010
1000
0000
0001
0000
0010
0000
0100
1000
0001
0000
1000
0001
,  // measure 29
0100
0010
1000
0010
0100
0001
1000
0100
,  // measure 30
1100
0000
0100
1000
0010
0100
0001
0000
,  // measure 31
0101
0000
0100
0001
1000
0100
0010
0000
,  // measure 32
0110
0000
0010
0100
1000
0001
0010
0000
,  // measure 33
0011
0000
0001
0010
0100
1000
0010
0000
,  // measure 34
1010
0000
1000
0002
0020
0033
0001
0200
,  // measure 35
0020
0330
0100
0020
2000
3030
0010
0200
,  // measure 36
0002
0303
0100
0002
2000
3003
0001
2000
,  // measure 37
0200
3300
1000
0200
0310
0000
0011
0000
,  // measure 38
1100
0000
1000
0002
0200
0303
0001
0020
,  // measure 39
0200
0330
0010
0200
2000
3300
0100
0020
,  // measure 40
0002
0000
0000
0000
,  // measure 41
0000
0000
0000
0000
0000
0000
0000
0000
0030
0M00
M000
0M00
00M0
0M00
M000
0M00
10M0
0000
0000
0000
0000
0000
0000
0000
1000
0000
0000
0000
0000
0000
0000
0000
,  // measure 42
1000
0000
1003
0000
1001
0000
0001
0100
,  // measure 43
0000
0010
1000
0001
0100
0010
0001
0010
,  // measure 44
1000
0010
0100
0001
2000
0000
3100
0000
,  // measure 45
0010
0001
0000
0011
0000
0010
0100
0000
,  // measure 46
1000
0100
0010
0000
0011
0000
0001
1000
,  // measure 47
0000
0010
0100
1000
0100
0001
0100
0010
,  // measure 48
2000
0000
3010
0100
0002
0000
0023
0000
,  // measure 49
2030
3200
0302
0000
,  // measure 50
1003
0000
0100
0000
1100
2100
0000
0001
,  // measure 51
0000
0001
0000
0001
0000
0001
0000
0001
,  // measure 52
0000
3001
0000
0001
0101
0102
0000
1000
,  // measure 53
0000
1000
0000
1000
0000
1003
0000
1000
,  // measure 54
0100
0010
0001
1000
1001
0000
0001
1000
,  // measure 55
0001
0010
0100
0000
0110
0000
0010
0001
,  // measure 56
1000
0100
0010
0000
0110
0000
0010
0001
,  // measure 57
0100
0010
1000
0000
1010
0000
1000
0010
,  // measure 58
0100
0000
0001
0000
0101
0000
0100
0000
0010
1000
0001
1000
0010
0000
0100
0001
,  // measure 59
0100
0000
0001
1000
0100
0000
1000
0001
0100
0000
0010
0000
1000
0001
0010
0000
,  // measure 60
0001
0000
1000
0000
0010
0000
0100
0000
0001
0000
0100
0010
1000
0000
0001
0000
,  // measure 61
0010
0000
0001
1000
0100
0000
1000
0000
0001
0100
0010
0000
1000
0000
0010
0000
,  // measure 62
0100
0001
1000
0100
1100
0000
0100
1000
,  // measure 63
0010
0100
0001
0000
0101
0000
0100
0001
,  // measure 64
1000
0100
0010
0000
0110
0000
0010
0100
,  // measure 65
1000
0001
0010
0000
0011
0000
0001
0010
,  // measure 66
0100
1000
0001
0000
1001
0000
1000
0002
,  // measure 67
0020
0033
0001
0200
0020
0330
0100
0020
,  // measure 68
2000
3030
0010
0200
0002
0303
0100
0002
,  // measure 69
2000
3003
0001
2000
0200
3300
1000
0200
,  // measure 70
0310
0000
0011
0000
1100
0000
1000
0002
,  // measure 71
0200
0303
0001
0020
0200
0330
0010
0200
,  // measure 72
2000
3300
0100
2000
0002
0000
0000
0000
,  // measure 73
0000
0000
0000
0000
0000
0000
0000
3000
,  // measure 74
1M03
00M1
1M00
00M1
1M00
00M1
1M00
00M1
,  // measure 75
1001
0000
1000
0010
0000
0100
0001
1000
,  // measure 76
0010
0100
1000
0100
0001
0100
0010
1000
,  // measure 77
0002
0000
0013
0000
0100
1000
0000
1100
,  // measure 78
0000
0100
0010
0000
0001
0010
0100
0000
,  // measure 79
1100
0000
1000
0001
0000
0100
0010
0001
,  // measure 80
0010
1000
0010
0100
0002
0000
0103
0010
,  // measure 81
2000
3200
0302
0023
,  // measure 82
2030
0000
3001
0010
,  // measure 83
0011
0101
1010
1100
,  // measure 84
0011
1100
0110
1001
,  // measure 85
0110
1010
0101
1100
,  // measure 86
0011
0101
1010
1100
,  // measure 87
0110
0011
0101
0110
,  // measure 88
0011
1001
1010
0110
,  // measure 89
1100
1001
0110
1001
,  // measure 90
0110
1001
0110
1001
,  // measure 91
1221
0000
0000
0000
,  // measure 92
0330
0000
0000
0000
0000
0000
M000
000M
;

//---------------dance-single - Itsugo15----------------
#NOTES:
     dance-single:
     Itsugo15:
     Easy:
     4:
     0.135,0.214,0.151,0.040,0.000:
0000
0000
0000
0000
,
0001
0000
0000
0000
,
0001
0000
0000
0000
,
1000
0000
0000
0000
,
1000
0000
0000
0000
,
0010
0000
0000
0000
,
0010
0000
0000
0000
,
0100
0000
0000
0000
,
0100
0000
0000
0000
,
0110
0000
0000
0000
,
1001
0000
0000
0000
,
1100
0000
0000
0000
,
0011
0000
0000
0000
,
1010
0000
0000
0000
,
0101
0000
0000
0000
,
0110
0000
0000
0000
,
1001
0000
0000
0000
,
1000
0000
0000
0000
,
1000
0000
0000
0000
,
0100
0000
0000
0000
,
0010
0000
0000
0000
,
0001
0000
0000
0000
,
0001
0000
0000
0000
,
1000
0000
0000
0000
,
1000
0000
0000
0000
,
0010
0000
0000
0000
,
0010
0000
0000
0000
,
0100
0000
0000
0000
,
0001
0000
0000
0000
,
1000
0000
0000
0000
,
1000
0000
0000
0000
,
0100
0000
0000
0000
,
0100
0000
0000
0000
,
0010
0000
0001
0000
,
0010
0000
0000
0000
,
0100
0000
1000
0000
,
0100
0000
0000
0000
,
1000
0000
0001
0000
,
1000
0000
0010
0000
,
0200
0000
0000
0000
,
0000
0000
0000
0300
0000
0000
0000
0000
0000
0000
0000
0000
0000
0000
0000
0000
,
0000
0000
0110
0000
,
0000
0000
0100
0000
,
0000
0000
0001
0000
,
0000
0000
1000
0000
,
0000
0000
0100
0000
,
0000
0000
0010
0000
,
0000
0000
0001
0000
,
1000
0000
0010
0000
,
0000
0000
0200
0300
,
0000
0000
0000
0000
,
0000
0000
0020
0030
,
0000
0000
0000
0000
,
0000
0000
1000
0000
,
0000
0000
0100
0000
,
0000
0000
0010
0000
,
0000
0000
0001
0000
,
0000
0000
1000
0000
,
0000
0000
1000
0000
,
0000
0000
0001
0000
,
0000
0000
0001
0000
,
0000
0000
0100
0000
,
0000
0000
0010
0000
,
0000
0000
1000
0000
,
0000
0000
0001
0000
,
0000
0000
0010
0000
,
0100
0000
1000
0000
,
0000
0000
0001
0000
,
0100
0000
0010
0000
,
0000
0000
1000
0000
,
0001
0000
0010
0000
,
0100
0000
2000
0000
,
0000
0000
0000
0000
,
0002
0000
0000
3003
,
1001
0000
0000
0000
,
1000
0000
0000
0000
,
0010
0000
0000
0000
,
0100
0000
0000
0000
,
0001
0000
0000
0000
,
0010
0000
0000
0000
,
0100
0000
0000
0000
,
1000
0000
0000
0000
,
1100
0000
0000
0000
,
1001
0000
0000
0000
,
0101
0000
0000
0000
,
0110
0000
0000
0000
,
1010
0000
0000
0000
,
1001
0000
0000
0000
,
0011
0000
0000
0000
,
0110
0000
0000
0000
,
1001
0000
0000
0000
;

//---------------dance-single - Itsugo15----------------
#NOTES:
     dance-single:
     Itsugo15:
     Beginner:
     2:
     0.075,0.145,0.071,0.040,0.000:
0000
0000
0000
0000
,
1000
0000
0000
0000
,
0000
0000
0000
0000
,
0010
0000
0000
0000
,
0000
0000
0000
0000
,
0100
0000
0000
0000
,
0000
0000
0000
0000
,
0001
0000
0000
0000
,
0000
0000
0000
0000
,
0101
0000
0000
0000
,
0000
0000
0000
0000
,
1100
0000
0000
0000
,
0000
0000
0000
0000
,
0011
0000
0000
0000
,
0000
0000
0000
0000
,
1010
0000
0000
0000
,
0000
0000
0000
0000
,
0001
0000
0000
0000
,
0000
0000
0000
0000
,
1000
0000
0000
0000
,
0000
0000
0000
0000
,
0010
0000
0000
0000
,
0000
0000
0000
0000
,
0100
0000
0000
0000
,
0000
0000
0000
0000
,
0001
0000
0000
0000
,
0000
0000
0000
0000
,
0010
0000
0000
0000
,
0000
0000
0000
0000
,
0100
0000
0000
0000
,
0000
0000
0000
0000
,
1000
0000
0000
0000
,
0000
0000
0000
0000
,
0010
0000
0000
0000
,
0010
0000
0000
0000
,
0010
0000
0000
0000
,
0010
0000
0000
0000
,
0100
0000
0000
0000
,
0100
0000
0000
0000
,
0200
0000
0000
0000
,
0000
0000
0000
0300
0000
0000
0000
0000
0000
0000
0000
0000
0000
0000
0000
0000
,
0000
0000
0001
0000
,
0000
0000
0000
0000
,
0000
0000
1000
0000
,
0000
0000
0000
0000
,
0000
0000
0100
0000
,
0000
0000
0000
0000
,
0000
0000
0010
0000
,
0000
0000
0000
0000
,
0000
0000
0001
0000
,
0000
0000
0000
0000
,
0000
0000
1000
0000
,
0000
0000
0000
0000
,
0000
0000
0010
0000
,
0000
0000
0000
0000
,
0000
0000
0100
0000
,
0000
0000
0000
0000
,
0000
0000
0001
0000
,
0000
0000
0000
0000
,
0000
0000
0010
0000
,
0000
0000
0000
0000
,
0000
0000
0100
0000
,
0000
0000
0000
0000
,
0000
0000
0010
0000
,
0000
0000
0000
0000
,
0000
0000
0001
0000
,
0000
0000
0001
0000
,
0000
0000
0001
0000
,
0000
0000
0001
0000
,
0000
0000
1000
0000
,
0000
0000
1000
0000
,
0000
0000
2000
0000
,
0000
0000
0000
0000
,
0002
0000
3000
0000
,
1003
0000
0000
0000
,
0000
0000
0000
0000
,
0010
0000
0000
0000
,
0000
0000
0000
0000
,
0100
0000
0000
0000
,
0000
0000
0000
0000
,
0001
0000
0000
0000
,
0000
0000
0000
0000
,
0101
0000
0000
0000
,
0000
0000
0000
0000
,
1010
0000
0000
0000
,
0000
0000
0000
0000
,
0011
0000
0000
0000
,
0000
0000
0000
0000
,
1100
0000
0000
0000
,
0000
0000
0000
0000
,
2002
0000
0000
0000
,
3003
0000
0000
0000
;

//---------------dance-single - Itsugo15----------------
#NOTES:
     dance-single:
     Itsugo15:
     Medium:
     6:
     0.346,0.650,0.492,0.103,0.000:
0000
0000
0000
0000
,
1000
0000
1000
0000
,
0010
0000
0010
0000
,
0100
0000
0100
0000
,
0001
0000
0001
0000
,
0100
0000
0100
0000
,
0010
0000
0010
0000
,
1000
0000
1000
0000
,
0001
0000
0001
0000
,
1001
0000
0001
0000
,
0011
0000
1000
0000
,
1010
0000
0001
0000
,
0101
0000
1000
0000
,
1100
0000
0100
0000
,
0110
0000
0010
0000
,
0011
0000
0001
0000
,
1001
0000
1000
0000
,
1010
0000
0010
0000
,
0010
0000
0010
0000
,
0110
0000
0100
0000
,
0100
0000
0100
0000
,
0101
0000
0001
0000
,
1001
0000
1000
0000
,
1100
0000
0100
0000
,
0110
0000
0010
0000
,
0011
0000
0001
0000
,
0001
0000
0001
0000
,
1001
0000
1000
0000
,
1000
0000
1000
0000
,
1010
0000
0100
0000
,
0101
0000
1000
0000
,
1100
0000
0001
0000
,
0011
0000
1000
0000
,
1001
0000
0000
0001
0100
0000
0000
0100
,
0001
0000
0000
1000
0100
0000
0010
0000
,
0001
0000
0000
1000
0010
0000
0000
0010
,
1000
0000
0000
0001
0010
0000
0100
0000
,
1000
0000
0000
0100
0010
0000
0000
0001
,
1000
0000
0000
0010
0100
0000
0001
0000
,
2000
0000
0000
0000
,
0000
0000
0200
0000
,
0000
3300
1100
1000
,
0001
0100
0010
1000
,
0100
0010
0100
1000
,
0001
0100
0010
1000
,
0001
0010
0011
0001
,
1000
0010
0100
0010
,
1000
0001
0010
0100
,
1000
0100
0020
0000
,
0000
0030
0002
0000
,
0003
0000
0000
0000
,
0000
0000
2000
0000
,
3000
0000
0000
0000
,
0000
0000
1001
0000
,
1000
0000
1010
0000
,
0100
0000
0101
0000
,
0001
0000
1001
0000
,
1000
0000
2200
0000
,
3300
0000
0000
0000
,
0000
0000
0022
0000
,
0033
0000
0000
0000
,
0000
0000
1001
0000
,
0001
0000
0101
0000
,
0100
0000
0110
0000
,
0010
0000
1010
0000
,
1000
0000
0000
0000
1001
0000
0000
0001
,
0010
0000
0000
0100
1000
0000
0000
0001
,
0100
0000
0010
0000
1000
0000
0000
0100
,
0010
0000
0000
0001
1000
0000
0000
0010
,
0100
0000
0001
0000
1000
0000
0000
0100
,
0010
0000
0000
0001
1000
0000
0000
0010
,
0100
0001
2000
0000
,
0000
0000
0000
0000
,
0002
0000
0000
3003
,
1001
1000
0100
0001
,
0100
0010
0001
1000
,
0010
0100
0010
1000
,
0001
1000
0100
0010
,
0110
0100
1000
0100
,
0010
0001
0100
0010
,
1000
0010
0100
0010
,
1000
0001
0010
0100
,
0110
0100
1100
1000
,
1001
0001
0101
0100
,
0110
0010
1010
1000
,
1001
0001
0011
0110
,
1100
1100
0011
0011
,
1010
1010
0101
0101
,
0110
1010
1001
0011
,
0110
1100
1001
0101
,
0220
0000
0000
0000
,
0330
0000
0000
0000
;

//---------------dance-single - Itsugo15----------------
#NOTES:
     dance-single:
     Itsugo15:
     Hard:
     8:
     0.649,0.650,0.643,0.135,0.000:
0000
0000
0000
0000
,
1000
0010
1000
0010
0000
0100
0001
0000
,
1000
0100
0010
0100
,
1000
0100
1000
0100
0000
1000
0001
0000
,
0100
0010
0100
0001
,
0100
0001
0100
0001
0000
1000
0010
0000
,
0100
0001
0010
0001
,
1000
0001
1000
0001
0000
0100
0010
0000
,
1000
0010
0100
0001
,
0101
0000
0001
0100
0001
0100
0001
0000
,
1001
0000
1000
0001
1000
0001
1000
0000
,
1100
0000
0100
1000
0100
1000
0100
0000
,
0110
0000
0010
0100
0010
0100
0010
0000
,
0011
0000
0001
0010
0100
1000
0100
0000
,
1100
0000
1000
0100
0010
0001
0010
0000
,
0011
0000
0001
1000
0010
0100
0001
0000
,
0101
0000
0001
0100
0010
1000
0100
0000
,
1100
1000
0100
0100
,
0010
0010
0001
0001
,
0011
0001
1000
1000
,
0010
0010
0100
0100
,
0110
0000
0010
0100
0010
0100
0010
0000
,
1010
0000
1000
0010
1000
0010
1000
0000
,
1001
0000
0001
1000
0001
1000
0001
0000
,
0011
0000
0010
0001
0010
0001
0010
0000
,
0110
0100
1000
1000
,
0001
0001
0100
0100
,
0101
0001
1000
1000
,
0100
0100
0010
0010
,
0110
0000
0100
0010
0001
1000
0100
0000
,
1100
0000
1000
0001
0100
0010
1000
0000
,
1010
0000
1000
0010
0100
0001
0010
0000
,
0011
0000
0010
0100
1000
0001
0100
0000
,
0101
0000
0001
0100
0010
0000
0100
0010
,
1000
0000
0010
1000
0001
0000
1000
0001
,
0010
0000
0001
0010
0100
0000
0010
0100
,
1000
0000
0100
1000
0001
0000
1001
0000
,
0110
0000
0100
0010
1000
0000
0100
0010
,
0001
0000
1000
0010
0100
0000
0001
0010
,
0200
0000
0000
0000
,
0000
0000
0000
0000
0000
0300
0000
0000
1100
0000
0000
0000
1100
0000
0000
0000
,
1100
0000
1100
0000
1001
0000
0001
0100
,
0000
0100
0001
0100
0001
0010
0001
1000
,
0010
0100
0010
1000
0001
0000
1001
0000
,
1000
0100
0000
1100
0000
1000
0001
0000
,
0100
0010
1000
0000
1010
0000
1000
0001
,
0000
0010
0100
1000
0100
0010
0100
1000
,
0001
0000
0100
0010
0110
0000
0110
0000
,
1001
1001
0220
0000
,
0330
0000
0000
0000
1001
0002
0003
0001
,
0000
0002
0003
0001
0000
0002
0003
0001
,
0000
0002
0003
0001
1001
2000
3000
1000
,
0000
2000
3000
1000
0000
2000
3000
1000
,
0000
0100
0010
0001
0011
0000
0001
0010
,
0001
1000
0001
0000
1001
0000
1000
0001
,
1000
0010
0100
0000
0110
0000
0100
0001
,
0100
0010
1000
0000
1010
0000
0010
1000
,
0010
0100
0001
0000
0101
0100
0001
1000
,
0100
1000
0010
0100
0001
1000
0001
0010
,
0100
0010
0001
1000
1001
0001
0100
0010
,
1000
0100
0010
0001
0100
0010
0100
0001
,
1000
0100
0010
0001
0011
0000
0001
0010
,
0001
1000
0001
0000
1001
0000
1000
0001
,
1000
0010
1000
0000
1010
0000
1000
0010
,
1000
0100
1000
0000
1100
0000
1000
0100
,
1000
0010
1000
0000
1010
0000
1000
0010
,
0100
0000
0010
0100
0001
0000
0100
0001
,
1000
0000
0001
1000
0100
0000
1000
0100
,
0010
0000
0100
0010
0001
0000
0010
0001
,
1000
0000
1001
0000
0110
0000
0010
0100
,
0001
0000
0010
0100
1000
0000
0001
0100
,
0010
0000
1000
0100
0020
0000
0000
0000
,
0000
0000
0000
0000
0000
0000
0000
0000
0000
0000
0000
0000
0000
0030
0000
0000
,
0001
1000
0100
0010
0001
0010
0100
1000
,
1001
0000
1000
0010
0000
0010
1000
0010
,
1000
0100
1000
0001
0100
0010
0100
0001
,
1000
0000
1001
0000
0001
0010
0000
0011
,
0000
0001
1000
0000
0010
0100
0001
0000
,
0101
0000
0001
1000
0000
0100
0010
0001
,
0010
0100
0010
0001
1000
0000
0010
0100
,
0110
0110
1001
1001
,
0220
0000
0000
0330
2002
0000
0000
3003
,
1100
0000
1001
0000
1000
0010
0100
0000
,
0110
0000
0101
0000
0100
0001
1000
0000
,
1001
0000
0011
0000
0010
0100
1000
0000
,
0001
0100
0010
0000
1000
0100
0010
0000
,
0110
0010
0011
0001
,
1001
1000
1010
0110
,
0101
1010
1100
0011
,
0110
1001
0110
1001
,
0220
0000
0000
0000
,
0330
0000
0000
0000
;
