#TITLE:Blood teller;
#SUBTITLE:未来日記;
#ARTIST:飛蘭;
#TITLETRANSLIT:Blood Teller;
#SUBTITLETRANSLIT:Mirai Nikki;
#ARTISTTRANSLIT:Faylan;
#GENRE:Otaku's Dream 3rd Mix (Pad);
#CREDIT:Itsugo;
#BANNER:Blood teller-bn.png;
#BACKGROUND:Blood teller-bg.jpg;
#LYRICSPATH:Blood teller.lrc;
#CDTITLE:Itsugo15 SimifileS.png;
#MUSIC:Blood teller.ogg;
#OFFSET:-0.292;
#SAMPLESTART:53.050;
#SAMPLELENGTH:30.000;
#SELECTABLE:YES;
#LISTSORT:;
#BPMS:0.000=118.000,33.000=8.100,34.000=472.100,37.000=118.003;
#STOPS:34.000=0.120
,35.000=0.120
,36.000=0.120
;
#TICKCOUNT:0.000=6;
#BGCHANGES:1.000=Blood teller.avi=1.000=1=0=0,
162.500=Blood teller-bg.jpg=1.000=1=0=0,
99999=-nosongbg-=1.000=0=0=0 // don't automatically add -songbackground-
;
#KEYSOUNDS:;
#ATTACKS:;

//---------------dance-single - Itsugo----------------
#NOTES:
     dance-single:
     Itsugo:
     Challenge:
     10:
     0.752,0.711,0.416,0.107,0.961: // measure 1
0000
0000
0000
0000
,  // measure 2
0000
0000
0000
0000
,  // measure 3
0000
0000
0000
0000
1001
0000
0100
1000
0010
0000
1010
0000
0010
0000
0100
0000
,  // measure 4
0001
0000
0010
0000
0011
0000
0001
0000
1000
0001
0000
1001
0000
1010
0000
0110
,  // measure 5
0010
0100
0001
0010
0100
1000
0100
0010
0100
1000
0001
0100
0010
1000
0010
0100
,  // measure 6
0002
0000
0000
0000
1003
0100
1000
0001
1000
0100
0010
0001
0100
0010
1000
0100
,  // measure 7
0020
0000
0000
0000
0130
1000
0001
0100
0010
1000
0100
0010
0100
1000
0001
0100
,  // measure 8
0020
0000
0000
0000
1030
0010
0100
0010
1000
0200
0000
0000
0310
0001
1000
0001
,  // measure 9
0000
1001
0000
0000
0110
0000
0000
0000
2000
0000
0000
0000
0002
0000
0000
0000
,  // measure 10
0020
0000
3133
0000
0110
0000
0000
0010
,  // measure 11
1000
0100
0000
0100
1000
0000
0000
0000
1001
0000
0000
0000
0000
0000
1000
0000
,  // measure 12
0001
0100
0000
0100
0001
0000
1001
0000
0100
0000
0000
0000
1001
0000
0000
0000
,  // measure 13
0010
0000
0000
0000
1001
0000
0000
0000
0110
0000
0000
1001
0000
0001
0010
0000
,  // measure 14
0100
0000
1000
0000
0001
1000
0001
0000
0010
0001
0010
0000
0100
0010
0100
0000
,  // measure 15
1000
0100
1000
0000
0001
0100
0010
0000
1000
0001
0010
0000
0100
1000
0001
0000
,  // measure 16
0100
0010
1000
0000
0010
0100
0010
0000
0100
0001
0100
0000
0001
1000
0001
0000
,  // measure 17
0010
0001
0010
0000
0001
1000
0100
0000
0010
0001
1000
0010
0000
1010
1001
0000
,  // measure 18
1001
0000
0011
0000
0001
0010
0100
1000
0001
0000
1001
0000
1000
0010
0100
0001
,  // measure 19
1000
0000
1001
0000
1000
0100
1000
0010
0100
0000
0110
0000
0010
0100
0001
0010
,  // measure 20
0100
0000
1000
0001
0100
0000
0010
0000
0110
0000
0100
0001
0000
1000
0100
0000
,  // measure 21
1100
0000
0100
0010
0001
0000
0010
0100
1000
0000
0010
0100
0001
0000
0100
0010
,  // measure 22
1000
0000
1000
0001
0010
0000
0100
0000
1000
0000
0100
0010
0000
0001
1000
0000
,  // measure 23
0001
0000
0100
0000
0020
0000
0000
0000
0000
0000
0030
0110
0000
0110
0000
0100
,  // measure 24
0001
1000
0100
0010
0001
0010
0001
1000
0010
0100
0001
0100
0010
1000
0100
0010
,  // measure 25
0100
1000
0001
0100
0010
0100
0001
1000
0010
0100
0001
1000
0100
0010
0001
1000
,  // measure 26
0010
0100
0001
1000
0100
1000
0010
1000
0001
0010
0001
0100
0010
1000
0001
0010
,  // measure 27
0100
1000
0100
0010
0001
1000
0010
1000
0001
0010
0001
1000
0100
0010
0001
0010
,  // measure 28
001M
0001
0000
0000
1001
0001
0100
0010
1000
0100
1000
0010
0100
0001
0010
0001
,  // measure 29
0100
0010
1000
0001
0010
0100
1000
0100
1000
0010
0100
0001
0100
0010
0100
0001
,  // measure 30
1000
0100
0010
0100
1000
0001
0100
0010
0100
0001
0100
0010
1000
0001
0010
0001
,  // measure 31
1000
0100
1000
0001
0100
0010
1000
0100
0010
0001
1000
0010
0100
0001
0101
0000
,  // measure 32
1001
0000
1100
0000
1001
1000
0010
0100
0001
0000
0010
0000
0010
0001
0100
0010
,  // measure 33
1000
0000
0100
0000
0010
0001
0100
1000
0100
0001
0010
0001
1000
0100
0010
0001
,  // measure 34
0100
0010
0100
1000
0100
0000
0010
0000
1000
0000
0100
0001
0000
0100
1000
0000
,  // measure 35
0010
0100
0001
1000
0100
0010
0001
0100
,  // measure 36
1000
0000
0100
0000
0110
1000
0100
0010
0001
0000
0001
0000
0100
0010
1000
0100
,  // measure 37
0001
0000
0001
0000
0100
1000
0010
0100
0001
0100
1000
0100
0001
1000
0100
0010
,  // measure 38
0001
0010
0100
1000
0001
0000
1100
0000
1001
0000
0001
0100
0000
0110
0101
0000
,  // measure 39
0001
0000
0001
0000
0001
0100
0010
1000
0100
0010
0001
0100
0010
1000
0010
0001
,  // measure 40
0010
1000
0010
0100
0001
1000
0100
0010
0001
1000
0010
1010
0000
0110
0000
0101
,  // measure 41
0000
0001
1000
0200
0020
0000
0330
0000
0000
0000
0000
0000
0000
0000
0000
0000
;

//---------------dance-single - Itsugo----------------
#NOTES:
     dance-single:
     Itsugo:
     Beginner:
     2:
     0.110,0.131,0.011,0.043,0.000:
0000
0000
0000
0000
,
0000
0000
0000
0000
,
0000
1000
0000
0000
,
0000
0010
0000
0000
,
0000
0100
0000
0000
,
0000
0001
0000
0000
,
0000
1000
0000
0000
,
0000
0100
0000
0000
,
0000
0010
0002
0000
,
0000
0000
0000
0003
1000
0000
0000
0000
,
0000
0000
0010
0000
,
0000
0000
0100
0000
,
0000
0000
0001
0000
,
0000
1000
0000
0100
,
0000
0010
0000
0100
,
0000
1000
0000
0001
,
0000
0100
0000
0010
,
0000
0100
0000
0100
,
0000
0001
0000
0001
,
0000
0010
0000
0010
,
0000
0100
0000
0100
,
0000
1000
0000
0001
,
0000
2002
0000
3003
,
0000
1000
0000
0010
,
0000
1000
0000
0100
,
0000
1000
0000
0001
,
0000
0100
0000
0001
,
0001
0010
0000
0100
,
0000
0010
0000
0001
,
0000
1000
0000
0010
,
0000
0100
0000
0001
,
0000
0001
0000
1000
,
0000
1000
0000
0100
,
0000
1000
0000
0010
,
0000
0100
0000
0100
,
0000
0001
0000
0001
,
0000
0010
0000
0010
,
0000
0100
0000
1000
,
0000
0001
0000
0001
,
0000
0100
0000
0010
,
0000
2000
0000
3000
;

//---------------dance-single - Itsugo----------------
#NOTES:
     dance-single:
     Itsugo:
     Easy:
     4:
     0.198,0.218,0.032,0.043,0.000:
0000
0000
0000
0000
,
0000
0000
0000
0000
,
0000
1000
0000
1000
,
0000
0001
0000
0001
,
0000
0100
0010
1000
,
0000
0100
0010
0001
,
0000
1000
0010
0100
,
0000
0001
0000
1000
,
0000
1001
2000
0000
,
0000
3000
0001
0000
,
0010
0100
1000
0000
,
0001
0000
0100
0000
,
0010
1000
0001
0000
,
0010
0001
0000
0001
,
1000
0010
0000
0010
,
1000
0100
0000
0100
,
1000
0001
0000
0001
,
0100
0010
0010
1000
,
1000
0001
0001
0010
,
0010
0100
0000
0100
,
0000
1000
0000
1000
,
0000
0001
0000
0001
,
0100
0020
0000
0030
,
1000
0001
0010
0100
,
1000
0100
1000
0010
,
1000
1000
0001
0010
,
0100
0010
0001
1000
,
1001
0001
0100
0010
,
1000
0100
0010
0100
,
1000
0001
0001
1000
,
1000
0010
0100
0001
,
0100
0001
0001
1000
,
1000
0100
0100
0010
,
0001
1000
0010
0100
,
0001
0100
0010
1000
,
0001
1001
0001
0010
,
0010
0001
1000
0010
,
0100
0010
1000
1000
,
0100
0020
0000
0030
,
0001
1000
0010
0100
,
0001
2000
0000
3000
;

//---------------dance-single - Itsugo----------------
#NOTES:
     dance-single:
     Itsugo:
     Medium:
     6:
     0.391,0.365,0.128,0.278,0.027:
0000
0000
0000
0000
,
0000
0000
0000
0000
,
0000
1000
1000
0100
,
0100
0010
0010
0002
,
0000
0000
1003
0010
1000
0010
1000
0010
,
0200
0000
0301
0100
0001
0100
0001
0100
,
0002
0000
1003
0001
1000
0001
1000
0001
,
2000
0000
3100
0010
0001
0000
1000
0010
,
0100
0002
1000
1000
,
1000
0000
2000
3003
1001
0000
0001
0000
,
0101
1000
1100
0001
,
0011
1000
1010
0010
,
0110
0000
0100
0000
0101
0000
0001
0010
,
0100
1000
0001
0001
0100
0000
0100
0100
,
0010
0000
0010
0010
1000
0000
1000
1000
,
0100
0000
0100
0100
0010
0000
0010
0010
,
0001
0000
0001
0001
1000
0000
0010
0000
,
0100
0000
0001
0010
0100
0000
0010
0001
,
1000
0000
0001
0100
0010
0000
0100
0010
,
1000
0000
0010
1000
0001
0000
1000
0100
,
0010
0000
0100
0010
0001
0000
0010
0001
,
0100
0000
0001
0100
0010
0000
0100
0010
,
1000
0000
0001
0000
1001
0000
0000
0000
0000
0000
0000
1001
0000
2002
0000
0000
,
0000
3003
1000
0000
1010
0010
0100
0001
,
0010
0001
0200
0000
0310
1000
0002
0003
,
0010
0001
2000
0000
3010
0100
0001
0010
,
0001
0100
0020
0000
1030
0001
0020
0000
,
0031
1000
0020
0000
0130
0001
1000
0100
,
1000
0010
0200
0000
0301
0010
0200
0000
,
0310
0001
2000
0000
3020
0000
0230
0000
,
0301
0001
1000
0100
1000
1000
0002
0000
,
0103
0010
1000
0001
0000
0010
0001
0100
,
0000
0010
2000
0000
3002
0000
0013
0100
,
1000
0000
0001
1000
0010
0000
1000
0001
,
0010
0000
0001
1000
0100
0000
1000
0001
,
0100
0000
0010
0010
1000
0000
1000
1000
,
0001
0000
0020
0030
0200
0300
1000
0001
,
0100
0000
0010
1000
0001
1000
0100
0010
,
0001
1000
0020
0000
1000
0000
0000
0000
,
1030
0000
0001
0000
0010
0000
0100
0000
1000
0000
0000
1100
0000
1000
0000
0001
,
0000
0200
0310
0000
0000
0000
0000
0000
;

//---------------dance-single - Itsugo----------------
#NOTES:
     dance-single:
     Itsugo:
     Hard:
     8:
     0.513,0.542,0.214,0.214,0.320:
0000
0000
0000
0000
,
0000
0000
0000
0000
,
0000
0001
1000
0001
,
0101
0000
0000
0000
0001
0000
0000
0000
1000
0000
0000
0100
0000
1000
0000
0010
,
0000
0100
0001
1000
0100
0000
0010
0000
0100
0000
1000
0000
0100
0000
0010
0000
,
0001
0001
0100
0010
0100
0001
0100
0010
,
1000
1000
0001
1000
0100
1000
0001
1000
,
0100
0000
0100
0000
1000
0100
1000
0100
0000
1001
0000
0000
0001
0100
0001
0100
,
0000
1001
0000
0000
0110
0000
0000
0000
2000
0000
0000
0000
3200
0000
0000
0000
,
0320
0000
0031
0000
0011
0000
0000
0001
,
0000
1000
0000
0000
0010
0000
0000
0000
1010
0000
0000
0000
0000
0000
1000
0000
,
0000
0001
0000
0000
0100
0000
0000
0001
0101
0000
0000
0000
0001
0000
0000
0000
,
1001
0000
0000
0000
1000
0000
0000
0000
1100
0000
0000
1000
0000
1000
1000
0000
,
0100
0010
0001
0001
0100
0010
1000
0100
,
0010
0100
1000
1000
0010
0100
0001
1000
,
0100
0010
0100
0100
1000
0001
0100
0010
,
1000
0000
0001
0000
0010
0000
0010
0000
0001
0000
0100
0010
0000
1000
0001
0000
,
1000
0010
0100
0100
0001
1000
0100
0100
,
0010
0100
1000
1000
0001
0100
0010
0010
,
0100
0000
0001
1000
0100
0000
1000
0000
0001
0000
0100
0010
0000
1000
0001
0000
,
0010
0100
0010
0010
0001
0001
1000
1000
,
0010
0010
0200
0000
0010
0000
0000
0000
,
0310
0000
0000
0000
2002
0000
0000
0000
0000
3003
0000
1001
0000
1001
0000
0000
,
0001
0010
0100
1000
0001
0000
0010
0000
0100
0000
1000
0001
0000
1000
0001
0100
,
0001
0000
1000
0100
1000
0000
0100
0000
0010
0000
0001
0100
0010
0000
1000
0100
,
0010
0000
0100
1000
0001
0000
0100
0000
0101
0000
0001
1000
0100
0000
1000
0001
,
0100
0000
0010
1000
0001
0000
0010
0000
0011
0000
0001
0000
1000
0001
1000
0001
,
1000
0100
0000
0000
1100
0000
0100
0000
1000
0000
0001
0100
0010
0000
1000
0001
,
0010
0000
0001
1000
0100
0000
1000
0000
0010
0000
0100
0001
0000
1000
0100
0000
,
0010
0000
0100
1000
0001
0000
0100
0000
0101
0000
0001
1000
0100
0000
1000
0000
,
1100
0000
0100
0010
0001
0000
1000
0010
0100
0000
0001
0000
1000
0001
1000
0000
,
1001
1001
1000
0200
0310
0001
0200
0310
,
1000
0000
0001
0000
0020
0000
0000
0000
0230
0000
0000
0000
1300
0000
0001
0100
,
0000
0001
1000
0000
0100
0000
0010
0000
0100
0000
1000
0001
0000
0100
0010
0000
,
1000
0010
0120
0000
1000
0000
0000
0000
,
0130
0001
2000
3100
0010
0010
0200
1300
,
0001
0000
0001
0000
0200
0000
0000
0000
2300
0000
0000
0000
3200
0000
0301
1000
,
0100
0000
0010
0000
0001
0000
1000
0000
0010
0000
0100
0001
0000
1000
0100
0000
,
0010
0001
2000
0000
0001
0000
0000
0000
,
3200
0000
0000
0000
1300
0000
0010
0000
0200
0000
0000
0010
0300
0010
0000
0010
,
1000
0001
0010
0200
0000
0000
0000
0000
0000
0000
0300
0000
0000
0000
0000
0000
;
