#VERSION:0.83;
#TITLE:Teleportation;
#SUBTITLE:;
#ARTIST:Tatsunoshin;
#TITLETRANSLIT:;
#SUBTITLETRANSLIT:;
#ARTISTTRANSLIT:;
#GENRE:;
#ORIGIN:;
#CREDIT:;
#BANNER:;
#BACKGROUND:Teleportation-bg.png;
#PREVIEWVID:;
#JACKET:Teleportation-jacket.png;
#CDIMAGE:;
#DISCIMAGE:;
#LYRICSPATH:;
#CDTITLE:;
#MUSIC:Teleportation.ogg;
#OFFSET:0.000000;
#SAMPLESTART:76.235001;
#SAMPLELENGTH:15.000000;
#SELECTABLE:YES;
#BPMS:0.000=170.000;
#STOPS:;
#DELAYS:;
#WARPS:;
#TIMESIGNATURES:0.000=4=4;
#TICKCOUNTS:0.000=4;
#COMBOS:0.000=1;
#SPEEDS:0.000=1.000=0.000=0;
#SCROLLS:0.000=1.000;
#FAKES:;
#LABELS:0.000=Song Start;
#BGCHANGES:;
#KEYSOUNDS:;
#ATTACKS:
;

//---------------dance-single - ----------------
#NOTEDATA:;
#CHARTNAME:;
#STEPSTYPE:dance-single;
#DESCRIPTION:;
#CHARTSTYLE:;
#DIFFICULTY:Beginner;
#METER:4;
#RADARVALUES:0.151084,0.236865,0.058216,0.038810,0.000000,109.000000,103.000000,6.000000,4.000000,0.000000,0.000000,0.000000,0.000000,0.000000,0.151084,0.236865,0.058216,0.038810,0.000000,109.000000,103.000000,6.000000,4.000000,0.000000,0.000000,0.000000,0.000000,0.000000;
#CREDIT:;
#NOTES:
0000
0000
0000
0000
,
0000
0000
0000
0000
,
0000
0000
0000
0000
,
0000
0000
0000
0000
,
0000
0000
0000
0000
,
0000
0000
0000
0000
,
0001
0000
0010
0000
,
0001
0000
0010
0000
,
0100
0000
0100
0000
,
0100
0000
0000
0000
,
1000
0000
0010
0000
,
1000
0000
0010
0000
,
0100
0000
0100
0000
,
0100
0000
0000
0000
,
1001
0000
0000
0000
,
0001
0001
0010
0000
,
1001
0000
0000
0000
,
0001
0001
0100
0000
,
0001
0000
0010
0000
,
0100
0000
0100
0000
,
0010
0000
1000
0000
,
0100
0000
0000
0000
,
1001
0000
0000
0000
,
1000
1000
0100
0000
,
1001
0000
0000
0000
,
1000
1000
0010
0000
,
1000
0000
0100
0000
,
0010
0000
0010
0000
,
0100
0000
0001
0000
,
0010
0000
0000
0000
,
0001
0000
0001
0000
,
1000
0000
1000
0000
,
0001
0000
1000
0000
,
0001
0000
0000
0000
,
1001
0000
0000
0000
,
0000
0000
0000
0000
,
0000
0000
0000
0000
,
0000
0000
0000
0000
,
0020
0000
0000
0000
,
0030
0000
0000
0000
,
0020
0000
0000
0000
,
0030
0000
0000
0000
,
0200
0000
0000
0000
,
0300
0000
0000
0000
,
0200
0000
0000
0000
,
0300
0000
0000
0000
,
1000
1000
0010
0000
,
1000
1000
0100
0000
,
0010
0000
0001
0000
,
0010
0000
0000
0000
,
0001
0001
0100
0000
,
0001
0001
0010
0000
,
0100
0000
1000
0000
,
0100
0000
0000
0000
,
1000
0000
0100
0000
,
0010
1000
0010
0000
,
0100
0000
0000
0000
,
0000
0000
0000
0000
,
0001
0000
0100
0000
,
0010
0001
0010
0000
,
0100
0000
0000
0000
,
0000
0000
0000
0000
,
1000
0100
1000
0000
,
0010
0010
0100
0000
,
0001
0000
0000
0000
,
0000
0000
0000
0000
,
0001
0100
0001
0000
,
0010
0010
0100
0000
,
1000
0000
1000
0000
,
0001
0000
0000
1001
;

//---------------dance-single - ----------------
#NOTEDATA:;
#CHARTNAME:;
#STEPSTYPE:dance-single;
#DESCRIPTION:;
#CHARTSTYLE:;
#DIFFICULTY:Easy;
#METER:8;
#RADARVALUES:0.321572,0.406054,0.174647,0.019405,0.024257,232.000000,214.000000,18.000000,2.000000,0.000000,0.000000,0.000000,0.000000,0.000000,0.321572,0.406054,0.174647,0.019405,0.024257,232.000000,214.000000,18.000000,2.000000,0.000000,0.000000,0.000000,0.000000,0.000000;
#CREDIT:;
#NOTES:
0000
0000
0000
0000
,
0000
0000
0000
0000
,
0000
0000
0000
0000
,
0000
0000
0000
0000
,
0000
0000
0000
0000
,
0000
0000
0000
0000
,
1000
0100
1000
0010
,
0100
0100
0100
0000
,
0001
0010
0001
0100
,
0010
0010
0010
0000
,
1000
0100
0001
0100
,
1000
0100
1000
0000
,
0001
0100
1000
0100
,
0001
1000
0001
0000
,
1001
0000
0000
0000
1000
0100
0010
0000
,
0001
0001
0001
0000
,
1001
0000
0000
0000
0001
0100
0010
0000
,
1000
1000
1000
0000
,
1001
1000
0001
0001
,
0100
0010
0100
0000
,
1001
0001
1000
1000
,
0100
0010
0100
0000
,
1001
0000
0000
0000
1000
0100
1000
0000
,
0001
0100
0001
0000
1000
0000
0000
0000
,
1001
0000
0000
0000
0001
0010
0001
0000
,
1000
0000
0000
0010
0000
0000
1000
0000
0001
0000
0001
0000
0000
0000
0000
0000
,
1000
0000
0100
0000
0010
0000
0001
2000
,
0000
0000
3000
0000
,
1000
0000
0100
0010
0000
0100
0000
0010
,
0000
0001
0100
0100
,
0001
0000
0000
0001
0000
0000
0000
0000
1000
0000
0000
1000
0000
0000
0000
0000
,
0010
0000
0000
0010
0000
0000
0000
0000
0100
0000
0000
0100
0000
0000
0000
0000
,
0001
0010
0100
0000
1000
0010
0100
0010
,
2000
0000
0000
0000
,
3001
0000
0000
0000
,
0000
0000
0000
0000
,
0000
0000
0000
0000
,
0000
0000
0000
0000
,
1001
0000
0000
1000
0100
0000
0010
0000
,
0001
0000
0000
1001
0000
0000
0000
0000
,
1000
0000
0000
1001
0000
0000
0000
0000
,
0110
0000
0000
0000
0001
0010
0100
0000
,
1001
0000
0000
1000
0100
0000
0010
0000
,
0001
0000
0000
1001
0000
0000
0000
0000
,
1000
0000
0000
1001
0000
0000
0000
0000
,
0001
0010
0100
1000
0000
0000
0000
0000
,
0001
0100
1000
0100
,
0010
0010
0010
0000
,
1000
0100
0001
0100
,
0010
0010
0010
0000
,
0001
0010
1000
0010
,
0001
0010
0001
0000
,
1000
0010
0001
0010
,
1000
0001
1000
0000
,
1001
0000
0001
0001
,
1000
0000
0010
0100
0000
0000
0001
0000
,
1000
0000
0010
0100
0000
0000
0001
0000
,
1000
0000
0100
0100
,
1001
0000
1000
1000
,
0001
0000
0010
0100
0000
0000
1000
0000
,
0001
0000
0010
0100
0000
0100
0000
1000
,
0001
0000
1000
0001
0000
0000
0000
0000
,
1001
0000
0001
0001
,
1000
0100
0010
0001
0000
0000
0000
0000
,
1000
0100
0010
0001
0000
0000
0000
0000
,
0001
0100
0001
0001
,
1001
0000
1000
1000
,
0001
1000
0010
0100
0000
0000
0000
0000
,
0001
1000
0010
0100
0000
0000
0000
0000
,
0001
0000
0001
1000
0000
0000
1001
0000
;

//---------------dance-single - ----------------
#NOTEDATA:;
#CHARTNAME:;
#STEPSTYPE:dance-single;
#DESCRIPTION:;
#CHARTSTYLE:;
#DIFFICULTY:Medium;
#METER:12;
#RADARVALUES:0.512852,0.609082,0.135837,0.164944,0.077621,370.000000,356.000000,14.000000,17.000000,0.000000,0.000000,0.000000,0.000000,0.000000,0.512852,0.609082,0.135837,0.164944,0.077621,370.000000,356.000000,14.000000,17.000000,0.000000,0.000000,0.000000,0.000000,0.000000;
#CREDIT:;
#NOTES:
0000
0000
0000
0000
,
0000
0000
0000
0000
,
0000
0000
0000
0000
,
0000
0000
0000
0000
,
0000
0000
0000
0000
,
0000
0000
0000
0000
,
0001
0010
0100
0000
1000
0010
0100
0000
,
0001
0100
0010
0000
1000
0100
0010
0000
,
0001
1000
0100
0000
1000
0001
0100
0000
,
0001
1000
0010
0000
1000
0001
0010
0000
,
0001
0100
0001
0100
0010
1000
0010
1000
,
0100
0010
0000
0000
0100
0010
0000
0000
,
0001
0100
1000
0100
0001
0010
1000
0010
,
0001
0001
0001
0001
,
2002
0000
3003
0000
1000
0010
0001
0010
,
1000
0010
0001
0010
1000
0010
0001
0010
,
2000
0000
3000
0000
0001
0010
1000
0010
,
0001
0010
1000
0010
0001
0010
0100
0000
,
2000
3100
0010
0010
,
0000
0001
0010
0000
0000
0100
1000
0000
0000
0001
0010
0000
0000
0100
1000
0000
,
0002
0000
0100
0103
,
0000
1000
0010
0000
0000
0100
0001
0000
0000
1000
0010
0000
0000
0000
0000
0000
,
2002
0000
3003
0000
0001
0100
1000
0100
,
0001
0100
1000
0100
0001
0100
1000
0100
,
0002
0000
0003
0000
1000
0100
0001
0100
,
1000
0000
0000
0110
0000
0000
0110
0000
0001
0000
0010
0000
0001
0000
0000
0000
,
1000
0100
1000
0000
0010
0100
0001
2000
,
0000
0000
0000
0000
3000
0000
0000
1000
,
0100
0000
0010
0100
0000
0010
0000
0002
,
0000
0100
0010
0003
,
0001
0000
0000
0100
0000
0000
0001
0000
1000
0000
0000
0100
0000
0000
1000
0000
,
0001
0000
0000
0010
0000
0000
0001
0000
1000
0000
0000
0010
0000
0000
1000
0000
,
0001
0010
0100
1000
0001
0100
0010
1000
,
0002
0000
0000
0000
,
1003
0000
0000
0000
,
0000
0000
0000
0000
,
0000
0000
0000
0000
,
0000
0000
0000
0000
,
1001
0000
0000
1000
0010
0001
0010
1000
,
0002
0000
0000
2003
0000
0000
3000
0000
,
0002
0000
0000
1003
0000
1000
0100
0010
,
0001
0000
0000
1000
0001
0100
0010
0100
,
1001
0000
0000
0001
0010
1000
0010
0001
,
1000
0001
1000
0002
0000
0000
1003
0000
,
1000
0001
1000
0001
0000
1001
0000
1000
,
0100
0010
0100
0020
0000
0000
0030
0000
,
0001
0000
0000
0000
0100
0000
0000
0000
0001
0000
0000
0000
0010
0000
0000
0100
,
0000
0100
0000
0000
0010
0000
0000
0000
0001
0000
0000
0000
1001
0000
0000
0000
,
1000
0000
0000
0000
0100
0000
0000
0000
1000
0000
0000
0000
0010
0000
0000
0100
,
0000
0100
0000
0000
0010
0000
0000
0000
1000
0000
0000
0000
1001
0000
0000
0000
,
1000
0100
1000
0100
0010
0001
0010
0001
,
0100
0010
0000
0000
0100
0010
0000
0000
,
1000
0100
0001
0100
1000
0010
0001
0010
,
1000
1000
1000
1000
,
1001
0000
0001
0010
0100
1000
0001
1000
,
0010
0100
1000
0100
0001
0010
0100
1000
,
0010
0100
1000
0100
0001
0010
0100
1000
,
0001
0010
1000
0010
0001
1000
0100
0010
,
1001
0000
1000
0010
0100
0001
1000
0001
,
0010
0100
0001
0100
1000
0010
0100
0001
,
0010
0100
0001
0100
1000
0010
0100
0001
,
1000
0010
0001
0020
0000
0100
0130
0000
,
0110
0000
1000
0010
0100
0001
0010
0001
,
1000
0100
0001
1000
0010
0001
1000
0001
,
1000
0010
0001
1000
0100
0001
1000
0001
,
0010
0100
1000
0010
1000
0100
0010
0001
,
1001
0000
1000
0001
0100
0001
0010
0100
,
1000
0100
0001
0100
1000
0010
0100
0001
,
1000
0010
0001
0010
1000
0100
0010
0001
,
1000
1000
0001
0001
0000
0000
1001
0000
;

//---------------dance-single - ----------------
#NOTEDATA:;
#CHARTNAME:;
#STEPSTYPE:dance-single;
#DESCRIPTION:;
#CHARTSTYLE:;
#DIFFICULTY:Hard;
#METER:15;
#RADARVALUES:0.679183,0.778271,0.397807,0.077621,0.426915,490.000000,449.000000,41.000000,8.000000,0.000000,0.000000,0.000000,0.000000,0.000000,0.679183,0.778271,0.397807,0.077621,0.426915,490.000000,449.000000,41.000000,8.000000,0.000000,0.000000,0.000000,0.000000,0.000000;
#CREDIT:;
#NOTES:
// measure 0
0000
0000
0000
0000
,  // measure 1
0000
0000
0000
0000
,  // measure 2
0000
0000
0000
0000
,  // measure 3
0000
0000
0000
0000
,  // measure 4
0000
0000
0000
0000
,  // measure 5
0000
0000
0000
0000
,  // measure 6
0001
1000
0001
1000
0100
0010
0001
0000
,  // measure 7
1000
0001
1000
0001
0100
0010
1000
0000
,  // measure 8
0001
0100
1000
0100
0001
1000
0001
0000
,  // measure 9
1000
0100
0001
0100
1000
0001
0000
0000
,  // measure 10
0001
0001
1000
1000
0001
0001
1000
1000
,  // measure 11
0100
0010
0000
0010
0100
0010
0000
0010
,  // measure 12
0001
0100
0001
0000
1000
0010
1000
0000
0001
1000
0001
1000
0001
1000
0001
1000
,  // measure 13
0001
0001
0001
0110
,  // measure 14
0001
0000
0000
0000
1001
0000
0000
0000
1000
0100
0010
0000
0100
0010
0001
0000
,  // measure 15
1000
0010
0100
0000
0010
0100
0001
0000
1000
0100
0010
0000
0001
1000
0000
0001
,  // measure 16
1000
0000
0000
0000
1001
0000
0000
0000
0001
0100
0010
0000
0100
0010
1000
0000
,  // measure 17
0001
0010
0100
0000
0010
0100
1000
0000
0001
0100
0010
0000
2000
0000
0000
0000
,  // measure 18
3001
0110
1000
0110
,  // measure 19
0001
0010
0001
0010
0000
0100
1000
0100
0000
0010
0001
0010
0000
0100
1000
0100
,  // measure 20
1000
0110
0001
0110
,  // measure 21
1000
0010
1000
0010
0000
0100
0001
0100
0000
0010
1000
0010
1000
0000
0000
0000
,  // measure 22
0001
0000
0000
0000
1001
0000
0000
0000
1000
0001
0100
0000
0001
1000
0100
0000
,  // measure 23
1000
0001
0010
0000
0001
1000
0010
0000
1000
0001
0100
0000
0010
0100
0000
0010
,  // measure 24
0100
0000
0000
0000
1001
0000
0000
0000
0001
1000
0100
0000
1000
0001
0100
0000
,  // measure 25
0001
0100
0000
0110
0000
0000
1001
0000
1000
0000
0100
0000
0110
0000
0000
0000
,  // measure 26
0001
0100
0001
0100
0010
1000
0010
0200
,  // measure 27
0000
0000
1000
0000
0000
0000
0301
1000
,  // measure 28
0020
0000
1030
0020
0000
0230
0000
0301
,  // measure 29
0000
0101
0110
0000
,  // measure 30
1000
0000
0000
1000
0000
0000
1000
0000
1100
0000
0000
1100
0000
0000
0100
0010
,  // measure 31
0001
0000
0000
0001
0000
0000
0001
0000
0101
0000
0000
0101
0000
0000
0100
0000
,  // measure 32
0010
0000
1000
0010
0100
0000
0001
0010
0100
0000
1000
0010
0100
0000
0001
0010
,  // measure 33
0200
0000
0000
0000
,  // measure 34
0300
0000
0000
0000
,  // measure 35
0000
0000
0000
0000
,  // measure 36
0000
0000
0000
0000
,  // measure 37
0000
0000
0000
0000
,  // measure 38
1001
0000
0000
0000
0000
0000
0001
0100
1000
0000
0100
0000
0001
0000
1000
0000
,  // measure 39
1010
0000
0000
0101
0000
0000
0000
0000
,  // measure 40
0011
0000
0000
1100
0000
1000
0100
1000
,  // measure 41
1010
0000
0000
0000
0000
0000
0010
1000
0010
0000
0100
0000
0001
0000
1000
0000
,  // measure 42
1001
0000
0000
0000
0000
0000
1000
0100
0001
0000
0100
0000
1000
0000
0001
0000
,  // measure 43
0011
0010
0100
1100
0000
0000
1001
0000
,  // measure 44
1010
0010
0100
0101
0000
1001
0000
1000
,  // measure 45
0100
0010
0002
2000
0000
0000
3003
0000
,  // measure 46
1000
0100
1000
0100
0010
0001
0100
0001
,  // measure 47
0010
0100
0010
0100
1000
0001
1000
0000
,  // measure 48
0001
0100
0001
0100
0010
1000
0100
1000
,  // measure 49
0010
0100
0010
0100
0001
1000
0001
0000
,  // measure 50
1000
1000
0001
0001
1000
1000
0001
0001
,  // measure 51
0010
0100
0000
0100
0010
0100
0000
0100
,  // measure 52
1000
0100
1000
0000
0001
0010
0001
0000
1000
0001
1000
0001
1000
0001
1000
0001
,  // measure 53
1000
1000
1000
0110
,  // measure 54
1000
0000
0000
0000
1001
0000
0001
0010
1000
0000
0010
0000
0001
0000
1000
0000
,  // measure 55
0100
0010
0001
0010
0100
0000
1000
0000
0000
0000
0001
0000
0100
0000
0100
0000
,  // measure 56
0010
1000
0001
1000
0010
0000
0100
0000
0000
0000
0001
0000
1000
0000
0100
0000
,  // measure 57
0010
0000
0000
0000
1001
0000
0001
1000
0001
0000
0010
0000
0100
0000
1000
0000
,  // measure 58
0001
0000
0000
0000
1001
0000
1000
0010
0001
0000
0010
0000
1000
0000
0001
0000
,  // measure 59
0100
0010
1000
0010
0100
0000
0001
0000
0000
0000
1000
0000
0100
0000
0100
0000
,  // measure 60
0010
0001
1000
0001
0010
0000
0100
0000
0000
0000
1000
0000
0001
0000
0100
0000
,  // measure 61
0010
0000
0100
0000
0001
0000
1001
0000
0000
0000
1000
0001
1000
0000
1000
0000
,  // measure 62
0001
0000
0000
0000
1001
0000
0001
0100
1000
0000
0100
0000
0001
0000
1000
0000
,  // measure 63
0010
1000
0100
0010
0001
0000
0100
0000
0000
0000
0001
0000
1000
0000
0001
0000
,  // measure 64
1000
0100
0010
0001
0100
0000
0010
0000
0000
0000
1000
0000
0010
0000
1000
0000
,  // measure 65
0100
0000
0001
0000
0100
0000
1000
0000
0001
0000
0001
0000
0100
0010
0000
0010
,  // measure 66
0100
0000
0000
0000
1001
0000
1000
0100
0001
0000
0100
0000
1000
0000
0001
0000
,  // measure 67
0010
0001
0100
0010
1000
0000
0100
0000
0000
0000
1000
0000
0001
0000
1000
0000
,  // measure 68
0001
0100
0010
1000
0100
0000
0010
0000
0000
0000
0011
0000
0000
0000
1100
0000
,  // measure 69
1000
0100
0010
0001
0100
0010
1000
0000
0000
0000
0000
0000
1001
0000
0000
0000
;

//---------------dance-double - ----------------
#NOTEDATA:;
#CHARTNAME:;
#STEPSTYPE:dance-double;
#DESCRIPTION:;
#CHARTSTYLE:;
#DIFFICULTY:Easy;
#METER:8;
#RADARVALUES:0.314642,0.406054,0.155242,0.019405,0.024257,227.000000,211.000000,16.000000,2.000000,0.000000,0.000000,0.000000,0.000000,0.000000,0.314642,0.406054,0.155242,0.019405,0.024257,227.000000,211.000000,16.000000,2.000000,0.000000,0.000000,0.000000,0.000000,0.000000;
#CREDIT:;
#NOTES:
00000000
00000000
00000000
00000000
,
00000000
00000000
00000000
00000000
,
00000000
00000000
00000000
00000000
,
00000000
00000000
00000000
00000000
,
00000000
00000000
00000000
00000000
,
00000000
00000000
00000000
00000000
,
00001000
00010000
00001000
00001000
,
00100000
00010000
00100000
00000000
,
00010000
01000000
00100000
10000000
,
01000000
01000000
01000000
00000000
,
10000000
01000000
10000000
01000000
,
00100000
00010000
00100000
00001000
,
00010000
00000100
00001000
00000100
,
00000010
00000010
00000010
00000000
,
00001001
00000000
00000000
00000000
00000001
00000100
00000001
00000000
,
00001000
00000100
00001000
00000000
,
00001100
00000000
00000000
00000000
00000100
00010000
00001000
00000000
,
00010000
00001000
00010000
00000000
,
00001000
00001000
01000000
01000000
,
00100000
01000000
00100000
00000000
01000000
00000000
00000000
00000000
,
00010000
00010000
10000000
10000000
,
01000000
00100000
01000000
00000000
00100000
00000000
00000000
00000000
,
10010000
00000000
00000000
00000000
10000000
01000000
10000000
00000000
,
00010000
00100000
00010000
00000000
00100000
00000000
00000000
00000000
,
00011000
00000000
00000000
00000000
00001000
00010000
00001000
00000000
,
00010000
00000000
00000000
00000100
00000000
00000000
00010000
00000000
00000100
00000000
00001000
00000000
00000000
00000000
00000000
00000000
,
00001000
00000000
00000100
00000000
00000010
00000000
00000001
00002000
,
00000000
00000000
00003000
00000000
,
00000001
00000100
00001000
00010000
,
00001000
00001000
00001000
00000000
,
00010000
00000000
00000000
00001000
00000000
00000000
00000000
00000000
00100000
00000000
00000000
00010000
00000000
00000000
00000000
00000000
,
01000000
00000000
00000000
00100000
00000000
00000000
00000000
00000000
10000000
00000000
00000000
01000000
00000000
00000000
00000000
00000000
,
00100000
00010000
00100000
00000000
00001000
00010000
00001000
00010000
,
00002000
00000000
00000000
00000000
,
00013000
00000000
00000000
00000000
,
00000000
00000000
00000000
00000000
,
00000000
00000000
00000000
00000000
,
00000000
00000000
00000000
00000000
,
00011000
00000000
00000000
00010000
00000010
00000000
00001000
00000000
,
00000100
00000000
00000000
00001001
00000000
00000000
00000000
00000000
,
00000100
00000000
00000000
00001001
00000000
00000000
00000000
00000000
,
00000110
00000000
00000000
00000000
00001000
00000100
00010000
00000000
,
00011000
00000000
00000000
00001000
00100000
00000000
00010000
00000000
,
01000000
00000000
00000000
10010000
00000000
00000000
00000000
00000000
,
01000000
00000000
00000000
10010000
00000000
00000000
00000000
00000000
,
10000000
01000000
00100000
00010000
00000000
00000000
00000000
00000000
,
00100000
00100000
00001000
00001000
,
00010000
00010000
00010000
00000000
,
00000100
00000100
00001000
00001000
,
00000010
00000010
00000010
00000000
,
00000100
00000001
00000100
00000001
,
00001000
00000100
00001000
00000100
,
00010000
00001000
00010000
00001000
,
00010000
00010000
00010000
00000000
,
00011000
00000000
00001000
00001000
,
00100000
00000000
00010000
01000000
00000000
00000000
00000000
00000000
,
00100000
00000000
10000000
01000000
00000000
00000000
00000000
00000000
,
01100000
00000000
10000000
01000000
,
00010000
00000000
00001000
00001000
,
00000010
00000000
00000001
00000100
00000000
00000000
00000000
00000000
,
00000010
00000000
00001000
00000100
00000000
00000000
00000000
00000000
,
00000010
00000000
00000100
00000010
00000000
00000000
00000000
00000000
,
00001001
00000000
00000001
00000001
,
00001000
00000100
00001000
00000100
00000000
00000000
00000000
00000000
,
00010000
00001000
00010000
00001000
00000000
00000000
00000000
00000000
,
00011000
00000000
00001000
00010000
,
00001000
00000000
00100000
00010000
,
01000000
00010000
01000000
00010000
00000000
00000000
00000000
00000000
,
10000000
00100000
10000000
00100000
00000000
00000000
00000000
00000000
,
01000000
00000000
01000000
00100000
00000000
00000000
01100000
00000000
,
00000000
00000000
00000000
00000000
;

//---------------dance-double - ----------------
#NOTEDATA:;
#CHARTNAME:;
#STEPSTYPE:dance-double;
#DESCRIPTION:;
#CHARTSTYLE:;
#DIFFICULTY:Medium;
#METER:12;
#RADARVALUES:0.474042,0.541406,0.155242,0.203755,0.077621,342.000000,326.000000,16.000000,21.000000,0.000000,0.000000,0.000000,0.000000,0.000000,0.474042,0.541406,0.155242,0.203755,0.077621,342.000000,326.000000,16.000000,21.000000,0.000000,0.000000,0.000000,0.000000,0.000000;
#CREDIT:;
#NOTES:
00000000
00000000
00000000
00000000
,
00000000
00000000
00000000
00000000
,
00000000
00000000
00000000
00000000
,
00000000
00000000
00000000
00000000
,
00000000
00000000
00000000
00000000
,
00000000
00000000
00000000
00000000
,
00001000
00010000
00001000
00000000
00010000
00001000
01000000
00000000
,
00010000
01000000
00100000
00000000
10000000
01000000
00100000
00000000
,
01000000
00100000
01000000
00000000
00100000
00001000
00010000
00000000
,
00001000
00010000
00000100
00000000
00001000
00000100
00000010
00000000
,
00000001
00000100
00000001
00000100
00000010
00001000
00000010
00001000
,
00000010
00010000
00000000
00000000
00001000
00010000
00000000
00000000
,
00001000
00100000
00010000
01000000
00010000
00100000
01000000
10000000
,
00010000
00010000
00010000
00010000
,
20020000
00000000
30030000
00000000
10000000
01000000
00010000
00000000
,
00010000
00001000
00000010
00000000
00000001
00001000
00000001
00000000
,
00002002
00000000
00003003
00000000
00000001
00000100
00001000
00000000
,
00001000
00010000
00100000
00000000
10000000
00010000
10000000
00000000
,
20000000
31000000
00100000
00100000
,
00000000
00010000
00100000
00000000
00000000
00001000
00010000
00000000
00000000
00001000
00010000
00000000
00000000
00000100
00001000
00000000
,
00000020
00000000
00000100
00000130
,
00000000
00000010
00001000
00000000
00000000
00000010
00010000
00000000
00000000
00001000
00010000
00000000
00000000
00000000
00000000
00000000
,
00022000
00000000
00033000
00000000
00010000
00100000
10000000
00000000
,
10000000
01000000
00010000
00000000
00001000
00010000
00001000
00000000
,
00022000
00000000
00033000
00000000
00001000
00000010
00000001
00000000
,
00000001
00000000
00000000
00000100
00000000
00000000
00001000
00000000
00010000
00000000
00001000
00000000
00010000
00000000
00000000
00000000
,
00001000
01000000
00001000
01000000
00010000
00100000
00010000
02000000
,
00000000
00000000
00000000
00000000
03000000
00000000
00000000
01000000
,
00100000
00000000
10000000
00100000
00000000
10000000
00000000
02000000
,
00000000
03200000
00302000
00003000
,
00001000
00000000
00000000
00001000
00000000
00000000
00001000
00000000
00010000
00000000
00000000
00010000
00000000
00000000
00010000
00000000
,
00000100
00000000
00000000
00001000
00000000
00000000
00000010
00000000
00000100
00000000
00000000
00000001
00000000
00000000
00000010
00000000
,
00000100
00001000
00000100
00010000
00001000
00100000
00010000
01000000
,
00200000
00000000
00000000
00000000
,
01300000
00000000
00000000
00000000
,
00000000
00000000
00000000
00000000
,
00000000
00000000
00000000
00000000
,
00000000
00000000
00000000
00000000
,
10010000
00000000
00000000
10000000
01000000
00100000
00010000
00000000
,
00200000
00000000
00000000
00302000
00000000
00000000
00003000
00000000
,
00020000
00000000
00000000
00030100
00000000
00000100
00001000
00000100
,
00000010
00000000
00000000
00000001
00000100
00001000
00000100
00000000
,
00001001
00000000
00000000
00000001
00000100
00000010
00001000
00000000
,
00000010
00010000
00001000
00020000
00000000
00000000
00031000
00000000
,
00001000
01000000
00100000
01000000
00000000
01100000
00000000
01000000
,
00100000
10000000
01000000
00200000
00000000
00000000
00300000
00000000
,
00100000
00000000
00000000
00000000
00010000
00000000
00000000
00000000
01000000
00000000
00000000
00000000
00010000
00000000
00000000
00100000
,
00000000
00100000
00000000
00000000
00001000
00000000
00000000
00000000
00010000
00000000
00000000
00000000
00011000
00000000
00000000
00000000
,
00001000
00000000
00000000
00000000
00010000
00000000
00000000
00000000
00000010
00000000
00000000
00000000
00001000
00000000
00000000
00000100
,
00000000
00000100
00000000
00000000
00001000
00000000
00000000
00000000
00000010
00000000
00000000
00000000
00001001
00000000
00000000
00000000
,
00000001
00000010
00000001
00000010
00000100
00001000
00000100
00001000
,
00000100
00010000
00000000
00000000
00001000
00010000
00000000
00000000
,
00001000
01000000
00010000
00100000
00010000
01000000
00100000
10000000
,
00010000
00010000
00010000
00010000
,
10010000
00000000
00000000
10000000
01000000
00010000
00001000
00000010
,
00000001
00000000
00000100
00000010
00000000
00001000
00001000
00000000
,
00000001
00000000
00000100
00000010
00000000
00001000
00000001
00000100
,
00000010
00000000
00000110
00000000
00000010
00000100
00000010
00001000
,
00000001
00000000
00000000
00000001
00000100
00001000
00010000
00100000
,
10000000
01000000
00010000
01000000
00000000
00000000
01100000
00000000
,
10000000
01000000
00010000
01000000
00000000
01100000
00000000
00100000
,
00001000
00010000
00001000
00020000
00000000
00001000
00031000
00000000
,
00011000
00000000
00001000
00010000
00000010
00001000
00000100
00000010
,
00001000
00010000
00001000
00000100
00000000
00000001
00001000
00000001
,
00000010
00001000
00010000
00001000
00000000
00000100
00001000
00010000
,
00001000
00100000
00010000
00100000
00000000
00010000
01000000
00000000
,
01100000
00000000
10000000
00100000
01000000
00010000
00100000
01000000
,
00010000
00001000
00010000
01000000
00000000
00100000
00010000
10000000
,
01000000
00010000
00001000
00010000
01000000
10000000
00100000
01000000
,
00001000
00001000
00010000
00010000
00000000
00000000
00011000
00000000
,
00000000
00000000
00000000
00000000
;

//---------------dance-double - ----------------
#NOTEDATA:;
#CHARTNAME:;
#STEPSTYPE:dance-double;
#DESCRIPTION:;
#CHARTSTYLE:;
#DIFFICULTY:Hard;
#METER:15;
#RADARVALUES:0.680569,0.778271,0.252268,0.077621,0.402658,491.000000,465.000000,26.000000,8.000000,0.000000,0.000000,0.000000,0.000000,0.000000,0.680569,0.778271,0.252268,0.077621,0.402658,491.000000,465.000000,26.000000,8.000000,0.000000,0.000000,0.000000,0.000000,0.000000;
#CREDIT:;
#NOTES:
00000000
00000000
00000000
00000000
,
00000000
00000000
00000000
00000000
,
00000000
00000000
00000000
00000000
,
00000000
00000000
00000000
00000000
,
00000000
00000000
00000000
00000000
,
00000000
00000000
00000000
00000000
,
00010000
00001000
00010000
00001000
01000000
00010000
01000000
00010000
,
10000000
00100000
10000000
00100000
00010000
00001000
00010000
00000000
,
00001000
00010000
00001000
00010000
00000100
00001000
00000100
00001000
,
00000001
00000010
00000001
00000010
00001000
00010000
00001000
00000000
,
00010000
01000000
00100000
00010000
00100000
01000000
00010000
00001000
,
00000100
00000010
00001000
00000010
00000100
00001000
00010000
00000000
,
00010000
00000000
00100000
00000000
10000000
00000000
00100000
00000000
00010000
00001000
00010000
00000000
00000100
00001000
00000100
00000000
,
00000010
00000010
00000010
00001001
,
00001000
00000000
00000100
00000000
00000010
00000000
00000001
00000000
00000100
00000010
00001000
00000000
00000010
00001000
00000100
00000000
,
00001000
00000100
00010000
00000000
00001000
00100000
00010000
00000000
00100000
00010000
01000000
00000000
00010000
10000000
00000000
00010000
,
10000000
00000000
00000000
00000000
10010000
00000000
00000000
00000000
10000000
01000000
00100000
00000000
01000000
00100000
00010000
00000000
,
00100000
00001000
00010000
00000000
00001000
00010000
00000010
00000000
00001000
00000010
00000100
00000000
00000002
00000000
00000000
00000000
,
00001003
00000110
00000001
00000110
,
00000001
00000100
00000001
00000100
00000000
00000010
00010000
00000010
00000000
00010000
00001000
00010000
00000000
00000010
00010000
00000010
,
00010000
00011000
00100000
01100000
,
10000000
00100000
10000000
00100000
00000000
01000000
00001000
01000000
00000000
00001000
00010000
00001000
00000000
01000000
00001000
01000000
,
00001000
00000000
00000000
00000000
00011000
00000000
00000000
00000000
00001000
00100000
00010000
00000000
01000000
00010000
00100000
00000000
,
00001000
00010000
00000010
00000000
00001000
00000100
00000010
00000000
00000100
00010000
00001000
00000000
00010000
00001000
00000000
00010000
,
00001000
00000000
00000000
00000000
00011000
00000000
00000000
00000000
00001000
00100000
00010000
00000000
01000000
00100000
00010000
00000000
,
00001000
00010000
00000000
00001000
00000000
00000000
00011000
00000000
00010000
00000000
00000100
00000000
00000110
00000000
00000000
00000000
,
00000001
00000100
00000010
00001000
00010000
01000000
00100000
20000000
,
00000000
00000000
00100000
00000000
00000000
00000000
31000000
00100000
,
00002000
00000000
00013000
00002000
00000000
00003020
00000000
00000031
,
00000000
00000101
00000110
00000000
,
00000001
00000000
00000000
00000001
00000000
00000000
00000001
00000000
00001000
00000000
00000000
00001000
00000000
00000000
00000100
00010000
,
00000100
00000000
00000000
00000100
00000000
00000000
00000100
00000000
00010000
00000000
00000000
00010000
00000000
00000000
00010000
00000000
,
00001000
00000000
00010000
00001000
00100000
00000000
00010000
01000000
00100000
00000000
10000000
01000000
00100000
00000000
00001000
00010000
,
00002000
00000000
00000000
00000000
,
00003000
00000000
00000000
00000000
,
00000000
00000000
00000000
00000000
,
00000000
00000000
00000000
00000000
,
00000000
00000000
00000000
00000000
,
00011000
00000000
00000000
00000000
00000000
00000000
00010000
00001000
00010000
00000000
00000100
00000000
00001000
00000000
00000010
00000000
,
00001010
00000000
00000000
00000101
00000000
00000000
00000000
00000000
,
00000011
00000000
00000000
00001100
00000000
00000100
00001000
00000100
,
00000010
00000000
00000000
00000000
00000000
00000000
00000001
00000100
00000001
00000000
00000100
00000000
00001000
00000000
00010000
00000000
,
00011000
00000000
00000000
00000000
00000000
00000000
00001000
00010000
00001000
00000000
01000000
00000000
00010000
00000000
00100000
00000000
,
00110000
00010000
10000000
11000000
00000000
00000000
10010000
00000000
,
10100000
00100000
01000000
01010000
00000000
10010000
00000000
10000000
,
01000000
00010000
00002000
00020000
00000000
00000000
00033000
00000000
,
00001000
00010000
00001000
00010000
00000010
00001000
00000010
00001000
,
00000001
00000100
00000001
00000100
00001000
00010000
00001000
00000000
,
00010000
00001000
00010000
00001000
00100000
00010000
00100000
00010000
,
10000000
01000000
10000000
01000000
00010000
00001000
00010000
00000000
,
00001000
00000010
00000100
00001000
00000100
00000010
00001000
00010000
,
00100000
01000000
00010000
01000000
00100000
00010000
00001000
00000000
,
00001000
00000000
00000100
00000000
00000001
00000000
00000100
00000000
00001000
00010000
00001000
00000000
00100000
00010000
00100000
00000000
,
01000000
01000000
01000000
10010000
,
10000000
00000000
01000000
00000000
00100000
00000000
00010000
00100000
00010000
00000000
00100000
00000000
00001000
00000000
00010000
00000000
,
00001000
00000010
00001000
00000010
00001000
00000000
00000010
00000000
00001000
00000000
00010000
00000000
00000100
00000000
00010000
00000000
,
00001000
00000100
00001000
00000100
00001000
00000000
00000100
00000000
00001000
00000000
00010000
00000000
00000010
00000000
00010000
00000000
,
00001000
00000000
01000000
00000000
00001000
00000000
00010000
00000100
00001000
00000000
00000010
00000000
00000100
00000010
00000100
00000000
,
00000001
00000000
00000010
00000000
00000100
00000000
00001000
00000100
00001000
00000000
00000100
00000000
00010000
00000000
00001000
00000000
,
00010000
01000000
00010000
01000000
00010000
00000000
01000000
00000000
00010000
00000000
00001000
00000000
00100000
00000000
00001000
00000000
,
00010000
00100000
00010000
00100000
00010000
00000000
00100000
00000000
00010000
00000000
00001000
00000000
01000000
00000000
00001000
00000000
,
00010000
00000000
00000010
00000000
00001000
00000000
00000001
00000000
00000000
00000000
00001000
00000001
00001000
00000000
00001000
00000000
,
00000001
00000000
00000100
00000000
00000010
00000000
00001000
00000100
00001000
00000000
00000010
00000000
00001000
00000000
00000100
00000000
,
00010000
00001000
00100000
00010000
00100000
00000000
00001000
00000000
00010000
00000000
01000000
00000000
00100000
00000000
00001000
00000000
,
00010000
00001000
00100000
00010000
00100000
00000000
00001000
00000000
00010000
00000000
01000000
00000000
00100000
00000000
00001000
00000000
,
00010000
00000000
01000000
00000000
10000000
00000000
01000000
00000000
00010000
00000000
00010000
00000000
00001000
00010000
00000000
00010000
,
00001000
00000000
00000010
00000000
00000001
00000000
00001000
00000100
00000010
00000000
00000001
00000000
00000100
00000000
00000010
00000000
,
00001000
00000100
00010000
00001000
00010000
00000000
00000100
00000000
00010000
00000000
00001000
00000000
00010000
00000000
00000010
00000000
,
00001000
00000100
00010000
00001000
00010000
00000000
00000100
00000000
00010000
00000000
00001000
00000000
00010000
00000000
00000010
00000000
,
00000100
00001000
00000100
00001000
00010000
00001000
00010000
00000000
00000000
00000000
00000000
00000000
00011000
00000000
00000000
00000000
,
00000000
00000000
00000000
00000000
;

//---------------dance-single - ----------------
#NOTEDATA:;
#CHARTNAME:;
#STEPSTYPE:dance-single;
#DESCRIPTION:;
#CHARTSTYLE:;
#DIFFICULTY:Challenge;
#METER:16;
#RADARVALUES:0.772051,1.177958,0.436618,0.456023,0.645224,557.000000,512.000000,45.000000,47.000000,0.000000,0.000000,0.000000,0.000000,0.000000,0.772051,1.177958,0.436618,0.456023,0.645224,557.000000,512.000000,45.000000,47.000000,0.000000,0.000000,0.000000,0.000000,0.000000;
#CREDIT:;
#OFFSET:0.000000;
#BPMS:0.000000=170.000000
,71.000000=85.000000
,79.000000=170.000000
,126.000000=340.000000
,130.000000=170.000000
;
#STOPS:39.000000=0.176470
,70.500000=0.176472
,94.000000=0.176470
,109.500000=0.176470
,126.000000=4.941176
,177.000000=0.176470
;
#DELAYS:;
#WARPS:;
#TIMESIGNATURES:0.000000=4=4
;
#TICKCOUNTS:0.000000=4
;
#COMBOS:0.000000=1
;
#SPEEDS:0.000000=1.000000=0.000000=0
;
#SCROLLS:0.000000=1.000000
;
#FAKES:;
#LABELS:0.000000=Song Start
;
#NOTES:
// measure 0
0000
0000
0000
0000
,  // measure 1
0000
0000
0000
0000
,  // measure 2
0000
0000
0000
0000
,  // measure 3
0000
0000
0000
0000
,  // measure 4
0000
0000
0000
0000
,  // measure 5
0000
0000
0000
0000
,  // measure 6
0001
0001
1000
1000
0100
0010
0001
0000
,  // measure 7
1000
1000
0001
0001
0010
0100
1000
0001
,  // measure 8
1000
0010
0100
0010
1000
0001
0100
0100
,  // measure 9
0001
0100
1000
0100
0010
1000
0110
0001
,  // measure 10
0001
1000
1000
0001
0001
1000
1000
0100
,  // measure 11
0010
0000
0010
0000
0100
0000
0010
0000
0010
0000
0001
0000
0010
0000
0001
0100
,  // measure 12
0001
0100
0010
1000
0010
1000
0001
1000
0001
1000
0001
1000
0001
1000
0001
0000
,  // measure 13
0001
0000
0100
0000
0010
0100
0010
0100
0010
0000
0210
0000
0000
0000
0301
0000
,  // measure 14
0000
0000
1001
0000
0000
0000
1000
0100
0010
0000
0100
0010
0001
0000
1000
0010
,  // measure 15
0100
0000
0010
0100
0001
0000
1000
0100
0010
0000
0001
1000
0000
0001
1000
0000
,  // measure 16
0000
0000
1001
0000
0000
0000
0001
0100
0010
0000
0100
0010
1000
0000
0001
0010
,  // measure 17
0100
0000
0010
0100
1000
0000
0001
0100
0010
0000
2000
0000
3001
0000
0110
0000
,  // measure 18
1000
0000
0000
0000
0110
0000
0000
0000
0001
0010
0100
1000
0000
0100
0010
0001
0000
0010
0100
1000
0001
1000
0001
1000
0010
0000
0000
0000
0110
0000
0000
0000
,  // measure 19
0100
0000
0000
0000
0110
0000
0000
0000
0010
1000
0100
0000
0010
0001
0100
0000
0010
1000
0100
0000
2000
0000
0000
0000
3001
0000
0000
0000
0000
0000
0000
0000
,  // measure 20
1001
0000
0000
0000
1000
0001
0100
0000
0001
1000
0100
0000
1000
0001
0010
0000
,  // measure 21
0001
1000
0010
0000
1000
0001
0100
0000
0010
0100
0000
0010
0100
0000
0000
0000
,  // measure 22
1001
0000
0000
0000
0001
1000
0100
0000
1000
0001
0100
0000
0001
0100
0000
0110
,  // measure 23
0000
1001
1000
0100
0110
0010
0001
0100
,  // measure 24
1000
0100
0010
0001
0020
0000
0000
1000
,  // measure 25
2030
0000
0000
0000
3010
0020
0000
1030
,  // measure 26
0020
0000
0031
0020
0100
0031
0000
0101
,  // measure 27
0000
0000
0110
0000
0000
0000
0101
0000
1001
0000
0000
1001
0000
0000
1000
0000
,  // measure 28
1100
0000
0000
1100
0000
0000
0100
0010
0001
0000
0000
0101
0000
0000
0100
0000
,  // measure 29
0110
0000
0000
1010
0000
0000
1000
0000
0001
0000
1000
0100
0010
0000
0001
0010
,  // measure 30
0100
0010
0100
0010
0100
0010
0100
0010
0001
1000
0001
1000
0001
1000
0001
1000
,  // measure 31
0001
1000
0001
1000
0001
1000
0001
1000
0002
0000
0000
0000
0000
0000
0000
0000
,  // measure 32
0000
0000
0000
0000
0000
0000
0000
0000
2003
0000
0000
0000
0000
0000
3001
0100
,  // measure 33
1000
0100
0001
0100
0202
0000
0303
2020
,  // measure 34
0000
3030
0000
0000
2200
0000
3300
0021
,  // measure 35
0000
0000
0031
0000
0010
0000
0001
0000
0202
0000
0000
0000
0303
0000
0100
0001
,  // measure 36
0100
0000
0010
0000
1000
0000
0001
0000
2002
0000
0000
0000
3003
0000
0001
0010
,  // measure 37
1000
0010
0001
1000
1100
0100
0010
0022
,  // measure 38
0033
0000
1001
0000
0101
0100
0010
2020
,  // measure 39
3030
1001
0000
0001
0010
0100
2000
0002
,  // measure 40
0000
0000
0000
0000
3003
0000
0000
0000
1000
0000
0100
0000
1000
0000
0100
0010
,  // measure 41
0001
0000
0010
0100
1000
0000
0001
0000
0010
0001
0000
0010
0001
0000
0010
0100
,  // measure 42
1000
0000
0100
0010
0001
0000
1000
0000
0001
0100
0000
0001
0100
0000
0010
0000
,  // measure 43
1000
0000
0001
1000
0100
0000
1000
0000
1010
0000
0010
0000
0110
0000
0100
0000
,  // measure 44
0101
0001
1001
0100
0100
0010
0010
0100
,  // measure 45
0100
0001
0001
0100
1000
0100
0010
0001
,  // measure 46
0010
0000
0100
0000
0001
0000
1000
0100
1000
0100
0010
0001
0010
0001
1000
0001
,  // measure 47
1000
0001
1000
0001
1000
0001
1000
0000
0010
0000
0100
0000
0001
1000
0001
1000
,  // measure 48
0001
0000
0102
0000
0000
0000
1003
0000
0000
0000
1001
0000
0001
0010
1000
0000
,  // measure 49
0010
0000
0001
0000
1000
0000
0100
0001
0200
0000
0000
0000
1300
0000
2000
0000
,  // measure 50
0000
0000
3001
0000
0100
0000
0001
0010
0002
0000
0000
0000
1003
0100
2000
0000
,  // measure 51
0001
0000
3001
0000
0100
0000
0120
0000
0000
0000
0130
0000
0001
1000
0001
0000
,  // measure 52
0010
0000
0100
0010
0000
0100
2000
0000
0000
0000
3001
0000
1000
0100
0001
0000
,  // measure 53
0100
0000
1000
0000
0001
0000
1000
0010
0100
0010
1000
0000
1002
0000
0000
0000
,  // measure 54
1003
0000
0200
0000
1000
0000
1300
0001
0100
0001
1000
0100
1000
0000
0001
0000
,  // measure 55
0200
0000
0010
0000
1300
0000
0001
0100
0001
0100
0001
0000
1002
0000
0000
0000
,  // measure 56
1003
0010
1000
0000
0001
0000
0200
0000
0000
0000
0301
0000
1000
0100
0001
0000
,  // measure 57
0100
0000
1000
0000
0001
0000
0100
0001
0010
0100
1000
0010
2000
0000
0000
0000
,  // measure 58
3001
0000
1000
0000
0010
0000
1000
0100
0010
0001
0100
0010
0200
0000
0000
0000
,  // measure 59
0320
0000
0000
0000
1030
0000
0100
0001
0100
0000
0010
1000
0010
0000
0001
0000
,  // measure 60
0001
0000
0100
0010
0000
0010
0200
0000
0000
0000
0301
0000
1000
0100
0001
0000
,  // measure 61
0100
0000
1000
0000
0001
0000
0010
0001
0100
0010
1000
0100
0020
0000
0000
0000
,  // measure 62
0031
0000
0001
0000
0010
0000
0100
1000
0010
0100
0001
0010
0100
1000
0001
0010
,  // measure 63
0001
0010
0100
1000
0100
1000
0001
0000
0001
0100
0000
0100
0020
0000
0000
0000
,  // measure 64
0030
2002
0000
0000
0000
0000
0000
0000
,  // measure 65
0000
0000
0000
0000
0000
3003
0000
0000
;
