#VERSION:0.83;
#TITLE:Sword of Vengeance;
#SUBTITLE:;
#ARTIST:sky_delta;
#TITLETRANSLIT:;
#SUBTITLETRANSLIT:;
#ARTISTTRANSLIT:;
#GENRE:;
#ORIGIN:;
#CREDIT:;
#BANNER:Sword of Vengeance.png;
#BACKGROUND:Sword of Vengeance-bg.png;
#PREVIEWVID:;
#JACKET:Sword of Vengeance-jacket.png;
#CDIMAGE:;
#DISCIMAGE:;
#LYRICSPATH:;
#CDTITLE:;
#MUSIC:Sword of Vengeance.ogg;
#OFFSET:0.000000;
#SAMPLESTART:68.057999;
#SAMPLELENGTH:15.000000;
#SELECTABLE:YES;
#BPMS:0.000=208.000;
#STOPS:;
#DELAYS:;
#WARPS:;
#TIMESIGNATURES:0.000=4=4;
#TICKCOUNTS:0.000=4;
#COMBOS:0.000=1;
#SPEEDS:0.000=1.000=0.000=0;
#SCROLLS:0.000=1.000;
#FAKES:;
#LABELS:0.000=Song Start;
#BGCHANGES:;
#KEYSOUNDS:;
#ATTACKS:
;

//---------------dance-single - ----------------
#NOTEDATA:;
#CHARTNAME:;
#STEPSTYPE:dance-single;
#DESCRIPTION:;
#CHARTSTYLE:;
#DIFFICULTY:Beginner;
#METER:5;
#RADARVALUES:0.217219,0.337196,0.047271,0.055149,0.000000,193.000000,187.000000,6.000000,7.000000,0.000000,0.000000,0.000000,0.000000,0.000000,0.217219,0.337196,0.047271,0.055149,0.000000,193.000000,187.000000,6.000000,7.000000,0.000000,0.000000,0.000000,0.000000,0.000000;
#CREDIT:;
#NOTES:
0000
0000
0000
0000
,
0000
0000
0000
0000
,
0000
0000
0000
0000
,
0000
0000
0000
0000
,
0000
0000
0000
0000
,
0000
0000
0000
0000
,
0001
0000
0000
0000
,
0100
0000
0000
0000
,
0010
0000
0100
0000
,
0010
0010
0010
0000
,
1000
0000
1000
0000
,
0010
0000
0010
0000
,
0100
0000
0100
0000
,
0001
0000
0001
0000
,
0010
0000
0100
0000
,
0010
0000
1000
0000
,
0100
0000
0010
0000
,
0110
0000
0000
0000
,
0001
0000
0010
0000
,
0001
0000
0010
0000
,
0100
0000
1000
0000
,
0100
0000
1000
0000
,
0010
0000
0100
0000
,
0010
0000
0100
0000
,
0001
0000
0010
0000
,
0100
0000
1000
0000
,
0010
0000
1000
0000
,
0010
0000
1000
0000
,
0001
0000
0100
0000
,
0001
0000
0100
0000
,
0001
0001
0001
0000
,
1000
1000
1000
0000
,
0010
0000
0100
0000
,
0000
0000
0000
0000
,
0010
0000
1000
0000
,
0100
0000
0100
0000
,
0010
0000
0001
0000
,
0100
0000
0100
0000
,
0010
0000
1000
0000
,
0010
0000
0100
0000
,
0001
0000
0010
0000
,
0001
0000
0100
0000
,
0010
0000
1000
0000
,
0001
0000
0100
0000
,
0010
0000
0100
0000
,
0001
0000
0010
0000
,
0001
0000
0100
0000
,
0010
0000
1000
0000
,
0100
0000
0010
0000
,
0001
0000
1000
0000
,
0010
0000
0000
0000
,
0000
0000
0000
0000
,
0100
0000
0000
0000
,
0001
0000
0000
0000
,
1000
0000
0000
0000
,
0010
0000
0000
0000
,
0100
0000
0001
0000
,
0100
0000
0001
0000
,
0000
0000
0000
0000
,
2000
0000
0000
0000
,
3000
0000
0000
0000
,
0020
0000
0000
0000
,
0030
0000
0000
0000
,
0200
0000
0000
0000
,
0300
0000
0000
0000
,
0002
0000
0003
0000
,
2000
0000
3000
0000
,
0010
0000
0000
0000
,
0010
0000
0000
0000
,
0100
0000
0000
0000
,
0100
0000
0000
0000
,
0001
0000
0010
0000
,
0001
0000
0100
0000
,
0010
0000
0100
0000
,
0220
0000
0330
0000
,
1000
0000
0010
0000
,
0100
0100
0100
0000
,
0001
0000
0010
0000
,
0100
0100
0100
0000
,
1000
0000
0010
0000
,
1000
1000
1000
0000
,
0001
0000
1000
0000
,
1001
0000
0000
0000
,
0001
0000
0100
0000
,
0010
0010
0100
0000
,
0001
0000
1000
0000
,
0100
0100
0010
0000
,
0100
0000
0100
0000
,
0010
0000
0010
0000
,
0001
0000
1000
0000
,
1001
0000
0000
0000
,
0010
0000
0100
0000
,
0010
0010
1000
0000
,
0100
0000
0010
0000
,
0100
0100
0001
0000
,
0100
0000
0010
0000
,
0100
0100
0010
0000
,
1000
0000
0001
0000
,
1001
0000
0000
0000
,
0100
0000
0010
0000
,
1000
1000
0001
0000
,
0010
0000
0100
0000
,
1000
1000
0001
0000
,
0100
0100
0100
0000
,
0010
0010
0010
0000
,
1000
1000
1000
0000
,
0001
0001
0001
0000
,
1001
0000
0000
0000
,
0000
0000
0000
0000
;

//---------------dance-single - ----------------
#NOTEDATA:;
#CHARTNAME:;
#STEPSTYPE:dance-single;
#DESCRIPTION:;
#CHARTSTYLE:;
#DIFFICULTY:Easy;
#METER:9;
#RADARVALUES:0.467078,0.549864,0.126055,0.102419,0.000000,415.000000,399.000000,16.000000,13.000000,0.000000,0.000000,0.000000,0.000000,0.000000,0.467078,0.549864,0.126055,0.102419,0.000000,415.000000,399.000000,16.000000,13.000000,0.000000,0.000000,0.000000,0.000000,0.000000;
#CREDIT:;
#NOTES:
0000
0000
0000
0000
,
0000
0000
0000
0000
,
0000
0000
0000
0000
,
0000
0000
0000
0000
,
0000
0000
0000
0000
,
0000
0000
0000
0000
,
1000
0100
0010
0100
,
1000
0001
0100
0010
,
0100
0001
0100
0010
,
0100
0010
0100
0000
0010
0000
0220
0000
,
0330
1000
0010
0100
,
0001
0010
0001
0010
,
0100
1000
0010
1000
,
0100
0010
0001
0100
,
0010
0100
0001
1000
,
0100
0010
0100
1000
,
0010
0010
0100
0100
,
0001
1000
0001
0000
1001
0000
0000
0000
,
0010
0100
0001
0100
,
0001
0000
1000
0000
0100
0010
0100
0000
,
0010
0001
0010
0100
,
1000
0010
0100
0100
,
0001
0100
0010
0100
,
0001
0000
1000
0000
0100
0010
0100
0000
,
0010
0001
1000
0100
,
1000
0010
0100
0100
,
0001
0010
0100
0100
,
0010
0001
0100
0100
,
0010
1000
0010
0000
1000
0000
0100
0000
,
0010
0001
0010
0000
0001
0000
1000
0000
,
0100
0100
0100
0100
,
0010
0010
0001
0001
,
1000
0000
0010
0000
1000
0001
1000
0001
,
0000
0000
0000
0000
,
0001
1000
0001
0000
1000
0000
0010
0000
,
0100
0100
0001
0010
,
0001
1000
0001
0000
0010
0000
0100
0000
,
1000
0001
0100
0110
,
0010
1000
0010
0000
0100
0000
0001
0000
,
0100
0001
1000
0100
,
1000
0100
1000
0000
0001
0000
0100
0000
,
0010
1000
0001
0100
,
0110
0000
0010
0010
,
1000
0001
1000
0000
0001
0000
0100
0000
,
0010
0010
0100
0100
,
0001
1000
0001
0000
0100
0000
0010
0000
,
0100
0001
0100
0010
,
1000
0100
1000
0000
0100
0000
1000
0000
,
0001
0001
0010
0010
,
0200
0000
0000
0300
,
0010
0100
1000
0100
,
0010
0001
0100
0010
,
1000
0001
1000
0000
0010
0000
1000
0001
,
1000
0010
0100
0010
,
1000
0010
0100
0001
,
0010
0100
1000
0100
,
0010
0010
0100
0100
,
0010
0000
0100
0000
1000
0001
1000
0001
,
0000
0000
0000
0000
,
0002
0000
0000
0003
,
0200
0000
0000
0300
,
0020
0000
0000
0030
,
2000
0000
0000
3000
,
0010
0000
0000
0100
0000
0000
0001
0000
,
0010
0100
1000
0001
,
0020
0000
0200
0330
,
2002
0000
0000
3003
,
0001
0010
0000
0010
,
0001
0100
1000
0000
,
1000
0100
0000
0100
,
0010
1000
0100
0001
,
0100
0000
1001
0000
,
0100
0000
1001
0000
,
0001
1000
0001
1000
,
0200
0000
0000
0300
,
0010
0001
0010
0100
,
1000
0010
1000
0000
0100
0000
0100
0000
,
0010
0001
0010
0000
0001
0000
0100
0000
,
0010
1000
0100
1000
,
0001
0100
0010
0100
,
0010
1000
0100
0000
0010
0000
0001
0000
,
0100
0001
0010
0000
0100
0000
1000
0000
,
0020
0000
0000
0130
,
0110
0001
1000
0010
,
0100
0001
0010
0000
0001
0000
1000
0000
,
0010
1000
0100
0000
1000
0000
0001
0000
,
0100
0010
0100
0000
0010
0000
0110
0000
,
1001
1000
0100
0010
,
0001
0100
0010
0000
0100
0000
0001
0000
,
1000
0010
0100
0000
0010
0000
0100
0000
,
0001
0100
0001
0000
1001
0000
0010
0000
,
1001
0100
1000
0010
,
0100
0001
0100
0000
0010
0000
1000
0000
,
0001
0010
0100
0000
1000
0000
0010
0000
,
1000
0100
0010
0000
0100
0000
0010
0000
,
0001
1000
0010
0100
,
0010
1000
0100
0000
0010
0000
0100
0000
,
0010
0001
0100
0000
0010
0000
0100
0000
,
0001
0000
1000
0001
1000
0000
0110
0000
,
1001
0000
0010
0000
0001
0100
0001
0000
,
0100
0000
0010
0000
1000
0010
1000
0000
,
0100
0000
0010
0000
0001
1000
0001
0000
,
0010
0000
0100
0000
1000
0001
1000
0000
,
0001
0000
0110
0000
,
0001
0000
0110
0000
,
0100
0001
1000
0100
,
1000
0010
0100
0010
,
1000
0001
1000
0001
0000
0000
0000
0000
,
0000
0000
0000
0000
;

//---------------dance-single - ----------------
#NOTEDATA:;
#CHARTNAME:;
#STEPSTYPE:dance-single;
#DESCRIPTION:;
#CHARTSTYLE:;
#DIFFICULTY:Medium;
#METER:13;
#RADARVALUES:0.674168,0.761351,0.259988,0.118176,0.000000,599.000000,566.000000,33.000000,15.000000,0.000000,0.000000,0.000000,0.000000,0.000000,0.674168,0.761351,0.259988,0.118176,0.000000,599.000000,566.000000,33.000000,15.000000,0.000000,0.000000,0.000000,0.000000,0.000000;
#CREDIT:;
#NOTES:
0000
0000
0000
0000
,
0000
0000
0000
0000
,
0000
0000
0000
0000
,
0000
0000
0000
0000
,
0000
0000
0000
0000
,
0000
0000
0000
0000
,
0001
0000
0100
0010
0000
1000
0100
0000
,
0010
0001
0000
1000
0010
0000
0100
0000
,
0001
0010
0100
0000
1000
0010
0100
0000
,
0001
0010
0001
0000
1000
0000
1001
0000
,
0010
0010
0000
0100
0000
0001
0000
1000
,
0000
0010
0000
0100
0000
0001
0000
0010
,
0000
0100
0000
1000
0000
0010
0000
0100
,
0000
0001
0000
0010
0000
0100
1000
0010
,
0000
0100
0000
0001
0000
1000
0000
0100
,
0000
0010
0000
0001
0000
0100
0000
0010
,
1000
0100
1000
0000
0001
0100
0001
0000
,
0010
0100
0010
0100
1000
0001
0100
0000
,
0010
0000
1000
0100
0000
0100
0010
0000
,
0001
0000
0100
0000
0010
1000
0010
0000
,
0100
0001
0100
0000
0001
0000
0001
0000
,
0010
0100
1000
0000
0010
0100
0001
0010
,
0100
0000
1000
0010
0000
0010
0100
0000
,
0001
0000
0010
0000
0100
1000
0100
0000
,
1000
0010
1000
0000
0001
0000
0001
0000
,
0100
0010
1000
0000
0001
0100
0010
1000
,
0100
0000
0010
0001
0000
0100
0010
0000
,
1000
0100
0000
0010
0001
0000
1000
0000
,
0100
0010
0100
0000
0010
0000
0001
0000
,
0100
0010
0100
0000
0010
1000
0010
0001
,
0010
1000
0100
0100
,
0010
0010
0001
0001
,
0100
0000
0010
0000
1000
0001
1000
0001
,
0000
0000
0000
0000
,
1000
0100
1000
0010
0100
0001
0100
0000
,
0001
0010
0001
0100
0010
1000
0010
0000
,
0100
0001
0010
0100
1000
0001
0010
0000
,
0100
1000
0010
0100
0001
0000
0011
0000
,
0010
0100
0010
0001
0100
1000
0100
0000
,
0010
0100
0010
1000
0100
0001
0100
0000
,
1000
0010
0100
0010
1000
0001
0010
0100
,
0010
0001
1000
0100
0010
0000
0011
0000
,
1001
0000
0010
0100
1000
0100
0010
0000
,
0001
0100
0010
0100
0001
0000
1001
0000
,
0100
0010
0100
0001
1000
0100
1000
0010
,
0100
0001
0010
0100
1000
0001
0100
0000
,
0010
1000
0010
0100
0001
1000
0100
0000
,
0010
0001
0010
0100
1000
0010
0100
0000
,
0001
0010
0100
1000
0100
0010
0100
0001
,
0100
0010
1000
0010
0001
0100
0010
1000
,
0001
0000
0010
0010
0000
0100
0100
0000
,
1000
1000
0000
0001
0001
0000
0100
0000
,
0010
1000
0100
0000
1100
0000
1000
0001
,
0010
0000
0011
0000
0001
0000
0100
0010
,
0100
0010
1000
0000
0100
0010
0001
0000
,
0100
0010
1000
0100
0010
0000
0100
0000
,
1000
0010
1000
0010
0100
0001
0100
0001
,
0010
0001
0010
0100
1000
0010
0100
0001
,
0000
0000
0000
0010
,
1002
0000
0000
0000
,
2003
0000
0000
0000
0000
0000
0000
3100
,
0020
0000
0000
0000
,
0230
0000
0000
2300
0000
0000
3002
0000
,
0203
0000
0000
0320
0000
0000
0130
0000
,
0001
0000
1000
0200
0000
0310
0001
0020
,
0000
0000
0000
0032
0000
0000
0103
0000
,
0220
0000
0000
0330
,
0010
0000
1001
0000
0000
0001
0000
1000
,
0000
0100
0010
0000
0001
1000
0001
0000
,
1000
0000
0110
0000
0000
0100
0000
0010
,
0000
1000
0001
0000
0010
0100
0010
0000
,
0100
0000
1000
1100
0000
0110
0000
0001
,
1000
0000
0001
0101
0000
0110
0000
0010
,
1000
0100
0001
0000
0001
0100
1000
0000
,
0020
0000
0000
0030
,
0110
0000
0100
0000
0001
0010
0001
0000
,
1000
0100
1000
0010
0100
0010
0100
0000
,
0001
0010
0100
1000
0001
0000
0100
0000
,
0010
1000
0010
0000
0100
0001
0100
0010
,
1000
0000
0100
0010
0000
0001
0010
0000
,
0100
1000
0010
0100
0001
0010
0001
0000
,
1000
0100
0010
0001
0100
0000
0001
0000
,
2000
0000
3000
1001
,
0110
0000
1000
0010
0000
0001
0010
0000
,
0001
0100
0010
0100
0001
0000
1000
0000
,
0010
1000
0100
0010
0001
0000
0100
0001
,
0100
0010
1000
0000
0001
1000
0001
1000
,
1001
0000
0100
0010
0000
1000
0100
0000
,
0010
0001
0100
0010
1000
0000
0100
0000
,
0010
0001
1000
0100
0010
0000
0001
0100
,
0010
1000
0001
0100
0110
0000
1001
0000
,
0110
0000
1000
0100
0010
0001
0100
0010
,
0100
1000
0100
0001
0100
0010
0100
1000
,
0100
0001
0010
1000
0010
0001
0100
1000
,
0100
0001
0010
0100
1000
0000
0110
0000
,
0001
0010
0100
1000
0010
0100
0010
0001
,
0010
1000
0010
0100
0010
0001
0010
1000
,
0100
0001
0100
1000
0010
0001
0010
1000
,
1100
0110
0011
1001
,
0110
0000
0100
0010
1000
0100
0010
0001
,
0100
0010
1000
0001
0100
0010
1000
0001
,
1000
0010
1000
0100
0010
0001
0010
0100
,
1000
0010
0100
0001
0010
0100
1000
0001
,
1000
0010
0100
0110
0000
0110
0000
0001
,
0100
0010
1000
1001
0000
1001
0000
0001
,
1000
0010
0001
0000
0001
0010
1000
0000
,
0100
0010
0001
1000
0010
0000
0110
0000
,
1000
0100
0010
0001
0000
0000
0000
0000
,
0000
0000
0000
0000
;

//---------------dance-single - ----------------
#NOTEDATA:;
#CHARTNAME:;
#STEPSTYPE:dance-single;
#DESCRIPTION:;
#CHARTSTYLE:;
#DIFFICULTY:Hard;
#METER:16;
#RADARVALUES:0.829485,1.057432,0.236353,0.118176,0.271805,737.000000,707.000000,30.000000,15.000000,0.000000,0.000000,0.000000,0.000000,0.000000,0.829485,1.057432,0.236353,0.118176,0.271805,737.000000,707.000000,30.000000,15.000000,0.000000,0.000000,0.000000,0.000000,0.000000;
#CREDIT:;
#NOTES:
// measure 0
0000
0000
0000
0000
,  // measure 1
0000
0000
0000
0000
,  // measure 2
0000
0000
0000
0000
,  // measure 3
0000
0000
0000
0000
,  // measure 4
0000
0000
0000
0000
,  // measure 5
0000
0000
0000
0000
,  // measure 6
0010
0000
1000
0100
0000
0010
0001
0000
,  // measure 7
1000
0001
0000
0100
0010
1000
0001
0010
,  // measure 8
0100
1000
0010
0100
0001
0100
0010
1000
,  // measure 9
0100
0100
0010
0010
0100
0000
0110
0000
,  // measure 10
1000
1000
0001
0100
0000
0010
0000
1000
,  // measure 11
0000
0001
0000
0100
0000
0010
0000
1000
,  // measure 12
0000
0010
0100
0001
0000
1000
0000
0001
,  // measure 13
0000
0010
0000
0100
0010
0001
1000
0100
,  // measure 14
0000
0010
0000
0001
0000
1000
0000
0010
,  // measure 15
0100
0001
0000
0100
0000
0010
0000
1000
,  // measure 16
0100
0010
0001
0100
0010
1000
0001
0100
,  // measure 17
0001
0100
0001
0000
1000
0100
1000
0000
0001
0010
0001
0000
1000
0010
1000
0000
,  // measure 18
0001
0000
0001
0100
0000
0100
0010
0000
,  // measure 19
0010
1000
0000
1000
0100
0010
0001
1000
,  // measure 20
0010
0100
0001
1000
0010
0000
0010
0100
,  // measure 21
0001
0000
1000
0000
0010
0000
0000
0000
1000
0000
0001
0000
1000
0001
1000
0001
,  // measure 22
1000
0000
1000
0100
0000
0100
0010
0000
,  // measure 23
0010
0001
0000
0001
0100
0010
1000
0001
,  // measure 24
0010
0100
1000
0001
0010
0000
0010
0100
,  // measure 25
1000
0000
0001
0000
0010
0000
0000
0000
0001
0000
1000
0000
0001
1000
0001
1000
,  // measure 26
0001
0000
0100
0010
0000
1000
0100
0000
,  // measure 27
0010
0001
0000
1000
0100
0001
0100
1000
,  // measure 28
0010
0001
0010
1000
0010
0000
0010
0001
,  // measure 29
0010
0000
1000
0000
0010
0000
0000
0000
0100
0000
0010
0000
0100
0010
0100
0010
,  // measure 30
0100
0100
0010
0010
,  // measure 31
1000
1000
0001
0001
,  // measure 32
1000
0000
0010
0000
0100
0000
0001
0000
0100
0001
0100
0001
1000
0100
1000
0100
,  // measure 33
0000
0000
0000
0000
,  // measure 34
1000
0100
1000
0000
0010
0000
0100
0000
0001
0000
0010
0000
0100
0000
1000
0000
,  // measure 35
0001
0100
0001
0100
0001
0000
0010
0000
0100
0000
1000
0000
0001
0000
0100
0000
,  // measure 36
0001
0010
0001
0000
0010
0000
0100
0000
1000
0000
0010
0000
0100
0000
0001
0000
,  // measure 37
1000
1000
0010
0100
0101
0000
1100
0100
,  // measure 38
0010
0100
0010
0000
0001
0000
1000
0000
0010
0000
0100
0000
0001
0000
1000
0000
,  // measure 39
0001
0010
0001
0010
0001
0000
1000
0000
0010
0000
0100
0000
0001
0000
1000
0000
,  // measure 40
0001
0010
0100
0010
0001
1000
0100
0010
,  // measure 41
0100
1000
0001
0100
0110
0000
0101
0000
,  // measure 42
1001
0000
0000
0000
1000
0001
1000
0000
0001
0000
0100
0000
0010
0000
1000
0000
,  // measure 43
0010
1000
0010
1000
0001
0000
0010
0000
0100
0000
1000
0000
0001
0000
0100
0000
,  // measure 44
0001
0010
0001
0000
1000
0000
0001
0000
1000
0000
0010
0000
0100
0000
0010
0000
,  // measure 45
1000
0100
1000
0100
1000
0000
0001
0100
0001
0100
0001
0000
1000
0100
0010
0000
,  // measure 46
0100
0100
0100
1000
0001
0100
0010
1000
,  // measure 47
0001
0100
0001
0100
0001
0000
0010
0000
0001
0000
0100
0000
0010
0000
1000
0000
,  // measure 48
0001
0100
0010
1000
0100
0010
0100
1000
,  // measure 49
0001
0000
1000
0000
0001
0100
0010
0000
1000
0000
0001
0000
1000
0100
0010
0001
,  // measure 50
1000
0000
0001
0001
0000
1000
1000
0000
,  // measure 51
0010
0010
0000
0100
0100
0001
0010
0100
,  // measure 52
1000
0001
0100
0010
1000
0000
1000
0001
,  // measure 53
0100
0000
0010
0000
1000
0000
0000
0000
0010
0000
0100
0000
0001
0100
0010
1000
,  // measure 54
0001
0010
0100
1000
0100
0010
0001
0100
,  // measure 55
0010
0100
0001
1000
0001
0010
0100
1000
,  // measure 56
0001
0100
0001
0000
1000
0100
1000
0000
0001
0100
0001
0000
1000
0100
1000
0000
,  // measure 57
0010
0100
0010
0000
1000
0001
1000
0000
0001
0100
0010
0000
1000
0100
0010
0001
,  // measure 58
0000
0000
0000
0010
,  // measure 59
2001
0000
0000
0000
,  // measure 60
3002
0000
0000
0000
0000
0000
0000
0000
0000
0000
0000
0000
0000
0000
0013
0001
,  // measure 61
0200
0000
0000
0000
,  // measure 62
0320
0000
0000
0230
0000
0000
0302
0000
,  // measure 63
2003
0000
0000
3002
0000
0000
1003
0100
,  // measure 64
0010
0001
1000
0200
0000
0310
0001
2000
,  // measure 65
0000
0000
0000
3002
0000
0000
0103
0000
,  // measure 66
0220
0000
0000
0330
,  // measure 67
0010
0000
1001
0000
0000
1000
0000
0001
,  // measure 68
0000
0010
0100
0000
0010
0100
0010
0000
,  // measure 69
0100
0000
1001
0000
0000
0001
0000
1000
,  // measure 70
0000
0010
0100
0000
0010
0100
0010
0000
,  // measure 71
0100
0000
0010
0000
1000
0000
1001
0000
0000
0000
0110
0000
0000
0000
0010
0100
,  // measure 72
0010
0100
0001
1001
0000
0110
0000
0010
,  // measure 73
1000
0100
0001
0100
1000
0010
0100
0001
,  // measure 74
2000
0000
0000
3000
,  // measure 75
1001
0000
0001
0010
1000
0010
0001
0000
,  // measure 76
1000
0100
0001
0100
1000
0010
0100
0001
,  // measure 77
1000
0010
1000
0000
0100
0000
0010
0000
0001
0000
0000
0000
1000
0000
0010
0000
,  // measure 78
0100
0001
0100
0000
0010
0000
0000
0000
1000
0010
1000
0000
0001
0100
0001
0000
,  // measure 79
1001
0000
1000
0010
0001
0010
1000
0000
,  // measure 80
0001
0100
1000
0100
0001
0010
0100
1000
,  // measure 81
0001
0010
0001
0000
0100
0000
0010
0000
1000
0000
0000
0000
0001
0000
0010
0000
,  // measure 82
0200
0000
0300
0110
,  // measure 83
1001
0000
0001
0010
0100
0010
1000
0000
,  // measure 84
0010
0001
0100
1000
0100
0001
0010
1000
,  // measure 85
0010
0001
0010
0000
0100
0000
0010
0000
0001
0000
0000
0000
0100
0000
0010
0000
,  // measure 86
1000
0010
1000
0000
0010
0000
0000
0000
0100
0001
0100
0000
0010
1000
0010
0000
,  // measure 87
0110
0000
0100
0010
1000
0001
0010
0000
,  // measure 88
0100
1000
0010
0001
0010
1000
0100
0010
,  // measure 89
0001
0000
1000
0000
0001
1000
0001
0000
0100
0000
0000
0000
0001
0000
1000
0000
,  // measure 90
0010
0100
0010
0000
1000
0001
1000
0000
1001
0000
0000
0000
0110
0000
0000
0000
,  // measure 91
1001
0000
0001
0100
1000
0100
0001
0010
,  // measure 92
0100
1000
0100
0001
0100
1000
0010
0100
,  // measure 93
0001
0010
1000
0010
0001
0100
0010
1000
,  // measure 94
0010
0001
0010
1000
0100
0010
0001
0100
,  // measure 95
0010
1000
0001
0010
0100
1000
0001
0010
,  // measure 96
1000
0001
0100
1000
0010
0001
1000
0100
,  // measure 97
0001
0010
1000
0010
0100
1000
0010
0100
,  // measure 98
0001
0100
0001
0000
1000
0100
1000
0000
1100
0000
0000
0000
0101
0000
0000
0000
,  // measure 99
0001
1000
0001
1000
0100
0000
0010
0000
0001
0000
0100
0000
0010
0000
1000
0000
,  // measure 100
0001
0100
0010
0000
1000
0000
0100
0000
0010
0000
0001
0000
1000
0000
0001
0000
,  // measure 101
1000
0001
0100
0000
0010
0000
1000
0000
0001
0000
0010
0000
0100
0000
1000
0000
,  // measure 102
0001
1000
0010
0000
0100
0000
0001
0000
0100
0000
0010
0000
1000
0000
0010
0000
,  // measure 103
0100
0000
0001
0000
0010
0000
0110
0000
0000
0000
1001
0000
0000
0000
0001
1000
,  // measure 104
0001
0000
1000
0000
0010
0000
0110
0000
0000
0000
1001
0000
0000
0000
0001
1000
,  // measure 105
0001
0010
1000
0001
0100
1000
0010
0100
,  // measure 106
0001
1000
0010
0100
0101
0000
1001
0000
,  // measure 107
0001
0010
0100
1000
0000
0000
0000
0000
;

//---------------dance-double - ----------------
#NOTEDATA:;
#CHARTNAME:;
#STEPSTYPE:dance-double;
#DESCRIPTION:;
#CHARTSTYLE:;
#DIFFICULTY:Easy;
#METER:10;
#RADARVALUES:0.467078,0.549864,0.133933,0.078784,0.000000,415.000000,398.000000,17.000000,10.000000,0.000000,0.000000,0.000000,0.000000,0.000000,0.467078,0.549864,0.133933,0.078784,0.000000,415.000000,398.000000,17.000000,10.000000,0.000000,0.000000,0.000000,0.000000,0.000000;
#CREDIT:;
#NOTES:
00000000
00000000
00000000
00000000
,
00000000
00000000
00000000
00000000
,
00000000
00000000
00000000
00000000
,
00000000
00000000
00000000
00000000
,
00000000
00000000
00000000
00000000
,
00000000
00000000
00000000
00000000
,
00000001
00000100
00000000
00000010
,
00001000
00000100
00010000
00001000
,
00010000
00100000
10000000
00010000
,
00100000
00100000
00010000
10010000
,
01000000
00001000
00010000
00001000
,
00010000
00000010
00001000
00000010
,
00001000
00000001
00000010
00000001
,
00000010
00000100
00001000
00000100
,
00001000
00000010
00010000
00001000
,
00100000
00010000
01000000
00100000
,
10000000
10000000
01000000
01000000
,
00010000
00001000
00011000
00000000
,
00010000
00000100
00001000
00000100
,
00000010
00000001
00000100
00000010
,
00001000
00000001
00000100
00001000
,
00010000
01000000
10000000
00000000
,
00100000
01000000
00010000
00100000
,
00001000
00010000
00001000
00010000
,
00000010
00001000
00000010
00000100
,
00000001
00001000
00000100
00010000
,
00001000
00010000
00001000
01000000
,
00010000
01000000
00010000
10000000
,
00100000
00010000
00001000
00000010
,
00000001
00000100
00000010
00000010
,
00001000
00001000
00000100
00000100
,
00010000
00010000
00001000
00001000
,
00010000
01000000
10000000
00010000
,
00000000
00000000
00000000
00000000
,
01000000
00100000
01000000
00000000
00010000
00000000
00100000
00000000
,
00001000
00010000
00001000
00000000
00010000
00000000
00000010
00000000
,
00001000
00000100
00001000
00000000
00000001
00000000
00000010
00000000
,
00000100
00001000
00000100
00010000
,
00001000
00010000
00001000
00000000
00100000
00000000
00010000
00000000
,
10000000
00100000
10000000
00000000
01000000
00000000
00100000
00000000
,
00010000
00100000
00010000
00000000
01000000
00000000
00001000
00000000
,
00010000
00001000
00010000
00000010
,
00001010
00000100
00000001
00000010
,
00000001
00000100
00000001
00000000
00001000
00000000
00000010
00000000
,
00010000
00001000
00010000
00000000
00001000
00010000
00001000
00000000
,
00010000
00100000
10000000
01000000
,
10000000
00100000
01000000
00000000
00010000
00000000
00100000
00000000
,
00001000
00010000
00000100
00000000
00001000
00000000
00000001
00000000
,
00000100
00000100
00001000
00001000
,
00010000
00001000
00010000
00001000
01000000
00000000
01010000
00000000
,
00100000
00000000
10000000
00000000
00000000
10000000
00000000
00000000
,
01000000
00000000
00000000
00010000
00000000
00000000
00001000
00000000
,
00010000
00001000
00000010
00000001
,
00000010
00001000
00010000
00001000
,
00000100
00000000
00000001
00000000
00000000
00000001
00000000
00000000
,
00000100
00001000
00010000
01000000
,
10000000
00100000
10000000
00000000
00010000
01000000
00010000
00000000
,
00100000
00001000
00100000
00000000
00001000
00010000
00001000
00010000
,
00000000
00000000
00000000
00000010
,
00002000
00000000
00000000
00003000
,
00000002
00000000
00000000
00000003
,
00000200
00000000
00000000
00000300
,
00002000
00000000
00000000
00003000
,
00010000
00000000
00000000
01000000
00000000
00000000
10000000
00000000
,
00100000
10000000
00010000
00100000
,
00002000
00000000
00020000
00033000
,
00002020
00000000
00000000
00003030
,
00000001
00000010
00000000
00000010
,
00000001
00001000
00000100
00000000
,
00010000
00001000
00000000
00001000
,
00100000
00010000
10000000
00100000
,
10000000
00000000
10010000
00000000
,
00011000
00000000
00001001
00000000
,
00000100
00000010
00000001
00000010
,
00000200
00000000
00000000
00000300
,
00001000
00000010
00001000
00000100
,
00010000
00001000
00010000
00000000
00001000
00000000
00001000
00000000
,
00100000
00010000
00100000
00000000
00010000
00000000
01000000
00000000
,
00100000
10000000
00010000
10000000
,
01000000
00010000
00001000
00010000
,
00000010
00001000
00000100
00000000
00000010
00000000
00000001
00000000
,
00000100
00000010
00001000
00000000
00000100
00000000
00010000
00000000
,
00002000
00000000
00000000
00013000
,
00011000
01000000
00010000
00100000
,
00010000
10000000
01000000
00000000
00100000
00000000
01000000
00000000
,
10000000
01000000
00010000
00000000
00001000
00000000
00010000
00000000
,
00001000
00000100
00000001
00000000
00001000
00000000
00001001
00000000
,
00000100
00010000
00001000
00010000
,
00001000
01000000
00010000
10000000
,
00100000
00010000
00001000
00000000
00000100
00000000
00000010
00000000
,
00000100
00000010
00000100
00000000
00000110
00000000
00001000
00000000
,
00011000
00100000
00010000
10000000
,
00100000
01000000
00100000
00000000
10000000
00000000
01000000
00000000
,
00010000
00001000
00010000
00000000
00001000
00000000
00000100
00000000
,
00000001
00000010
00000001
00000000
00000100
00000000
00000010
00000000
,
00001000
00000001
00000100
00001000
,
00010000
00100000
10000000
00000000
01000000
00000000
10000000
00000000
,
00010000
00100000
00001000
00000000
00010000
00000000
00000100
00000000
,
00001000
00000000
00000010
00000100
00000010
00000000
00000110
00000000
,
00001001
00000100
00000010
00001000
,
00000100
00001000
00000100
00000000
00010000
00000000
00001000
00000000
,
00100000
00010000
00100000
00000000
01000000
00000000
10000000
00000000
,
00100000
01000000
00100000
00000000
10000000
00000000
00010000
00000000
,
00100000
00000000
00011000
00000000
,
00000010
00000000
00000110
00000000
,
00000100
00001000
00010000
00001000
,
00010000
00000000
01000000
00100000
01000000
00000000
01100000
00000000
,
10000000
00010000
10000000
00010000
00000000
00000000
00000000
00000000
,
00000000
00000000
00000000
00000000
;

//---------------dance-double - ----------------
#NOTEDATA:;
#CHARTNAME:;
#STEPSTYPE:dance-double;
#DESCRIPTION:;
#CHARTSTYLE:;
#DIFFICULTY:Medium;
#METER:13;
#RADARVALUES:0.646030,0.719054,0.228474,0.118176,0.000000,574.000000,545.000000,29.000000,15.000000,0.000000,0.000000,0.000000,0.000000,0.000000,0.646030,0.719054,0.228474,0.118176,0.000000,574.000000,545.000000,29.000000,15.000000,0.000000,0.000000,0.000000,0.000000,0.000000;
#CREDIT:;
#NOTES:
00000000
00000000
00000000
00000000
,
00000000
00000000
00000000
00000000
,
00000000
00000000
00000000
00000000
,
00000000
00000000
00000000
00000000
,
00000000
00000000
00000000
00000000
,
00000000
00000000
00000000
00000000
,
00001000
00000000
00010000
00000100
00000000
00001000
00000010
00000000
,
00000100
00000001
00000000
00000010
00000100
00000000
00001000
00000000
,
00000100
00010000
00000100
00000000
00010000
00001000
00010000
00000000
,
00001000
00100000
00001000
00000000
01000000
00000000
01010000
00000000
,
10000000
10000000
00000000
00100000
00000000
01000000
00000000
00010000
,
00000000
00100000
00000000
00001000
00000000
00010000
00000000
00000100
,
00000000
00001000
00000000
00000001
00000000
00000010
00000000
00001000
,
00000000
00010000
00000000
00100000
00000000
10000000
01000000
00100000
,
00000000
00010000
00000000
01000000
00000000
00001000
00000000
00010000
,
00000000
00000010
00000000
00001000
00000000
00000100
00000000
00000010
,
00000001
00000100
00000001
00000000
00001000
00000100
00001000
00000000
,
00000010
00010000
00001000
00010000
00001000
00000000
01000000
00000000
,
00010000
00000000
10000000
00100000
00000000
00100000
00010000
00000000
,
00001000
00000000
00010000
00000000
00000100
00001000
00000100
00000000
,
00000010
00000001
00000010
00000000
00000100
00000000
00001000
00000000
,
00000010
00010000
00001000
00000000
00100000
00010000
10000000
00000000
,
00100000
00000000
10000000
01000000
00000000
01000000
00010000
00000000
,
00001000
00000000
00001000
00000000
00010000
00001000
00010000
00000000
,
00000010
00001000
00000010
00000000
00000100
00000000
00000100
00000000
,
00000001
00001000
00000100
00000000
00000010
00000100
00001000
00000000
,
00000001
00000000
00000100
00000010
00000000
00001000
00000100
00000000
,
00010000
00001000
00000000
01000000
00010000
00000000
10000000
00000000
,
00100000
01000000
00100000
00000000
01000000
00000000
00010000
00000000
,
00100000
00001000
00010000
00000000
00000010
00001000
00000001
00000000
,
00000100
00000100
00001000
00001000
,
00010000
00010000
01000000
01000000
,
10000000
00000000
00100000
00000000
01000000
00010000
01000000
00010000
,
00000000
00000000
00000000
00000000
,
00000001
00000100
00000001
00001000
00000100
00001000
00000010
00000000
,
00010000
00001000
01000000
00010000
01000000
00100000
10000000
00000000
,
00010000
00100000
01000000
10000000
01000000
00010000
00001000
00000000
,
00010000
00000010
00001000
00000100
00001000
00000000
00000101
00000000
,
00001000
00000100
00001000
00000001
00000010
00001000
00010000
00000000
,
00001000
00100000
00010000
10000000
01000000
10000000
00010000
00000000
,
00100000
00010000
01000000
00001000
00010000
00001000
00000010
00000000
,
00000001
00000100
00000010
00001000
00000100
00000000
00001100
00000000
,
00011000
00000000
00100000
00010000
01000000
00010000
00100000
00000000
,
00001000
00010000
00000100
00010000
00001000
00000000
00011000
00000000
,
00000010
00001000
00000010
00000100
00000001
00000010
00000001
00001000
,
00000001
00000100
00001000
00010000
01000000
10000000
00010000
00000000
,
01000000
00100000
01000000
00010000
00100000
00001000
00100000
00000000
,
00001000
00010000
00001000
00000100
00000001
00000010
00000001
00000000
,
00001000
00000010
00000100
00000010
00010000
00001000
00010000
00000100
,
00010000
00001000
00100000
00010000
01000000
00010000
10000000
00000000
,
01000000
00000000
00100000
00100000
00000000
00010000
00010000
00000000
,
01000000
01000000
00000000
00001000
00001000
00000000
00010000
00000000
,
00001000
00000010
00000001
00000000
00000100
00000000
00000010
00000000
,
00001000
00000100
00001000
00000000
00000100
00000000
00010000
00000000
,
00001000
00010000
00001000
00000000
00100000
00000000
00010000
00000000
,
01000000
00100000
01000000
00000000
00010000
00000000
10000000
00000000
,
01000000
00100000
01000000
00100000
00010000
00100000
00001000
00010000
,
00000100
00001000
00000100
00001000
00000010
00000100
00000001
00000100
,
00000000
00000000
00000000
00001000
,
00000002
00000000
00000000
00000000
,
00000023
00000000
00000000
00000000
00000000
00000000
00000000
00001030
,
00020000
00000000
00000000
00000000
,
00230000
00000000
00000000
20300000
00000000
00000000
32000000
00000000
,
03200000
00000000
00000000
00320000
00000000
00000000
01030000
00000000
,
00001000
00000000
00010000
00002000
00000000
00003010
00000100
00000020
,
00000000
00000000
00000000
00000032
00000000
00000000
00001003
00000000
,
00002200
00000000
00000000
00003300
,
00010000
00000000
00011000
00000000
00000000
01000000
00000000
10000000
,
00000000
00010000
00100000
00000000
00001000
00000000
00010000
00000000
,
00000010
00000000
00001010
00000000
00000000
00000100
00000000
00000001
,
00000000
00001000
00000100
00000000
00010000
00000000
00001000
00000000
,
00100000
00000000
00010000
00010000
00000000
01010000
00000000
00001000
,
00010000
00000000
00000100
00000100
00000000
00001100
00000000
00000010
,
00000001
00000100
00001000
00000000
00010000
01000000
10000000
00000000
,
00020000
00000000
00000000
00030000
,
00110000
00000000
01000000
00000000
10000000
00100000
10000000
00000000
,
00010000
00100000
00010000
00100000
00001000
00010000
00001000
00000000
,
00010000
00000100
00001000
00000010
00000100
00000000
00000001
00000000
,
00000010
00000100
00000010
00000000
00000001
00000100
00000001
00001000
,
00000010
00000000
00010000
00001000
00000000
00100000
00010000
00000000
,
10000000
00100000
10000000
00010000
00100000
00001000
00010000
00000000
,
00000010
00001000
00000100
00000010
00000001
00000000
00000100
00000000
,
00000020
00000000
00000030
00000110
,
00001010
00000000
00010000
00001000
00000000
01000000
00010000
00000000
,
10000000
01000000
00100000
01000000
10000000
00000000
00100000
00000000
,
01000000
00010000
00100000
00000000
00001000
00000000
00010000
00000000
,
00000100
00001000
00000010
00000000
00000100
00000001
00000100
00000001
,
00001000
00000000
00000001
00000100
00000000
00001000
00010000
00000000
,
00001000
00100000
00010000
00100000
01000000
00000000
10000000
00000000
,
00010000
01000000
00001000
00010000
00001000
00000000
00000010
00000100
,
00000010
00000001
00001000
00000000
00001100
00000000
00011000
00000000
,
01010000
00000000
00100000
00010000
10000000
01000000
00010000
00001000
,
00010000
00001000
00000100
00000010
00001000
00000000
00011000
00000000
,
00010000
01000000
10000000
00100000
00010000
00001000
00010000
00100000
,
00010000
00001000
00000100
00000001
00000010
00000000
00000110
00000000
,
00000100
00001000
00000001
00000010
00001000
00010000
00001000
00010000
,
00100000
10000000
01000000
00010000
00001000
00000000
00011000
00000000
,
00000010
00000100
00001000
00010000
00001000
00000100
00001000
00000000
,
00011000
00110000
01100000
00110000
,
00011000
00000000
00010000
00000100
00001000
00000010
00000100
00001000
,
00010000
00100000
10000000
01000000
00100000
00010000
10000000
00000000
,
00100000
01000000
00010000
01000000
00001000
00010000
00001000
00010000
,
00000010
00001000
00000100
00000010
00000001
00000100
00000010
00000000
,
00001000
00000100
00010000
00011000
00000000
00011000
00000000
01000000
,
00010000
10000000
00100000
10100000
00000000
10100000
00000000
00010000
,
10000000
01000000
00010000
00000000
00001000
00000010
00000001
00000000
,
00001000
00000010
00010000
00001000
00010000
00000000
01010000
00000000
,
10000000
00100000
00010000
00001000
00000000
00000000
00000000
00000000
,
00000000
00000000
00000000
00000000
;

//---------------dance-double - ----------------
#NOTEDATA:;
#CHARTNAME:;
#STEPSTYPE:dance-double;
#DESCRIPTION:;
#CHARTSTYLE:;
#DIFFICULTY:Hard;
#METER:15;
#RADARVALUES:0.795720,0.930540,0.236353,0.118176,0.153629,707.000000,677.000000,30.000000,15.000000,0.000000,0.000000,0.000000,0.000000,0.000000,0.795720,0.930540,0.236353,0.118176,0.153629,707.000000,677.000000,30.000000,15.000000,0.000000,0.000000,0.000000,0.000000,0.000000;
#CREDIT:;
#NOTES:
00000000
00000000
00000000
00000000
,
00000000
00000000
00000000
00000000
,
00000000
00000000
00000000
00000000
,
00000000
00000000
00000000
00000000
,
00000000
00000000
00000000
00000000
,
00000000
00000000
00000000
00000000
,
10000000
00000000
00100000
01000000
00000000
00010000
00100000
00000000
,
00001000
00010000
00000000
00001000
00000100
00000001
00000010
00000001
,
00001000
00000100
00010000
00001000
00100000
00010000
10000000
00100000
,
01000000
01000000
00010000
00010000
00100000
00000000
00011000
00000000
,
00000010
00000010
00001000
00000001
00000000
00000100
00000000
00001000
,
00000000
00010000
00000000
01000000
00000000
00100000
00000000
00010000
,
00000000
10000000
00100000
00010000
00000000
00001000
00000000
00000010
,
00000000
00000001
00000000
00000100
00000010
00001000
00000100
00010000
,
00000000
00001000
00000000
00010000
00000000
01000000
00000000
10000000
,
00100000
01000000
00000000
00010000
00000000
00100000
00000000
00001000
,
00010000
00001000
00000010
00000001
00000100
00001000
00010000
01000000
,
10000000
00100000
10000000
00000000
00100000
01000000
00100000
00000000
01000000
00010000
01000000
00000000
00001000
00010000
00001000
00000000
,
00010000
00000000
00010000
00001000
00000000
00001000
00000100
00000000
,
00000100
00000001
00000000
00001000
00000001
00000010
00001000
00010000
,
00100000
10000000
00100000
10000000
01000000
00000000
00100000
00010000
,
00100000
00000000
00001000
00000000
00010000
00000000
00000000
00000000
00000100
00000000
00001000
00000000
00000100
00000010
00000100
00000000
,
00000010
00000000
00000001
00000100
00000000
00000100
00001000
00000000
,
00001000
00010000
00000000
00010000
01000000
10000000
01000000
00010000
,
00001000
00010000
00000010
00001000
00000100
00000000
00000010
00000001
,
00001000
00000000
00000010
00000000
00010000
00000000
00000000
00000000
00001000
00000000
00100000
00000000
00010000
01000000
00010000
00000000
,
01000000
00000000
00100000
10000000
00000000
01000000
00100000
00000000
,
00010000
01000000
00000000
00001000
00010000
00001000
00000100
00001000
,
00010000
01000000
10000000
01000000
00010000
00000000
00001000
00000010
,
00001000
00000000
00010000
00000000
00100000
00000000
00000000
00000000
10000000
00000000
01000000
00000000
00100000
00010000
00100000
00010000
,
00100000
00100000
00001000
00001000
,
00010000
00010000
00000100
00000100
,
00001000
00000000
00000010
00000000
00000100
00000000
00000001
00000000
00000010
00000000
00000100
00000000
00001000
00000100
00001000
00000100
,
00000000
00000000
00000000
00000000
,
00010000
00001000
00100000
00010000
01000000
00100000
10000000
01000000
,
00100000
00010000
00100000
00000000
00001000
00000000
00010000
00000000
00000010
00000000
00001000
00000000
00000001
00000000
00000100
00000000
,
00000010
00000100
00000010
00001000
00000100
00010000
00001000
01000000
,
00010000
00010000
00100000
01000000
01100000
00000000
11000000
10000000
,
01000000
00010000
00001000
00010000
00000100
00001000
00000100
00000010
,
00000001
00000100
00000001
00000000
00001000
00000000
00000001
00000000
00000010
00000000
00001000
00000000
00010000
00000000
00100000
00000000
,
10000000
00010000
01000000
00001000
00010000
00001000
00000100
00001000
,
00010000
00000010
00001000
00000010
00000110
00000000
00001001
00000000
,
00000101
00000000
00000100
00000010
00001000
00000100
00001000
00000010
,
00010000
00001000
00010000
00001000
00010000
00000000
00001000
00000000
01000000
00000000
00010000
00000000
10000000
00000000
01000000
00000000
,
10000000
00100000
01000000
00010000
00100000
00001000
00010000
00001000
,
00010000
00000100
00010000
00000000
00000100
00000000
00001000
00000010
00001000
00000000
00000010
00000000
00000100
00000000
00000001
00000000
,
00001000
00001000
00000001
00000100
00001000
00010000
01000000
10000000
,
00010000
00010000
10000000
00100000
00010000
00001000
00000010
00000001
,
00001000
00000100
00010000
00001000
01000000
00001000
00010000
00001000
,
00100000
00000000
00010000
00000000
10000000
00100000
10000000
00000000
00010000
00000000
01000000
00000000
00001000
00010000
00001000
00010000
,
00001000
00000000
00000100
00000100
00000000
00000001
00000001
00000000
,
00001000
00001000
00000000
00000100
00000100
00010000
00001000
00010000
,
00100000
10000000
01000000
00100000
00010000
00000000
01000000
00001000
,
00100000
00000000
00001000
00000000
00010000
00000000
00000000
00000000
00001000
00000000
00000100
00000000
00000001
00001000
00000001
00000000
,
00001000
00000010
00001000
00000010
00010000
00001000
00010000
00001000
,
00100000
00010000
00100000
00010000
10000000
01000000
10000000
01000000
,
00100000
00000000
00100000
00000000
00010000
01000000
00001000
00000000
00010000
00000000
00010000
00000000
00000100
00001000
00000001
00000000
,
00000010
00000100
00000010
00000000
00000100
00001000
00000100
00000000
00010000
00001000
00010000
00000000
00001000
00000000
00010000
00000000
,
00000000
00000000
00000000
00011000
,
00200000
00000000
00000000
00000000
,
00302000
00000000
00000000
00000000
00000000
00000000
00000000
00000000
00000000
00000000
00000000
00000000
00000000
00000000
00003100
00000010
,
00000200
00000000
00000000
00000000
,
00000302
00000000
00000000
00000023
00000000
00000000
00002030
00000000
,
00023000
00000000
00000000
00230000
00000000
00000000
10300000
01000000
,
10000000
00100000
01000000
00020000
00000000
00130000
00001000
00020000
,
00000000
00000000
00000000
00030020
00000000
00000000
00001030
00000000
,
00002002
00000000
00000000
00003003
,
00000100
00000000
00001100
00000000
00000000
00000001
00000000
00000010
,
00000000
00001000
00010000
00000000
00100000
01000000
00100000
00000000
,
10000000
00000000
10010000
00000000
00000000
01000000
00000000
00010000
,
00000000
00001000
00010000
00000000
00001000
00000100
00001000
00000000
,
00000100
00000001
00000010
00000011
00000000
00001100
00000000
00010000
,
00001000
01000000
00010000
01010000
00000000
10100000
00000000
01000000
,
10000000
00100000
00010000
00001000
00000100
00000001
00000010
00001000
,
00020000
00000000
00000000
00030000
,
00011000
00000000
00001000
00010000
01000000
10000000
01000000
00000000
,
10000000
00100000
00010000
00001000
00000010
00001000
00000010
00000001
,
00000100
00000010
00000100
00000001
00001000
00000000
00000100
00001000
,
00000100
00000000
00010000
00000000
00001000
00000000
00000000
00000000
01000000
00010000
01000000
00000000
00010000
10000000
00010000
00000000
,
10010000
00000000
00100000
01000000
10000000
01000000
00100000
00000000
,
01000000
00010000
00001000
00000100
00000001
00001000
00000100
00000010
,
00000001
00001000
00000100
00010000
00001000
00000000
00010000
01000000
,
20000000
00000000
30000000
10100000
,
01010000
00000000
00100000
00001000
00010000
00000010
00001000
00000000
,
00000100
00000010
00000001
00000100
00001000
00010000
00001000
01000000
,
00010000
00100000
00010000
00000000
10000000
00000000
00100000
00000000
01000000
00000000
00000000
00000000
00010000
00000000
10000000
00000000
,
00100000
00000000
01000000
00000000
00001000
00000000
00000000
00000000
00010000
00000100
00010000
00000000
00000010
00001000
00000010
00000000
,
00001010
00000000
00001000
00000001
00000100
00000010
00001000
00000000
,
00000001
00000010
00001000
00010000
01000000
10000000
00100000
00010000
,
00001000
00010000
00001000
00000100
00000001
00000000
00001000
00000100
,
00010000
00001000
00010000
00000000
00001000
00010000
00001000
00000000
00011000
00000000
00000000
00000000
10010000
00000000
00000000
00000000
,
01100000
00000000
10000000
01000000
00010000
00001000
00010000
00000100
,
00001000
00000100
00000010
00000001
00000100
00000010
00001000
00000100
,
00000010
00000001
00000100
00001000
00010000
00001000
00100000
00010000
,
10000000
00100000
01000000
00010000
10000000
01000000
00100000
00010000
,
01000000
00001000
00010000
00001000
00000100
00000001
00000100
00001000
,
00010000
00001000
01000000
00010000
10000000
00100000
01000000
00010000
,
00100000
00001000
00010000
00001000
00010000
00000100
00001000
00000100
,
00001000
00000010
00001000
00000000
00000001
00000100
00000001
00000000
00000101
00000000
00000000
00000000
00001100
00000000
00000000
00000000
,
00010000
00001000
00010000
00001000
00100000
00000000
00010000
00000000
10000000
00000000
01000000
00000000
00100000
00000000
01000000
00000000
,
10000000
00100000
00010000
00001000
00000010
00000001
00000010
00000100
,
00001000
00000010
00010000
00001000
00010000
00001000
01000000
00010000
,
01000000
00100000
10000000
01000000
00010000
00001000
00000100
00000001
,
00001000
00000000
00000010
00000000
00000100
00000000
00000110
00000000
00000000
00000000
00001010
00000000
00000000
00000000
00000100
00010000
,
00000100
00000000
00010000
00000000
00001000
00000000
00011000
00000000
00000000
00000000
00110000
00000000
00000000
00000000
10000000
01000000
,
10000000
00100000
00010000
00001000
00000010
00000100
00001000
00000001
,
00000100
00001000
00010000
00001000
00011000
00000000
10010000
00000000
,
00100000
00010000
00001000
00000100
00000000
00000000
00000000
00000000
,
00000000
00000000
00000000
00000000
;

//---------------dance-single - ----------------
#NOTEDATA:;
#CHARTNAME:;
#STEPSTYPE:dance-single;
#DESCRIPTION:;
#CHARTSTYLE:;
#DIFFICULTY:Challenge;
#METER:19;
#RADARVALUES:1.044453,1.416934,0.299380,0.291502,0.870565,928.000000,890.000000,38.000000,37.000000,3.000000,0.000000,0.000000,0.000000,0.000000,1.044453,1.416934,0.299380,0.291502,0.870565,928.000000,890.000000,38.000000,37.000000,3.000000,0.000000,0.000000,0.000000,0.000000;
#CREDIT:;
#OFFSET:0.000000;
#BPMS:0.000000=208.000000
,131.500000=416.000000
,137.500000=208.000000
,233.000000=416.000000
,241.000000=208.000000
;
#STOPS:131.500000=0.432691
,169.500000=0.144231
;
#DELAYS:;
#WARPS:;
#TIMESIGNATURES:0.000000=4=4
;
#TICKCOUNTS:0.000000=4
;
#COMBOS:0.000000=1
;
#SPEEDS:0.000000=1.000000=0.000000=0
;
#SCROLLS:0.000000=1.000000
;
#FAKES:;
#LABELS:0.000000=Song Start
;
#NOTES:
// measure 0
0000
0000
0000
0000
,  // measure 1
0000
0000
0000
0000
,  // measure 2
0000
0000
0000
0000
,  // measure 3
0000
0000
0000
0000
,  // measure 4
0000
0000
0000
0000
,  // measure 5
0000
0000
0000
0000
,  // measure 6
1001
0000
1000
0001
0000
0001
0100
0000
,  // measure 7
0010
0100
0010
0100
0010
0100
0010
0100
0010
0100
0010
0100
0010
0100
0010
0100
,  // measure 8
0001
0010
0100
1000
0001
0010
0100
1000
0001
0010
0100
1000
0001
0010
0100
1000
,  // measure 9
0020
0000
0000
0100
0130
0000
1001
0000
,  // measure 10
0001
0100
0001
0000
1000
0000
0001
0000
0100
0000
0001
0000
1000
0000
0001
0000
,  // measure 11
0100
0000
0010
0000
1000
0000
0010
0000
0100
0000
0010
0000
1000
0000
0010
0100
,  // measure 12
0001
0010
0100
0010
0001
0010
0100
0010
,  // measure 13
0001
0000
0001
1000
0100
0010
0001
0000
,  // measure 14
1000
0001
1000
0000
0001
0000
0100
0000
0000
0000
0100
0000
0001
0000
0000
0000
,  // measure 15
0001
0010
0100
1000
0100
0010
0001
1000
,  // measure 16
0001
0100
0001
0100
0001
0100
0001
0100
0010
1000
0010
1000
0010
1000
0010
1000
,  // measure 17
0001
0010
0100
1000
0010
0100
0001
0010
0100
1000
0010
0100
0001
0010
0100
1000
,  // measure 18
0020
0000
0100
0001
0000
0001
0100
0000
,  // measure 19
0100
1000
0000
1000
0031
0100
1000
0100
,  // measure 20
0010
1000
0010
0001
0011
0000
0010
1000
,  // measure 21
0100
0000
0001
0000
0100
0000
0010
0000
0100
0000
1000
0000
0100
0010
0001
0010
,  // measure 22
0200
0000
1000
0010
0000
0010
1000
0000
,  // measure 23
1000
0010
0000
0010
0301
1000
0001
0100
,  // measure 24
0010
1000
0100
0010
0001
0000
0001
0010
,  // measure 25
0100
0000
1000
0000
0010
0000
0000
0000
1000
0000
0001
0000
1000
0100
1000
0100
,  // measure 26
2000
0000
0010
0001
0000
0001
0010
0000
,  // measure 27
0010
0000
0100
0000
0000
0000
0100
0000
3010
M000
0001
0000
0010
0000
0100
0000
,  // measure 28
0010
0001
0010
0100
2000
0000
3001
0100
,  // measure 29
1000
0000
0100
0000
0101
0000
0000
0000
1001
0000
0000
0000
1000
0100
0010
0000
,  // measure 30
0001
0100
0001
0100
1000
0100
1000
0100
,  // measure 31
0001
0010
0001
0010
1000
0010
1000
0010
,  // measure 32
0001
0000
0010
0000
0100
0000
1000
0000
0001
1000
0001
1000
0001
1000
0020
0000
,  // measure 33
0000
0000
0000
0000
,  // measure 34
0000
0000
0000
0000
0000
0000
0130
0000
0001
0000
1000
0000
0001
0000
0010
0100
,  // measure 35
1000
0000
0010
0000
1000
0000
0001
0100
0001
0100
0010
0000
0100
0010
1000
0000
,  // measure 36
0100
0000
0010
0000
0001
0000
1000
0001
1000
0000
0100
0000
0001
0000
0100
1000
,  // measure 37
0010
0000
0001
0000
0010
0000
0100
0000
0100
0000
0100
0000
0001
1000
0020
0000
,  // measure 38
0000
0000
1030
0000
1000
0000
0001
0000
0100
0000
1000
0000
0100
0000
0001
0100
,  // measure 39
1000
0000
0100
0000
0010
0000
1000
0100
1000
0100
0010
0000
0001
0010
0200
0000
,  // measure 40
0000
0000
0320
0000
0000
0000
0031
0010
0100
0000
1000
0000
0100
1000
0100
1000
,  // measure 41
0001
0100
0001
1001
0000
1010
0000
1100
,  // measure 42
0000
0000
1001
0000
0000
0000
0101
0000
0001
0000
0010
0000
1000
0010
0001
0000
,  // measure 43
0100
0000
1000
0000
0100
0010
1000
0010
0100
0000
0001
0010
0200
0000
0000
0000
,  // measure 44
0310
0000
0010
0000
0001
1000
0100
1000
0010
0000
1000
0001
0200
0000
0000
0000
,  // measure 45
0302
0000
0000
0000
1003
0100
0010
0001
1000
0100
0010
0001
1000
0001
0010
0100
,  // measure 46
1000
0001
0010
0100
1000
0000
0001
0000
0100
0000
0001
0000
1001
0000
0000
0000
,  // measure 47
1100
0000
0000
0000
1000
0100
0010
0001
0100
0000
0010
1000
0200
0000
0000
0000
,  // measure 48
2300
0000
0000
0000
3001
1000
0001
1000
0001
1000
0001
1000
0001
1000
0001
1000
,  // measure 49
0001
1000
0001
1000
0020
0000
0000
0100
0000
0000
0001
0000
0000
0100
0000
0000
,  // measure 50
1030
00M0
0100
0000
0020
0000
0000
0000
0001
0000
0100
0000
0000
0000
0100
0000
,  // measure 51
0001
0000
0000
0000
0001
0000
0100
0000
0000
0000
0130
00M0
1000
0000
0100
0000
,  // measure 52
0001
0100
0010
0001
0010
0100
1000
0000
,  // measure 53
0001
0100
1000
0100
0001
1000
0100
1000
,  // measure 54
0010
1000
0001
0000
1000
0000
0100
0000
0010
0000
0001
0000
1000
0001
1000
0000
,  // measure 55
0010
0000
0010
0000
1000
0100
1000
0100
0010
0000
0100
0010
0001
0000
1000
0000
,  // measure 56
0001
0000
0100
0000
0010
0100
0010
0100
0010
0100
0010
0100
0010
0100
0010
0100
,  // measure 57
0010
0100
0010
0100
0010
0100
0010
0100
0010
0100
0010
0100
0010
0100
0010
0100
,  // measure 58
0010
0100
0010
0200
0020
0000
0000
0000
0000
0000
0000
0000
0000
0000
0000
0000
,  // measure 59
0000
0000
0000
0330
,  // measure 60
0000
0000
1000
0100
0010
0001
0000
0100
,  // measure 61
0010
0000
1000
0100
0001
0100
1000
0010
,  // measure 62
0001
0010
1000
0001
0010
0100
0101
0000
,  // measure 63
1100
0000
0000
0000
1000
0000
0010
0000
0001
0000
0010
0000
0100
0010
0100
0000
,  // measure 64
0010
0100
0010
0000
0100
0000
0001
0000
0010
0000
1000
0000
0000
0000
1000
0000
,  // measure 65
0010
0100
1000
0100
0010
0002
0000
0103
,  // measure 66
0001
1000
0001
0010
0100
1000
1001
0000
,  // measure 67
1000
0100
0010
0001
1001
0000
0101
0000
,  // measure 68
1000
0001
1000
0000
0001
0000
0100
0000
1000
0000
0100
0000
0000
0000
0100
0000
,  // measure 69
0001
0000
0001
0010
0100
1000
0100
0010
,  // measure 70
0001
0000
1000
0100
0001
0010
1010
0000
,  // measure 71
0001
0100
1000
0010
0011
0000
1001
0000
,  // measure 72
1000
0100
0010
0000
0100
0010
0001
0000
1000
0000
1001
0000
0000
0000
0101
0000
,  // measure 73
0000
0000
0001
0010
0100
0000
1000
0000
0001
0000
1001
0000
0000
0000
1010
0000
,  // measure 74
0000
0000
0010
0000
1000
0001
1000
0001
1000
0001
1000
0001
1000
0001
1000
0001
,  // measure 75
1000
0001
1000
0001
1000
0000
0100
0000
0010
0000
0001
0000
0100
0000
1000
0000
,  // measure 76
0100
0001
0100
0000
0110
0000
0000
0000
1010
0000
1000
0000
0100
0000
0010
0100
,  // measure 77
1000
0000
0001
0000
0100
0010
0001
0000
0010
0000
0100
0001
1000
0100
0010
0100
,  // measure 78
2000
0000
0000
0000
3001
0010
0100
0010
0001
0000
1000
0000
1002
0000
0000
0000
,  // measure 79
1003
0100
0010
0100
1000
0000
0001
0000
1001
0000
0000
0000
0101
0000
0000
0000
,  // measure 80
0001
0010
0100
1000
0020
0000
0000
0000
0130
0001
0020
0000
0000
0000
0130
1000
,  // measure 81
0020
0000
0000
0000
0130
0001
0020
0000
0000
0000
0130
1000
0001
1000
0100
0010
,  // measure 82
0002
0000
0000
0000
1003
0100
1000
0100
1000
0100
1000
0100
0020
0000
0000
0000
,  // measure 83
0130
0010
0001
0000
1000
0000
1001
0000
0100
0000
0101
0000
0010
1000
0100
0010
,  // measure 84
0002
0000
0000
0000
0013
0100
1000
0000
0100
0010
0001
0010
0100
0000
1000
0100
,  // measure 85
0020
0000
0000
0000
0130
1000
0200
0000
0000
0000
1300
0000
0001
0010
0100
0010
,  // measure 86
0002
0000
0000
0000
1003
0100
0010
0100
1000
0000
0001
0000
0201
0000
0000
0000
,  // measure 87
0310
1000
0100
1000
0010
0000
1000
0000
0001
0000
0010
0000
0100
0000
1000
0000
,  // measure 88
0010
1000
0001
1000
0200
0000
0000
0000
1300
0000
0001
0000
0000
0000
0001
0000
,  // measure 89
0200
0000
0000
0000
0301
0000
0010
0000
0000
0000
0010
0000
0001
1000
0001
1000
,  // measure 90
0100
0000
1000
0000
0001
0010
0001
0010
0100
1000
0100
1000
0010
0100
0010
0100
,  // measure 91
0001
1000
0001
1000
0020
0000
0100
0000
0100
0000
0100
0000
0130
0000
0000
0000
,  // measure 92
0110
0000
0000
0000
0001
0000
0001
0000
1000
0000
0100
1000
0000
0000
1000
0100
,  // measure 93
0000
0000
0100
0010
0000
0000
0010
0100
0000
0000
0100
1000
0000
0000
1000
0010
,  // measure 94
0000
0000
0010
0100
1000
0000
0100
0000
0001
0000
0010
0001
0000
0000
0001
1000
,  // measure 95
0000
0000
1000
0100
0000
0000
0100
0010
0000
0000
0010
1000
0000
0000
1000
0010
,  // measure 96
0000
0000
0010
0000
0001
0010
0100
0000
0100
0000
0010
0000
0001
0000
0010
0000
,  // measure 97
0100
1000
0001
0000
1000
0100
0010
0001
0100
0000
0001
0000
0010
0100
1000
0000
,  // measure 98
0100
0010
0001
0000
1000
0001
0100
0000
0001
1000
0100
0000
1000
0000
0001
0000
,  // measure 99
0100
0000
0010
0000
1000
0001
1000
0000
0001
0100
0001
0000
1000
0100
0010
0001
,  // measure 100
0100
0000
0100
0000
0001
1000
0001
0000
0000
0000
0100
0001
0000
0000
0001
0010
,  // measure 101
0000
0000
0010
1000
0000
0000
1000
0100
0000
0000
0100
0001
0000
0000
0001
0010
,  // measure 102
0000
0000
0010
0100
1000
0000
0001
0000
0000
0000
0001
0100
0000
0000
0100
1000
,  // measure 103
0000
0000
1000
0010
0000
0000
0010
0001
0000
0000
0001
0100
0000
0000
0100
0010
,  // measure 104
0000
0000
0010
0000
1000
0100
0001
0000
0100
0000
1100
0000
0000
0000
0101
0000
,  // measure 105
0000
0000
0001
0100
1000
0000
0100
0000
0001
0000
0101
0000
0000
0000
1100
0000
,  // measure 106
0000
0000
1000
0001
0100
0010
1000
0010
0100
0010
1000
0010
0100
0010
1000
0010
,  // measure 107
0100
0010
1000
0000
0001
0000
0010
0000
0100
0000
1000
0000
0010
0000
0000
0000
,  // measure 108
0100
0010
0100
0000
0010
0000
0010
0000
0100
0000
0022
0000
0000
0000
0000
0000
,  // measure 109
0033
0000
0000
0000
;
