
//----- song ID: stgo -----//
#TITLE:STAY GOLD;
#ARTIST:Yuta Imai;
#BANNER:STAY GOLD.png;
#BACKGROUND:STAY GOLD-bg.png;
#CDTITLE:./CDTitles/DDR A3.png;
#MUSIC:STAY GOLD.ogg;
#SAMPLESTART:87.273;
#SAMPLELENGTH:15;
#DISPLAYBPM:41:330;
#BPMS:0=165,36=41.25,37=330,37.5=165,37.75=82.5,38=165,45=330,45.5=165,45.75=82.5,46=165,51=82.5,52=165,64=41.25,65=330,65.5=165,65.75=82.5,66=165,73=330,73.5=165,73.75=82.5,74=165,81=330,81.5=165,81.75=82.5,82=165,93=41.25,94=165,98=330,105=82.5,121=41.25,123=330,125=82.5,134=41.25,135=165,163=41.25,164=165,192=41.25,193=165,225=82.5,231=41.25,232=165,248=20.625,249=165;
#STOPS:104=0.182,123=0.091,123.5=0.091,124=0.091,124.5=0.091;
#STAGE:31;

//---------------dance-single - ----------------
#NOTES:
     dance-single:
     :
     Challenge:
     17:
     0.868031,1.494500,0.392859,0.270636,1.182941,696.000000,651.000000,45.000000,31.000000,0.000000,0.000000,0.868031,1.494500,0.392859,0.270636,1.182941,696.000000,651.000000,45.000000,31.000000,0.000000,0.000000:
// measure 0
0000
0000
0000
0000
,  // measure 1
0000
0000
0000
0000
,  // measure 2
0000
0000
0000
0000
,  // measure 3
0000
0000
0000
0000
,  // measure 4
0000
0000
0000
0000
,  // measure 5
0000
0000
0000
0000
,  // measure 6
1000
0000
0100
0000
0001
0000
1000
0000
0010
0000
0001
0000
0001
0000
1000
0001
,  // measure 7
1000
0001
0100
1000
0001
0010
1000
1000
,  // measure 8
0001
0010
0100
1000
0001
1000
0100
0010
0001
0010
0100
1000
0001
1000
0100
0010
,  // measure 9
0001
0010
0100
1000
0002
0000
2003
0000
3002
0000
0000
0000
0000
0000
0000
0000
1003
0000
0100
0000
1000
0000
0000
0000
0100
0000
0001
0000
0100
0000
0000
0000
,  // measure 10
0001
0010
0001
0000
0010
1000
0010
0000
1000
0100
1000
0000
0001
0010
0100
0000
,  // measure 11
1000
0000
1001
0000
0102
0000
0000
0000
0103
0010
0001
0000
0001
0010
0100
0000
,  // measure 12
0010
0100
1000
0000
1000
0100
0010
0000
2000
0000
0000
0000
3002
0100
0203
0000
,  // measure 13
0310
1000
0100
0000
0010
0001
0100
0000
0010
1000
0100
0000
0010
0001
0100
0000
,  // measure 14
0010
1000
0100
0000
0010
0001
0100
0000
0001
0100
1000
0100
0002
0000
0000
0000
,  // measure 15
1003
0100
0100
0001
0010
0010
1000
0100
0100
0001
0010
0010
,  // measure 16
2000
0000
0000
0000
0000
0000
0000
0000
3001
0010
0001
0000
0001
0000
0000
0000
0101
0000
0000
0000
0000
0000
0000
0000
0000
0000
0000
0000
0000
0000
0000
0000
1100
0000
0000
0000
0000
0000
0000
0000
0000
0000
0000
0000
0000
0000
0000
0000
0101
0000
0000
0000
0000
0000
0000
0000
0000
0000
0000
0000
0001
0000
0000
0000
,  // measure 17
0020
0000
0000
0000
0031
0000
1000
0000
0100
0000
1000
0000
0001
1000
0001
0000
,  // measure 18
0100
0001
0100
0000
0101
0000
0000
0000
1001
0000
0000
0000
0101
0000
0000
0001
,  // measure 19
0010
0000
0001
0000
1000
0000
0010
0000
0000
0110
0000
0100
0001
0000
0100
0000
,  // measure 20
1000
0000
0100
0010
0200
0000
0000
0000
0310
0000
0000
0000
1010
0000
0000
1000
,  // measure 21
0100
0000
1000
0000
0001
0000
0010
0000
0001
0000
0000
0000
0100
0001
0100
0000
,  // measure 22
0001
1000
0001
0000
1000
0000
1000
0000
1000
0000
1000
0000
0010
0100
0010
0100
,  // measure 23
0010
0000
0000
0000
0100
0000
0000
0000
0010
0000
0000
0000
0100
0000
0000
0000
0002
0000
0000
0000
0000
0000
0000
0000
0103
0001
0100
0001
0100
0000
0010
0100
0001
0000
0000
0000
0000
0000
0000
0000
0001
0000
0000
0000
0000
0000
0000
0000
0001
0000
0000
0000
0000
0000
0000
0000
0001
0000
0000
0000
0000
0000
0000
0000
,  // measure 24
1000
1000
1000
1000
0010
0100
0001
0100
,  // measure 25
0010
1000
0100
1000
0001
0010
0100
1000
,  // measure 26
0020
0000
0000
0000
0000
0000
0000
0000
2030
0000
0000
0000
3002
0000
0000
0000
1003
0000
1000
0000
0010
0000
0010
0000
0200
0000
0000
0000
0301
0010
0001
0010
,  // measure 27
0100
1000
0100
1000
0020
0000
0000
0000
0100
0000
0001
0000
0200
0000
0030
0000
1300
0000
0000
0100
0000
0001
0100
0000
0010
0000
0000
1000
0000
0010
0001
0000
,  // measure 28
0010
0000
0000
0000
0000
0000
0000
0000
0100
0000
0000
0000
0000
0000
0000
0000
0001
0000
0000
0000
0000
0000
0000
0000
1000
0000
0000
0000
0000
0000
0000
0000
0010
0000
0000
0000
0000
0000
0000
0000
0100
0000
0000
0000
0000
0000
0000
0000
0002
0000
0000
0000
0000
0000
0000
0000
0000
0000
0000
0000
0000
0000
0000
0000
0000
0000
0000
0000
0000
0000
0000
0000
0000
0000
0000
0000
0000
0000
0000
0000
0000
0000
0000
0000
0003
0000
0000
0000
0000
0000
0000
0000
0000
0000
0000
0000
0011
0000
0000
0000
0000
0000
0000
0000
0000
0000
0000
0000
0000
0000
0000
0000
0110
0000
0000
0000
0000
0000
0000
0000
0000
0000
0000
0000
0000
0000
0000
0000
1100
0000
0000
0000
0000
0000
0000
0000
0000
0000
0000
0000
0000
0000
0000
0000
1001
0000
0000
0000
0000
0000
0000
0000
0000
0000
0000
0000
0000
0000
0000
0000
0000
0000
0000
0000
0000
0000
0000
0000
1000
0000
0000
0000
0000
0000
0100
0000
0000
0000
0000
0000
1000
0000
0000
0000
0000
0000
0100
0000
0000
0000
0000
0000
,  // measure 29
0010
0001
0010
0001
0100
0000
0000
0000
0110
0000
0110
0000
0110
0000
0000
0000
1010
0000
0000
1001
0000
0001
0100
0000
0101
0000
0000
0011
0000
0010
0001
0000
,  // measure 30
1000
0000
0000
0000
0000
0000
0000
0000
0000
0000
0000
0000
0100
0000
0000
0000
0000
0000
0010
0000
0000
0000
0000
0000
0100
0000
0000
0000
0000
0000
0000
0000
0000
0000
0000
0000
1000
0000
0000
0000
0000
0000
0000
0000
0000
0000
0000
0000
0001
0000
0000
0000
0000
0000
0000
0000
0000
0000
0000
0000
0100
0000
0000
0001
0000
0000
0100
0000
0000
0001
0000
0000
1000
0000
0000
0100
0000
0000
1000
0000
0000
0100
0000
0000
0010
0000
0000
0001
0000
0000
0010
0000
0000
0001
0000
0000
0100
0000
0000
0000
0000
0000
0000
0000
0010
0000
0000
0000
0000
0000
0000
0000
1000
0000
0000
0000
0000
0000
0000
0000
0001
0000
0000
0000
0000
0000
0000
0000
0000
0000
0000
0000
1001
0000
0000
0000
0000
0000
0000
0000
0000
0000
0000
0000
0110
0000
0000
0000
0000
0000
0000
0000
0000
0000
0000
0000
0000
0000
0000
0000
0000
0000
0000
0000
0000
0000
0000
0000
0110
0000
0000
0000
0000
0000
0000
0000
0000
0000
0000
0000
0000
0000
0000
0000
0000
0000
0000
0000
0000
0000
0000
0000
,  // measure 31
0110
0000
0000
0000
0000
0000
0000
0000
0000
0000
0000
0000
0000
0000
0000
0000
0000
0000
0000
0000
0000
0000
0000
0000
0110
0000
0000
0000
0000
0000
0000
0000
0000
0000
0000
0000
0000
0000
0000
0000
0000
0000
0000
0000
0000
0000
0000
0000
0110
0000
0000
0000
0000
0000
0000
0000
0000
0000
0000
0000
0000
0000
0000
0000
0000
0000
0110
0000
0000
0000
0000
0000
0000
0000
0000
0000
0000
0000
0010
0000
0000
0000
0000
0000
1000
0000
0000
0000
0000
0000
0000
0000
0000
0000
0000
0000
1100
0000
0000
0000
0000
0000
0000
0000
0000
0000
0000
0000
0000
0000
0000
0000
0000
0000
1001
0000
0000
0000
0000
0000
0000
0000
0000
0000
0000
0000
0001
0000
0000
0000
0000
0000
0100
0000
0000
0000
0000
0000
0000
0000
0000
0000
0000
0000
0010
0000
0000
0000
0000
0000
0000
0000
0100
0000
0000
0000
0000
0000
0000
0000
0001
0000
0000
0000
0000
0000
0000
0000
1000
0000
0000
0000
0000
0000
0000
0000
0010
0000
0000
0000
0000
0000
0000
0000
0100
0000
0000
0000
0000
0000
0000
0000
,  // measure 32
0002
0000
0000
0000
2003
0000
0000
0000
3020
0000
0100
0000
0100
0000
0100
0000
0230
0000
0000
0000
0301
1000
0001
1000
0010
0100
0010
0100
0020
0000
0000
0000
,  // measure 33
0130
0000
0000
0101
0000
0001
0100
0000
1100
0000
1000
0100
0001
0000
1000
0000
0200
0000
0001
0000
1000
0000
0010
0000
1300
0000
0000
0000
0100
0000
0000
0000
,  // measure 34
0001
0000
0100
0010
0000
0100
1000
0000
0000
0000
0001
0000
0100
0000
1000
0000
,  // measure 35
0100
0000
0010
0100
0000
0001
0100
0000
0000
0110
0000
0000
1010
0000
1000
0000
,  // measure 36
1001
0001
0101
0100
0110
0100
0110
0010
,  // measure 37
1010
0000
1000
0000
2002
0000
0000
3003
0101
0000
0000
0000
0011
0000
0000
0000
,  // measure 38
0001
0000
1000
0001
0000
1000
0100
0000
0000
0000
1000
0000
0001
0000
0010
0000
,  // measure 39
0001
0000
0100
0001
0000
0100
0010
0000
1000
0000
0010
0000
0100
0000
0010
0000
,  // measure 40
1000
0000
0000
0000
0000
0000
0000
0000
0001
0000
0000
0000
1000
0000
0000
0000
0000
0000
0000
0000
0001
0000
0000
0000
1000
0000
0000
0000
0000
0000
0000
0000
0010
0000
0000
0000
0000
0000
0000
0000
1000
0000
0000
0000
0000
0000
0000
0000
0100
1000
0100
1000
0001
0000
0001
0000
0010
0000
0010
0000
0002
0000
0000
0000
,  // measure 41
1003
0000
0100
0001
0000
0100
1000
0000
0010
0000
1000
0000
0100
0000
0010
0000
,  // measure 42
0001
0000
0100
0000
1000
0000
0100
0001
0000
0100
0010
0000
1000
0000
0100
0000
,  // measure 43
1000
0000
0010
0000
0100
0000
0010
1000
0000
0010
0100
0000
0001
0000
1000
0000
,  // measure 44
0001
0000
0010
0000
0100
0000
1000
0100
0000
0010
0001
0000
1000
0000
0001
1000
,  // measure 45
0001
0010
0100
0010
0001
0010
0100
0010
0001
1000
0100
1000
0001
1000
0100
1000
,  // measure 46
0001
0100
0010
0100
0001
0100
0010
0100
0001
1000
0010
1000
0001
1000
0010
1000
,  // measure 47
0001
0100
1000
0001
0010
1000
1000
0100
0001
1000
0010
0001
,  // measure 48
0200
0000
0000
0000
0000
0310
0110
0000
1001
0000
0000
0000
0001
0000
0000
0000
0100
0000
0000
0000
1000
0000
0100
0000
0000
0000
0001
0000
0100
0000
0000
0000
,  // measure 49
0010
0000
1000
0000
0100
0000
0010
0000
0001
0000
0100
0001
0000
0010
0001
0000
,  // measure 50
1000
0001
0100
0001
1000
0000
0010
0000
1000
0000
0100
0010
0000
0100
1000
0000
,  // measure 51
0001
0000
1000
0001
0100
0000
0001
0000
0010
0000
0001
1000
0100
0000
1000
0000
,  // measure 52
0010
0100
0001
0000
0100
0010
0000
1000
0010
0000
1000
0001
0000
0010
0001
0000
,  // measure 53
1000
0000
0100
0000
0010
0000
1000
0000
0010
0000
0001
0010
0000
0100
1000
0000
,  // measure 54
0010
0000
0000
0100
0000
0000
0001
0000
0000
0100
0000
0000
0010
0000
0000
0000
0000
0000
1000
0000
0000
0000
0000
0000
0001
0000
0000
0000
0000
0000
1000
0000
0010
0000
1000
0000
0010
0000
0000
0000
0000
0000
1000
0000
0000
0000
0000
0000
,  // measure 55
0001
0000
0010
0001
0100
0000
0100
0010
0000
0010
1000
0000
1000
0001
0000
0001
,  // measure 56
0100
0000
0000
0000
0100
0000
0010
0000
1000
0000
0001
0000
0010
0000
0001
0100
0000
0100
0001
0000
1000
0000
0001
0000
1000
0100
0010
0001
0100
0000
0100
0010
,  // measure 57
0000
0000
0000
0000
0000
0000
0010
0000
0000
0000
0000
0000
0100
0000
0000
0000
0000
0000
0000
0000
0000
0000
0000
0000
0010
0000
0000
0000
0000
0000
0000
0000
0000
0000
0000
0000
1000
0000
0000
0000
0000
0000
0000
0000
0000
0000
0000
0000
0001
0000
0000
0000
0000
0000
0000
0000
0100
0000
0000
0000
0000
0000
0000
0000
1000
0000
0000
0000
0000
0000
0000
0000
0100
0000
0000
0000
0000
0000
0000
0000
0000
0000
0000
0000
0001
0000
0000
0000
0000
0000
1000
0000
0000
0000
0000
0000
0000
0000
0000
0000
0000
0000
1000
0000
0000
0000
0000
0000
0001
0000
0000
0000
0000
0000
0000
0000
0000
0000
0000
0000
0010
0000
0000
0000
0000
0000
0000
0000
0000
0000
0000
0000
0100
0000
0000
0000
0000
0000
0000
0000
0000
0000
0000
0000
1000
0000
0000
0000
0000
0000
0100
0000
0000
0000
0000
0000
0001
0000
0000
0000
0000
0000
0000
0000
0000
0100
0000
0000
0000
0000
0000
0000
0000
0000
1000
0000
0000
0000
0000
0000
0010
0000
0000
0000
0000
0000
0010
0000
0000
0100
0000
0000
,  // measure 58
0010
0000
0010
0100
0001
0000
0001
0100
0000
1000
0100
0000
0001
0000
0010
1000
,  // measure 59
0010
0000
0010
0001
0000
0001
0100
0000
0100
0010
0000
0010
1000
0000
0001
1000
,  // measure 60
0001
0000
0000
1000
0000
0000
0001
0000
0000
1000
0000
0000
0010
0000
1000
0000
0010
0000
1000
0000
0000
0010
0000
0000
1000
0000
0000
0010
0000
0000
1000
0000
0000
0010
0000
0000
0100
0000
0010
0000
0100
0000
0010
0000
0000
0100
0000
0000
,  // measure 61
0010
0000
1000
0100
0000
0001
0100
0000
0010
0001
0000
0010
1000
0000
0010
0000
,  // measure 62
0022
0033
0000
0000
;
#NOTES:
     dance-single:
     :
     Beginner:
     5:
     :
0000
0000
0000
0000
,
0000
0000
0000
0000
,
0000
0000
0000
0000
,
0000
0000
0000
0000
,
0000
0000
0000
0000
,
0000
0000
0000
0000
,
0001
0000
0010
0000
,
0001
0000
0001
0000
,
0100
0000
0010
0000
,
0100
1000
0000
1000
,
0000
1000
0000
0000
,
0000
0100
0000
0100
,
0000
0100
0000
0000
,
0010
0000
0010
0000
,
0010
0000
0000
0000
,
0001
0000
0001
0000
,
0001
0001
0000
0001
,
0000
0010
0000
0010
,
0000
0100
0000
0100
,
0000
1000
0100
1000
,
0000
1000
0000
1000
,
0000
0010
0000
0010
,
0000
0100
0001
0100
,
0000
0001
0002
0000
,
0000
0000
0000
0000
,
0000
0000
0000
0000
,
0000
0003
0001
0001
,
0001
1001
0000
0110
,
0000
1000
1000
1000
,
1000
1001
0000
0110
,
0000
1001
0000
0000
,
0000
0000
1000
1000
,
0100
0010
0100
0000
,
0110
0000
1001
0002
,
0000
0000
0000
0003
,
0000
0000
0000
0001
,
0001
0100
0000
0010
,
0010
0001
0000
0020
,
0000
0000
0000
0030
,
0000
0000
0000
0100
,
0100
1000
0000
1001
,
1000
0000
0100
0000
,
0010
0010
1000
0000
,
1000
0000
0010
0000
,
0001
0000
0000
0000
,
0001
0000
0100
0000
,
0010
0010
0001
0000
,
0001
0000
0010
0000
,
1000
1000
0000
0100
,
0000
1000
0000
0100
,
0000
0010
0000
0010
,
0000
0001
0000
0000
,
0000
0001
0000
0100
,
0000
0001
0000
0100
,
0000
0010
0000
0010
,
0000
1000
0000
0000
,
0000
2000
0000
3000
,
0000
0002
0000
0003
,
0001
0001
0010
0000
,
0010
0010
0100
0000
,
0100
0100
1000
0000
,
1000
0000
0001
0000
,
1001
0000
0000
0000
,
0000
0000
0000
0000
;
#NOTES:
     dance-single:
     :
     Easy:
     9:
     :
0000
0000
0000
0000
,
0000
0000
0000
0000
,
0000
0000
0000
0000
,
0000
0000
0000
0000
,
0000
0000
0000
0000
,
0000
0000
0000
0000
,
1000
0100
1000
0000
,
0001
0010
0001
0000
,
1000
0010
1000
0000
0001
0100
0001
0000
,
1001
1001
1000
0100
,
0100
0010
0010
0100
,
0000
1001
0001
0100
,
0100
0010
0010
0100
,
0001
0000
0100
0000
0001
0010
0001
0000
,
1000
0000
0100
0000
1000
0010
1000
0000
,
0001
0101
1000
1100
,
1001
1001
0100
0010
,
0010
0100
0100
0010
,
0010
1001
0100
0010
,
0010
0000
0100
0100
0100
0000
0010
0010
,
0010
0110
1000
0001
,
0001
1000
1000
0001
,
0001
0000
1000
0010
1000
0000
0001
0010
,
0001
1001
1000
0100
,
1000
0100
0010
0000
,
0001
0000
0010
0000
,
0001
0000
1000
1000
1000
0000
0001
0001
,
0001
0011
1010
1100
,
0101
0000
0100
0100
0100
0000
0010
0010
,
0010
1010
0011
0101
,
1100
0002
2003
3002
,
0000
0003
1001
0110
,
0001
0010
0100
0000
1000
0100
0010
0000
,
0110
1001
0110
1000
,
0001
0100
0000
0001
,
1000
0100
0000
2000
,
3000
0002
0003
0100
,
0010
0110
0000
0001
,
1000
0010
0000
1000
,
0001
0010
0000
0200
,
0300
0020
0030
0110
,
1000
0000
0001
0000
1000
0100
1000
0000
,
0001
0010
0001
0100
0001
0000
0000
0000
,
0001
0000
1000
0000
0001
0100
0001
0000
,
1000
0010
1000
0100
1000
0000
0000
0000
,
0001
0010
0100
1000
0010
0000
0000
0000
,
1000
0100
0010
0001
0100
0000
0000
0000
,
0100
0001
0010
0000
0100
1000
0010
0000
,
1001
0000
1000
0000
0100
0000
0010
0001
,
0100
0000
0001
0010
0100
0010
0001
0000
,
1000
0000
0001
0000
0100
0000
0010
1000
,
0010
0000
1000
0100
1000
0001
0100
0000
,
0000
0000
0001
0000
0010
0000
0100
1000
,
0010
0000
1000
0100
0010
0100
1000
0000
,
0001
0000
1000
0000
0010
0000
0100
0001
,
0100
0000
0001
0010
0001
1000
0010
0000
,
0000
0000
2000
0000
3100
0000
0010
0001
,
0011
0002
0103
1010
,
1000
0000
0000
1100
0000
0000
1001
0000
,
0001
0000
0000
0011
0000
0000
1001
0000
,
1000
0100
0001
0000
0100
0000
1000
0000
,
0001
0100
1000
0000
0100
0000
0001
0000
,
1001
0000
0000
0000
,
0000
0000
0000
0000
;
#NOTES:
     dance-single:
     :
     Medium:
     12:
     :
0000
0000
0000
0000
,
0000
0000
0000
0000
,
0000
0000
0000
0000
,
0000
0000
0000
0000
,
0000
0000
0000
0000
,
0000
0000
0000
0000
,
1000
0000
0010
0000
0100
0001
0100
0000
,
0001
0000
0010
0000
0100
1000
0100
0000
,
1000
0010
0100
0000
0001
0010
0100
0000
,
2002
3003
1001
0000
1000
0000
0010
0100
,
0010
0000
1000
0100
0010
0000
0001
1000
,
0001
0000
1001
0000
0001
0000
0100
0010
,
0100
0000
0001
0010
0100
0000
2000
3000
,
0001
0000
0101
0000
0010
0001
0011
0000
,
0100
0000
1100
0000
1000
0010
1010
0000
,
1000
0000
0100
0001
0000
0000
0100
0000
1000
0010
0000
0000
,
0220
0000
0330
0000
0110
0000
0000
0000
1001
0000
0000
0000
0001
0000
0000
0002
,
0000
0000
0003
0000
0110
0000
1000
1000
,
1000
0000
0000
0000
0110
0000
0000
0000
1001
0000
0000
0000
1000
0000
0000
2000
,
0000
0000
3000
0000
1000
0000
0100
0000
0000
0010
0000
0001
0010
0000
0001
0000
,
1000
0000
0000
0000
0101
0000
0000
0000
1010
0000
0000
0000
0001
0000
0000
0002
,
0000
0003
1100
0000
0011
0000
0100
0100
,
0100
0000
1000
0010
0100
0001
0010
0100
,
1000
0000
2002
3003
1000
0100
0001
0000
,
1000
0010
0001
0000
1000
0000
0001
0000
,
1000
0001
1000
0000
,
1001
0000
0000
0000
0001
0000
0001
0000
0100
0010
0100
0010
0100
0000
0010
1000
,
0100
1000
0010
0000
1000
0100
0010
0000
0011
0000
0011
0000
1010
0000
1010
0000
,
0011
0000
0000
0000
0000
0000
0011
0000
0000
0000
0000
0000
0100
0000
0000
0000
0000
0000
1001
0000
0000
0000
0000
0000
1000
0000
0000
0000
0010
0000
0000
0000
0001
0000
0000
0000
0010
0000
0000
0000
0000
0000
1000
0000
0000
0010
0000
0000
,
0100
0001
0100
0000
0010
1000
0100
0000
1100
0000
1100
0000
0101
0000
0101
0000
,
1100
0000
1100
0000
0002
0100
0103
0000
2000
0010
3010
0000
0001
0000
1000
0000
,
0001
1000
0001
0010
0011
0011
0101
0101
,
0001
0000
1000
0000
0100
0010
0100
0010
0100
0000
0010
0001
0100
0001
0010
0000
,
0110
0110
1100
1100
2002
3003
1000
0000
,
0001
0000
0010
1000
0010
0000
0001
1000
,
0100
0000
0010
0001
0100
0000
0001
0001
,
0010
0000
0001
0001
0100
0000
1010
0000
,
1100
1001
0000
0001
,
1000
0000
0100
0001
0100
0000
1000
0001
,
0010
0000
0100
1000
0010
0000
1000
1000
,
0100
0000
1000
1000
0010
0000
2002
3003
,
1001
0000
0000
0000
1000
0000
0010
0100
0000
0000
0010
0000
0000
0000
1000
0000
,
0001
0000
0100
0000
1000
0000
0000
0100
0000
0000
0001
0000
0000
1000
0000
0000
,
1001
0000
0000
0000
0001
0000
0010
0100
0000
0000
0010
0000
0000
0000
0001
0000
,
1000
0000
0100
0000
0010
0000
0000
0001
0000
0000
0100
0000
0010
0000
0000
0000
,
1000
0000
0100
1000
0100
0000
0000
0000
0010
0000
0001
0010
0001
0000
0000
0000
,
0100
0000
0001
0100
0001
0000
0000
0000
1000
0000
0010
1000
0010
0000
0000
0000
,
1000
0000
0100
0010
0000
0001
1000
0000
0010
0100
0000
0001
,
2000
0000
3000
0000
1001
0000
0000
0000
0001
0000
0010
1000
0000
0000
0010
0000
,
0000
0000
0001
0000
1000
0000
0100
0000
0001
0000
0000
0100
0000
0000
1000
0000
,
0000
0001
0000
0000
0010
0000
0000
0000
0100
0000
0010
0001
0000
0000
1000
0000
,
0000
0000
0001
0000
0100
0000
0001
0000
0010
0000
0000
0100
0000
0000
1000
0000
,
0001
0000
0000
0000
1001
0000
0000
0000
1000
0000
0010
0001
0000
0000
0010
0000
,
0000
0000
1000
0000
0001
0000
0100
0000
1000
0000
0000
0100
0000
0000
0001
0000
,
0000
1000
0000
0000
0010
0000
0000
0000
0100
0000
0010
1000
0000
0000
0001
0000
,
0000
0000
1000
0000
0100
0000
1000
0010
0000
1000
0010
0000
0100
0001
0000
0100
,
0001
0000
2000
0010
0000
0100
3002
0010
,
0000
0000
0100
0000
2003
0000
3100
0000
0002
0000
0103
0000
2002
0000
0000
3003
,
1000
0000
0000
1000
0000
0000
0100
0000
0000
0100
0000
0000
0011
0000
0000
0000
,
0001
0000
0000
0001
0000
0000
0100
0000
0000
0100
0000
0000
1010
0000
0000
0000
,
1000
0010
0100
0001
0010
0100
1000
0010
,
0100
0000
0010
0100
0000
0010
0100
0000
0010
0100
0000
0010
0100
0000
0000
0000
,
2002
3003
0000
0000
,
0000
0000
0000
0000
;
#NOTES:
     dance-single:
     :
     Hard:
     16:
     :
0000
0000
0000
0000
,
0000
0000
0000
0000
,
0000
0000
0000
0000
,
0000
0000
0000
0000
,
0000
0000
0000
0000
,
0000
0000
0000
0000
,
0001
0000
0000
0000
0001
0000
0000
0000
1000
0000
0000
0000
1000
0000
0010
1000
,
0100
0010
0100
0010
0001
1000
0001
0000
,
1000
0100
1000
0000
0001
0100
0001
0000
1000
0010
1000
0000
0001
0010
0001
0000
,
2002
0000
3003
0000
1001
0000
0000
0000
1000
0100
0010
0000
0100
0010
0001
0000
,
1000
0000
0000
0000
0001
0100
0010
0000
0100
0010
1000
0000
0001
0010
0100
0010
,
0001
0000
0000
0000
1001
0000
0000
0000
1000
0010
0100
0000
0010
0100
0001
0000
,
1000
0000
0000
0000
0001
0010
0100
0000
0010
0100
1000
0000
0002
0000
0000
0000
,
1003
0100
0110
0000
0001
0100
0110
0000
,
1000
0001
0011
0000
0100
1000
1100
0000
,
0001
0000
0001
0100
0000
0100
0010
1000
0100
0010
0001
1000
,
0002
0000
0003
0000
1001
0000
0000
0000
1000
0010
1000
0000
0100
0000
0000
0200
,
0000
0000
0300
0000
1001
0000
0000
0000
0001
0010
0001
0000
0100
0010
0100
0000
,
0010
0000
0000
0000
1001
0000
0000
0000
0001
0100
0010
0000
1000
0000
0000
2000
,
0000
0000
3000
0000
0010
0000
1000
0000
0000
0001
0000
0001
0200
0000
2300
0000
,
3200
0000
0301
0000
1001
0000
0000
0000
0110
0000
0000
0000
0001
0000
0000
0002
,
0000
0000
0003
0000
0100
0000
0100
0000
0100
0000
0000
0000
0010
0100
0010
0000
,
0100
0000
0000
0000
0001
0000
0100
0000
0010
0000
1000
0000
0100
0010
0001
0000
,
0100
0010
1000
0000
2002
0000
3003
0000
0001
0000
0100
0000
1000
0000
0000
0000
,
0001
0010
1000
0000
0001
1000
0001
1000
,
0001
1000
0001
1000
0001
0000
0000
0000
,
1001
0000
0000
0000
0000
0000
0000
0000
2000
0000
0000
0000
3002
0000
0000
0000
0013
0000
0010
0000
0100
0000
0100
0000
1000
0000
0000
0000
0001
0100
0010
0100
,
0001
1000
0100
1000
0010
0000
0000
0000
1000
0000
0100
0000
1100
0000
0000
0000
0001
0000
0000
0010
0000
0100
1000
0000
0001
0000
0000
0100
0000
0010
1000
0000
,
0001
0000
0000
0000
0100
0000
0000
0000
0010
0000
0000
0000
0100
0000
0000
0000
0010
0000
0000
0000
1000
0000
0000
0000
0002
0000
0000
0000
0000
0000
0000
0000
0000
0000
0000
0000
2003
0000
0000
0000
0000
0000
0000
0000
0000
0000
0000
0000
3100
0000
0000
0000
0000
0000
0000
0000
0010
0000
0000
0000
0000
0000
0000
0000
0100
0000
0000
0000
0000
0000
0000
0000
1001
0000
0000
0000
0000
0000
0000
0000
0000
0000
0000
0000
1000
0000
0000
0100
0000
0000
0010
0000
0000
0100
0000
0000
,
1000
0001
0010
0001
0100
0000
0000
0000
0001
0000
0100
0000
0101
0000
0000
0000
1000
0000
0000
0010
0000
0100
0001
0000
1000
0000
0000
0100
0000
0010
0001
0000
,
1000
0000
0100
0010
0100
0000
0010
0000
0001
0000
0101
0000
0010
0000
0110
0000
1000
0000
1100
0000
2002
0000
3003
0000
0010
0000
0000
0000
0010
0000
0000
0000
,
0010
0000
0000
0000
0000
0000
0000
0000
0000
0000
0000
0000
0010
0000
0000
0000
0000
0000
0000
0000
0000
0000
0000
0000
1001
0000
0000
0000
0000
0000
0000
0000
0000
1000
0000
0000
0000
0000
0000
0001
0000
0000
0100
0000
0000
0000
0000
0000
0001
0000
0000
0000
0000
0000
0000
0000
0000
1000
0000
0000
0000
0000
0000
0001
0000
0000
0010
0000
0000
0000
0000
0000
0100
0000
0000
0000
1000
0000
0000
0000
0010
0000
0000
0000
0100
0000
0000
0000
0001
0000
0000
0000
0010
0000
0000
0000
,
0002
0000
0100
0000
0103
0000
0000
0000
0010
0000
0010
0000
1000
0000
1000
0000
1001
0000
0000
0000
0001
0010
0100
1000
0001
1000
0100
0010
0001
0000
0000
0000
,
1000
0000
0000
0010
0000
1000
0100
0000
0010
0000
0000
0001
0000
0010
0100
0000
2002
0000
0000
0000
3003
0000
0000
0000
0001
0000
0000
0000
0000
0000
0000
0000
,
0001
0000
0100
0010
0000
0000
0100
0000
0000
0000
0110
0000
1000
0000
0010
0000
,
1000
0000
0000
0100
0000
0000
0010
0000
0000
0110
0000
0000
0001
0000
0000
0000
,
0001
0010
0100
0000
0100
1000
0010
0100
,
0001
1000
0020
0000
0230
0000
0301
0000
,
0001
0000
0010
0100
0000
0000
0010
0000
0000
0000
0110
0000
1000
0000
0100
0000
,
1000
0000
0000
0010
0000
0000
0100
0000
0000
0110
0000
0000
0001
0000
0100
0000
,
0010
0000
0000
0000
0000
0000
0000
0000
0000
0000
0000
0000
0000
0000
0000
0000
1000
0000
0000
0000
0000
0000
0000
0000
0100
0000
0000
0000
0000
0000
0000
0000
0010
0000
0000
0000
0000
0000
0000
0000
0000
0000
0000
0000
0000
0000
0000
0000
0001
0000
0001
1000
0001
0000
0000
0000
1000
0000
0000
0000
1000
0000
0000
0000
,
1001
0000
0000
0000
0110
0000
1000
0100
0000
0000
0010
0000
0000
0000
0101
0000
,
0001
0000
1000
0000
0010
0000
0000
0100
0000
0000
0010
0000
0000
0100
0000
0000
,
1001
0000
0000
0000
0110
0000
0001
0100
0000
0000
0010
0000
0000
0000
1001
0000
,
0001
0000
0010
0000
1000
0000
0010
0001
0000
0000
1000
0000
0100
0000
0000
0000
,
1000
0010
0001
0000
0010
0000
1000
0000
0001
0100
1000
0000
0100
0000
0001
0000
,
1000
0100
0001
0000
0100
0000
1000
0000
0001
0010
1000
0000
0010
0000
0001
0000
,
1000
0100
1000
0100
0001
0100
1000
0010
1000
0010
0001
0010
,
2000
0000
3000
0000
0001
0000
0010
0000
0001
0000
0100
0010
0000
0000
0100
0000
,
0000
0000
1010
0000
0010
0000
1000
0000
0100
0000
1000
0100
0000
0000
1100
0000
,
0000
0101
0000
0000
1000
0000
0010
0000
1000
0000
0100
0010
0000
0000
0100
0000
,
0000
0000
0011
0000
0001
0000
0010
0000
0100
0000
1000
0100
0000
0001
0100
0000
,
1000
0000
0000
0000
0001
0000
0100
0000
0010
0000
0001
0010
0000
0000
1000
0000
,
0000
0000
0101
0000
0001
0000
1000
0000
0100
0000
0010
1000
0000
0000
0010
0000
,
0000
0011
0000
0000
1000
0000
0100
0000
0010
0000
1000
0010
0000
0000
0001
0000
,
0000
0000
1100
0000
0001
0000
0010
1000
0000
0001
0100
0000
1000
0010
0000
0001
,
1000
0000
0000
0000
0100
0000
0000
0000
0001
0000
0010
0000
0001
0000
1000
0010
0000
0000
1010
0000
0000
0000
0101
0000
0001
0100
0001
0100
0001
0000
1000
0100
,
0000
0000
0000
0000
0000
0000
0000
0000
0000
0000
0000
0000
0010
0000
0000
0000
0000
0000
0000
0000
0000
0000
0000
0000
0000
0000
0000
0000
0000
0000
0110
0000
0000
0000
0000
0000
0000
0000
0000
0000
0000
0000
0000
0000
0000
0000
0000
0000
0001
0000
0000
0000
0000
0000
0000
0000
0010
0000
0000
0000
0000
0000
0000
0000
1000
0000
0000
0000
0000
0000
0000
0000
0010
0000
0000
0000
0000
0000
0000
0000
0000
0000
0000
0000
0001
0000
0000
0000
0000
0000
0100
0000
0000
0000
0000
0000
0000
0000
0000
0000
0000
0000
0000
0000
0000
0000
0000
0000
0010
0000
0000
0000
0000
0000
0000
0000
0000
0000
0000
0000
0000
0000
0000
0000
0000
0000
0000
0000
0000
0000
0000
0000
0110
0000
0000
0000
0000
0000
0000
0000
0000
0000
0000
0000
1000
0000
0000
0000
0000
0000
0010
0000
0000
0000
0000
0000
0100
0000
0000
0000
0000
0000
0000
0000
0000
0001
0000
0000
0000
0000
0000
0000
0000
0000
1000
0000
0000
0000
0000
0000
1001
0000
0000
0000
0000
0000
0000
0000
0000
0000
0000
0000
,
1000
0000
0000
1010
0000
0000
1000
0000
0000
0100
0000
0000
1100
0000
0100
0010
,
0001
0000
0000
0011
0000
0000
0001
0000
0000
0100
0000
0000
0101
0000
0100
0010
,
1000
0100
1000
0100
0010
0001
0100
0000
0010
1000
0100
0000
0010
0001
0100
0000
,
1000
0000
0100
0001
0000
0010
1000
0000
0001
0100
0000
1000
0001
0000
0000
0000
,
2002
3003
0000
0000
,
0000
0000
0000
0000
;
#NOTES:
     dance-double:
     :
     Easy:
     9:
     :
00000000
00000000
00000000
00000000
,
00000000
00000000
00000000
00000000
,
00000000
00000000
00000000
00000000
,
00000000
00000000
00000000
00000000
,
00000000
00000000
00000000
00000000
,
00000000
00000000
00000000
00000000
,
10000000
00100000
10000000
00000000
,
00010000
00010000
00100000
00000000
,
00001000
00000000
00010000
00000000
00001000
00010000
00001000
00000000
,
00011000
00011000
00010000
00000100
,
00001000
00000100
00000010
00000100
,
00000000
00001001
00000001
00000100
,
00000001
00000100
00000010
00000100
,
00000001
00000000
00001000
00000000
00000100
00001000
00000100
00000000
,
00010000
00000000
00001000
00000000
00100000
00010000
00100000
00000000
,
00110000
00000000
11000000
00000000
,
10010000
10010000
10000000
01000000
,
01000000
00100000
00100000
00001000
,
00001000
00011000
00010000
00000010
,
00000010
00000000
00001000
00000010
00001000
00000000
00000001
00000100
,
00000001
00001001
00001000
00000001
,
00000001
00000100
00000100
00000010
,
00000010
00000000
00010000
00001000
00010000
00000000
00001000
00010000
,
00001000
00011000
00010000
00001000
,
00100000
00010000
01000000
00000000
,
01000000
00000000
01000000
00000000
,
00000000
00000000
01100000
00000000
10010000
00000000
10000000
01000000
,
00100000
00000000
00010000
00100000
00001000
00000000
00010000
00000100
,
00001000
00000000
00000110
00000000
00001001
00000000
00000001
00000100
,
00000010
00000000
00001000
00000010
00010000
00000000
00001000
01000000
,
00010000
00020000
20030000
30020000
,
00000000
00000000
00030000
00000000
10000000
01000000
10000000
00000000
,
00010000
00100000
00001000
00000000
00010000
00001000
00010000
00000000
,
00001000
00010000
00000100
00001000
00000010
00000000
00000001
00000000
,
00000001
00000100
00000000
00000001
,
00000001
00001000
00000000
00000010
,
00001000
00000010
00010000
00002000
,
00003000
00020000
00030000
00001000
,
00001000
00100000
00000000
00001000
,
00001000
01000000
00000000
00010000
,
01000000
00010000
10000000
10010000
,
10000000
00000000
00010000
00000000
00100000
01000000
00100000
00000000
,
00001000
00010000
00001000
01000000
00001000
00000000
00000000
00000000
,
00010000
00000000
00000010
00000000
00001000
00000100
00001000
00000000
,
00000001
00000100
00000001
00000010
00000001
00000000
00000000
00000000
,
00000100
00000001
00001000
00000000
00000010
00000000
00000100
00000000
,
00001000
00010000
00100000
00000000
01000000
00000000
00100000
00000000
,
10000000
01000000
10000000
00000000
00010000
01000000
00010000
00000000
,
10010000
00000000
10000000
00000000
00100000
00000000
01000000
00010000
,
00100000
00000000
00001000
00010000
00000100
00010000
00001000
00000000
,
00000010
00000000
00000001
00000000
00001000
00000000
00000100
00000010
,
00000100
00000000
00001000
00000010
00000100
00000001
00000010
00000000
,
00000000
00000000
00000001
00000000
00000010
00000000
00000100
00001000
,
00000010
00000000
00010000
00001000
01000000
00001000
00010000
00000000
,
00100000
00000000
10000000
00000000
00010000
00000000
01000000
00100000
,
01000000
00000000
00010000
00100000
01000000
10000000
00100000
00000000
,
00000000
00000000
20000000
00000000
30100000
00000000
10000000
00010000
,
00100000
00000000
00002000
00000000
00013000
00000100
00001000
00000000
,
00000001
00000000
00000000
00001000
00000000
00000000
00000100
00000000
,
00010000
00000000
00000000
00001000
00000000
00000000
00100000
00000000
,
00010000
01000000
00100000
00000000
01000000
00010000
00100000
00000000
,
00001000
00000000
00000000
00010000
00000000
00000000
00001000
00000000
,
00011000
00000000
00000000
00000000
,
00000000
00000000
00000000
00000000
;
#NOTES:
     dance-double:
     :
     Medium:
     12:
     :
00000000
00000000
00000000
00000000
,
00000000
00000000
00000000
00000000
,
00000000
00000000
00000000
00000000
,
00000000
00000000
00000000
00000000
,
00000000
00000000
00000000
00000000
,
00000000
00000000
00000000
00000000
,
10000000
00000000
01000000
00000000
00100000
00010000
01000000
00000000
,
00010000
00000000
00100000
00000000
00001000
00010000
00001000
00000000
,
00010000
00000100
00001000
00000100
00000010
00000001
00000010
00000000
,
00002002
00003003
00001001
00000000
00000001
00000000
00000100
00000010
,
00000100
00000000
00000010
00001000
00000010
00000000
00010000
00001000
,
00010000
00000000
00011000
00000000
00001000
00000000
01000000
00010000
,
00100000
00000000
00010000
00100000
01000000
00000000
20000000
30000000
,
10000000
01000000
10000000
00100000
10000000
01000000
10000000
00000000
,
00010000
00100000
00001000
00100000
00010000
00100000
00001000
00000000
,
00010000
00000000
00000010
00001000
00000000
00000000
00000100
00000000
00000010
00000001
00000000
00000000
,
00002002
00000000
00003003
00000000
00000001
00000000
00000000
00000000
00001001
00000000
00000000
00000000
00001000
00000000
00000000
00002000
,
00000000
00000000
00003010
00001000
00000100
00000000
00010000
00001000
,
00010000
00000000
00000000
00000000
00001000
00000000
00000000
00000000
00011000
00000000
00000000
00000000
00010000
00000000
00000000
00020000
,
00000000
00000000
00030000
00000000
00001000
00000000
01000000
00000000
00000000
00010000
00000000
00100000
00010000
00000000
01000000
00000000
,
00100000
00000000
00000000
00000000
10000000
00000000
00000000
00000000
10010000
00000000
00000000
00000000
00010000
00000000
00000000
00020000
,
00000000
00000000
00130000
00010000
01000000
00000000
00001000
00010000
,
00001000
00000000
00010000
00000010
00001000
00000010
00000100
00000001
,
00000100
00000000
00002002
00003003
00000001
00000100
00001000
00000000
,
00010000
00100000
10000000
00000000
00010000
00000000
10000000
00000000
,
00010000
10000000
00010000
00000000
,
10010000
00000000
00000000
00000000
10000000
00000000
10000000
00000000
01000000
00100000
01000000
00100000
01000000
00000000
00100000
00001000
,
00010000
00001000
00010000
00000000
00001000
00000010
00000001
00000000
00000101
00000000
00000101
00000000
00001100
00000000
00001100
00000000
,
00011000
00000000
00000000
00000000
00000000
00000000
00011000
00000000
00000000
00000000
00000000
00000000
00010000
00000000
00000000
00000000
00000000
00000000
00000100
00000000
00000000
00000000
00000000
00000000
00001000
00000000
00000000
00000000
00000010
00000000
00000000
00000000
00001000
00000000
00000000
00000000
00000010
00000000
00000000
00000000
00000000
00000000
00000100
00000000
00000000
00000001
00000000
00000000
,
00001000
00000100
00001000
00000000
00000010
00010000
00001000
00000000
00011000
00000000
00011000
00000000
00110000
00000000
00110000
00000000
,
10100000
00000000
10100000
00000000
20000000
00100000
30100000
00000000
02000000
00010000
03010000
00000000
00001000
00000000
00010000
00000000
,
00001000
00010000
00001000
00010000
00010010
00010010
00001010
00001010
,
00001000
00000000
00000001
00000000
00000100
00000010
00000100
00000010
00000100
00000000
00000010
00010000
00001000
00010000
00001000
00000000
,
00010000
00100000
10000000
00000000
00100000
01000000
00100000
00000000
02200000
00000000
03300000
00000000
10000000
00000000
00000000
00000000
,
00010000
00000000
10000000
00100000
10000000
00000000
00010000
01000000
,
00010000
00000000
00100000
00001000
00100000
00000000
00002000
00000000
,
00023000
00000000
00030200
00000000
00002300
00000000
00003010
00000100
,
00000010
00000100
00000001
00000000
00000000
00000000
00000001
00000000
,
00001000
00000000
00000001
00000010
00000001
00000000
00001000
00000100
,
00001000
00000000
00000010
00010000
00000010
00000000
00020000
00000000
,
00032000
00000000
02003000
00000000
03010000
00000000
20020000
30030000
,
10010000
00000000
00000000
00000000
10000000
00000000
01000000
00100000
00000000
00000000
01000000
00000000
00000000
00000000
00010000
00000000
,
00001000
00000000
00010000
00000000
00001000
00000000
00000000
00000010
00000000
00000000
00000100
00000000
00000000
00000010
00000000
00000000
,
00000001
00000000
00000000
00000000
00001000
00000000
00000010
00000100
00000000
00000000
00000010
00000000
00000000
00000000
00010000
00000000
,
00001000
00000000
00010000
00000000
00001000
00000000
00000000
00100000
00000000
00000000
01000000
00000000
00100000
00000000
00000000
00000000
,
00010000
10000000
01000000
00010000
00001000
00000010
00000001
00000000
,
00001000
00000001
00000100
00001000
00010000
00100000
10000000
00000000
,
10000000
00000000
01000000
00100000
00000000
00100000
00001000
00000000
00001000
00010000
00000000
00000000
,
00022000
00000000
00033000
00000000
00010000
00000000
00001000
00000000
00000010
00000000
00000100
00000010
00000000
00000000
00000001
00000000
,
00000000
00000000
00001000
00000000
00000001
00000000
00000100
00000000
00000010
00000000
00000000
00010000
00000000
00000000
00001000
00000000
,
00000000
00010000
00000000
00000000
00001000
00000000
00000000
00000000
00010000
00000000
00100000
01000000
00000000
00000000
00100000
00000000
,
00000000
00000000
10000000
00000000
01000000
00000000
00100000
00000000
00010000
00000000
00000000
01000000
00000000
00000000
00100000
00000000
,
10000000
00000000
00000000
00000000
10010000
00000000
00000000
00000000
10000000
00000000
00010000
00100000
00000000
00000000
00001000
00000000
,
00000000
00000000
00010000
00000000
00000100
00000000
00001000
00000000
00000100
00000000
00000000
00000001
00000000
00000000
00000100
00000000
,
00000000
00000010
00000000
00000000
00000001
00000000
00000000
00000000
00000100
00000000
00000010
00001000
00000000
00000000
00000010
00000000
,
00000000
00000000
00010000
00000000
00001000
00000000
00100000
00010000
00000000
00100000
00010000
00000000
01000000
00100000
00000000
01000000
,
00100000
00000000
20000000
32000000
03200000
00320000
00032000
00003200
,
00000310
00000001
00000010
00000000
00000002
00000000
00000203
00000000
00000320
00000000
00020030
00000000
00002000
00000000
00033000
00000000
,
00001000
00000000
00000000
00010000
00000000
00000000
00100000
00000000
00000000
10000000
00000000
00000000
00010000
00000000
00000000
00000000
,
10000000
00000000
00000000
01000000
00000000
00000000
00010000
00000000
00000000
00001000
00000000
00000000
00010000
00000000
00000000
00000000
,
00001000
00000010
00001000
00000010
00000001
00000100
00000001
00000100
,
00000010
00000000
00001000
00000100
00000000
00001000
00000100
00000000
00010000
00001000
00000000
00010000
00001000
00000000
00000000
00000000
,
00022000
00033000
00000000
00000000
,
00000000
00000000
00000000
00000000
;
#NOTES:
     dance-double:
     :
     Hard:
     16:
     :
00000000
00000000
00000000
00000000
,
00000000
00000000
00000000
00000000
,
00000000
00000000
00000000
00000000
,
00000000
00000000
00000000
00000000
,
00000000
00000000
00000000
00000000
,
00000000
00000000
00000000
00000000
,
10000000
00000000
00000000
00000000
10000000
00000000
00000000
00000000
00010000
00000000
00000000
00000000
00010000
00000000
01000000
00010000
,
00100000
00001000
00100000
00001000
00010000
00001000
00010000
00000000
,
00000100
00001000
00000100
00000000
00000010
00000001
00000010
00000000
00000001
00000100
00000010
00000000
00001000
00000010
00010000
00000000
,
00022000
00033000
00011000
00000000
00001000
01000000
10000000
01000000
,
00001000
00000000
00010000
00000100
00000001
00000100
00010000
00001000
,
00010000
00000000
00011000
00000000
00001000
00100000
10000000
00100000
,
00001000
00000000
00010000
00000010
00000001
00000010
00020000
00000000
,
00031000
00000000
00000010
00000000
00000001
00001000
00000001
00000000
00000100
00000000
00000010
00000000
00001000
00000000
00010000
00000000
,
01000000
00000000
00100000
00000000
10000000
00010000
10000000
00000000
01000000
00000000
00100000
00000000
00010000
00000000
00001000
00000000
,
00000100
00000010
00000001
00000100
00000000
00000000
00001000
00010000
00100000
01000000
00000000
00000000
,
02200000
00000000
03300000
00000000
10010000
00000000
00000000
00000000
10000000
01000000
00100000
00000000
00010000
00000000
00000000
00020000
,
00000000
00000000
00030000
00000000
10010000
00000000
00000000
00000000
00010000
00100000
00010000
00000000
01000000
00001000
01000000
00000000
,
00001000
00000000
00000000
00000000
00011000
00000000
00000000
00000000
00001000
00010000
00000100
00000000
00000010
00000000
00000000
00000020
,
00000000
00000000
00000030
00000000
00000001
00000000
00001000
00000000
00000000
00000001
00000000
00000001
00000200
00000000
00002300
00000000
,
00023000
00000000
00230000
00000000
10300000
00000000
00000000
00000000
10010000
00000000
00000000
00000000
10000000
00000000
00000000
20000000
,
00000000
00000000
30000000
00000000
10000000
00000000
01000000
00000000
00100000
00000000
00000000
00000000
00001000
00010000
00001000
00000000
,
00010000
00000000
00001000
00010000
00000100
00001000
00000010
00000100
,
00000001
00000000
00002002
00003003
00000001
00000100
00000001
00000010
,
00000100
00001000
00000100
00010000
00001000
00010000
00001000
00010000
,
00001000
00010000
00001000
00010000
00001000
00000000
00000000
00000000
,
00011000
00000000
00000000
00000000
00000000
00000000
00000000
00000000
00002000
00000000
00000000
00000000
00023000
00000000
00000000
00000000
00130000
00000000
10000000
00000000
00100000
00000000
00010000
00000000
00001000
00000000
00000000
00000000
00010000
01000000
00100000
00000000
,
01000000
10000000
00010000
00000000
10000000
00000000
00000000
00000000
00010000
00000000
00010000
00000000
00010000
00000000
00000000
00000000
00100000
00000000
01000000
00000000
00010000
00000000
00001000
00000000
00100000
00000000
01000000
00000000
00010000
00000000
00001000
00000000
,
00100000
00000000
00000000
00000000
01000000
00000000
00000000
00000000
00100000
00000000
00000000
00000000
00001000
00000000
00000000
00000000
00010000
00000000
00000000
00000000
00001000
00000000
00000000
00000000
00020000
00000000
00000000
00000000
00000000
00000000
00000000
00000000
00000000
00000000
00000000
00000000
00032000
00000000
00000000
00000000
00000000
00000000
00000000
00000000
00000000
00000000
00000000
00000000
00003100
00000000
00000000
00000000
00000000
00000000
00000000
00000000
00000001
00000000
00000000
00000000
00000000
00000000
00000000
00000000
00000100
00000000
00000000
00000000
00000000
00000000
00000000
00000000
00001000
00000000
00000000
00000000
00000000
00000000
00000000
00000000
00000000
00000000
00000000
00000000
00010000
00000000
00000000
00000100
00000000
00000000
00000010
00000000
00000000
00000000
00000000
00000000
,
00000100
00001000
00000010
00000000
00001000
00000000
00000000
00000000
00000001
00000000
00000001
00000000
00000001
00000000
00000000
00000000
00000100
00000000
00000010
00000000
00010000
00000000
00001000
00000000
00000100
00000000
00000010
00000000
00010000
00000000
00001000
00000000
,
00000100
00000000
00000010
00001000
00000010
00000000
00000100
00000000
00000001
00000000
00000001
00000000
00001000
00000000
00001000
00000000
00010000
00000000
00010000
00000000
20020000
00000000
30030000
00000000
00010000
00000000
00000000
00000000
10000000
00000000
00000000
00000000
,
00010000
00000000
00000000
00000000
00000000
00000000
00000000
00000000
00000000
00000000
00000000
00000000
10000000
00000000
00000000
00000000
00000000
00000000
00000000
00000000
00000000
00000000
00000000
00000000
00010000
00000000
00000000
00000000
00000000
00000000
00000000
00000000
00000000
10000000
00000000
00000000
00000000
00000000
00000000
00100000
00000000
00000000
01000000
00000000
00000000
00000000
00000000
00000000
00100000
00000000
00000000
00000000
00000000
00000000
00000000
00000000
00000000
00010000
00000000
00000000
00000000
00000000
00000000
00001000
00000000
00000000
00010000
00000000
00000000
00000000
00000000
00000000
00001000
00000000
00000000
00000000
00010000
00000000
00000000
00000000
00000010
00000000
00000000
00000000
00001000
00000000
00000000
00000000
00000100
00000000
00000000
00000000
00000010
00000000
00000000
00000000
,
00000002
00000000
00001000
00000000
00001003
00000000
00000000
00000000
00000001
00000000
00000100
00000000
00000010
00000000
00000100
00000000
00000001
00000000
00000000
00000000
00001000
00000100
00000010
00000100
00001000
00000100
00010000
00001000
00010000
00000000
00000000
00000000
,
00001000
00000000
00000000
01000000
00000000
00010000
00100000
00000000
00010000
00000000
00000000
01000000
00000000
00100000
10000000
00000000
20020000
00000000
00000000
00000000
30030000
00000000
00000000
00000000
00010000
00000000
00000000
00000000
00000000
00000000
00000000
00000000
,
00010000
00000000
10000000
01000000
00000000
00000000
00100000
00000000
00000000
00000000
01000000
00000000
00100000
00000000
00001000
00000000
,
00100000
00000000
00000000
00001000
00000000
00000000
00010000
00000000
00000000
00001000
00000000
00000000
00010000
00000000
00000100
00000000
,
00000010
00000100
00010000
00000100
00000010
00000100
00010000
00000010
,
00001000
00000001
00000200
00000000
00000302
00000000
00001003
00000000
,
00001000
00000000
00000001
00000100
00000000
00000000
00000010
00000000
00000000
00000000
00000100
00000000
00000010
00000000
00010000
00000000
,
00000010
00000000
00000000
00010000
00000000
00000000
00001000
00000000
00000000
00010000
00000000
00000000
00001000
00000000
01000000
00000000
,
00100000
00000000
00000000
00000000
00000000
00000000
00000000
00000000
01000000
00000000
00000000
00000000
00000000
00000000
00000000
00000000
00001000
00000000
00000000
00000000
00000000
00000000
00000000
00000000
01000000
00000000
00000000
00000000
00000000
00000000
00000000
00000000
00100000
00000000
00000000
00000000
00000000
00000000
00000000
00000000
01000000
00000000
00000000
00000000
00000000
00000000
00000000
00000000
00001000
00000000
00001000
00010000
00001000
00000000
00000000
00000000
00010000
00000000
00000000
00000000
00010000
00000000
00000000
00000000
,
00011000
00001000
00000010
00000001
00000100
00000010
00001000
00000100
,
00010000
00001000
00010000
01000000
10000000
00100000
00010000
00001000
,
00010000
01000000
00100000
01000000
00010000
00001000
00010000
01000000
,
10000000
00100000
00010000
00001000
00000100
00000001
00001000
00000000
,
00000001
00000100
00001000
00000000
00010000
00000000
00100000
00000000
10000000
00010000
00100000
00010000
10000000
00000000
00010000
00000000
,
10000000
01000000
00010000
00000000
00001000
00000000
00000010
00000000
00000001
00001000
00000010
00001000
00000001
00000000
00001000
00000000
,
00000001
00000100
00001000
00000100
00001000
00010000
00001000
00010000
00100000
00010000
00100000
10000000
,
00020000
00000000
00030000
00000000
00010000
00000000
01000000
00000000
00010000
00000000
00100000
00001000
00000000
00000000
00010000
00000000
,
00000000
00000000
00001000
00000000
00000010
00000000
00000100
00000000
00010000
00000000
00000100
00001000
00000000
00000000
00000010
00000000
,
00000000
00000100
00000000
00000000
00000001
00000000
00000100
00000000
00000001
00000000
00000010
00000100
00000000
00000000
00010000
00000000
,
00000000
00000000
00001000
00000000
00000100
00000000
00001000
00000000
00010000
00000000
00100000
10000000
00000000
00010000
01000000
00000000
,
00100000
00000000
00000000
00000000
01000000
00000000
00010000
00000000
00100000
00000000
00001000
00010000
00000000
00000000
00001000
00000000
,
00000000
00000000
00000010
00000000
00000001
00000000
00000100
00000000
00001000
00000000
00000100
00000010
00000000
00000000
00010000
00000000
,
00000000
00001000
00000000
00000000
01000000
00000000
00010000
00000000
00100000
00000000
01000000
10000000
00000000
00000000
00010000
00000000
,
00000000
00000000
01000000
00000000
00100000
00000000
10000000
01000000
00000000
00100000
00010000
00000000
00001000
00000100
00000000
00000010
,
00000001
00000000
00000000
00000000
00000000
00000000
00000000
00000000
00001000
00000000
00000010
00000000
00000001
00000000
00000010
00001000
00000000
00000000
00000100
00000000
00000000
00000000
00010100
00000000
00010000
00001000
00010000
00001000
00010000
00000000
00001000
01000000
,
00000000
00000000
00000000
00000000
00000000
00000000
00000000
00000000
00000000
00000000
00000000
00000000
00010000
00000000
00000000
00000000
00000000
00000000
00000000
00000000
00000000
00000000
00000000
00000000
00000000
00000000
00000000
00000000
00000000
00000000
00110000
00000000
00000000
00000000
00000000
00000000
00000000
00000000
00000000
00000000
00000000
00000000
00000000
00000000
00000000
00000000
00000000
00000000
00010000
00000000
00000000
00000000
00000000
00000000
00000000
00000000
00100000
00000000
00000000
00000000
00000000
00000000
00000000
00000000
10000000
00000000
00000000
00000000
00000000
00000000
00000000
00000000
00100000
00000000
00000000
00000000
00000000
00000000
00000000
00000000
00000000
00000000
00000000
00000000
00010000
00000000
00000000
00000000
00000000
00000000
01000000
00000000
00000000
00000000
00000000
00000000
00000000
00000000
00000000
00000000
00000000
00000000
00000000
00000000
00000000
00000000
00000000
00000000
00100000
00000000
00000000
00000000
00000000
00000000
00000000
00000000
00000000
00000000
00000000
00000000
00000000
00000000
00000000
00000000
00000000
00000000
00000000
00000000
00000000
00000000
00000000
00000000
01100000
00000000
00000000
00000000
00000000
00000000
00000000
00000000
00000000
00000000
00000000
00000000
10000000
00000000
00000000
00000000
00000000
00000000
00100000
00000000
00000000
00000000
00000000
00000000
00010000
00000000
00000000
00000000
00000000
00000000
00000000
00000000
00000000
00001000
00000000
00000000
00000000
00000000
00000000
00000000
00000000
00000000
00000100
00000000
00000000
00000000
00000000
00000000
00000001
00000000
00000000
00000000
00000000
00000000
00000000
00000000
00000000
00000000
00000000
00000000
,
00000001
00000000
00000000
00000001
00000000
00000000
00001000
00000000
00000000
00001000
00000000
00000000
00000010
00010000
00001000
00010000
,
00001000
00000000
00000000
00001000
00000000
00000000
01000000
00000000
00000000
01000000
00000000
00000000
00100000
10000000
00010000
10000000
,
00010000
00000000
10000000
01000000
00100000
00000000
00001000
00010000
00000010
00000000
00000100
00000001
00000010
00000000
00000100
00010000
,
00001000
00000000
00010000
00100000
00000000
00100000
10000000
00000000
01000000
00010000
00000000
00010000
00001000
00000000
00000000
00000000
,
00022000
00033000
00000000
00000000
,
00000000
00000000
00000000
00000000
;
