#TITLE:MOVE! (We Keep It Movin');
#SUBTITLE:;
#ARTIST:Jonny Dynamite!,Lisa - paint with stars -,Rio Hiiragi by BEMANI Sound Team "U1-ASAMi";
#TITLETRANSLIT:;
#SUBTITLETRANSLIT:;
#ARTISTTRANSLIT:;
#GENRE:;
#CREDIT:;
#BANNER:;
#BACKGROUND:MOVE! (We Keep It Movin')-bg.png;
#LYRICSPATH:;
#CDTITLE:;
#MUSIC:MOVE! (We Keep It Movin').ogg;
#OFFSET:0.000000;
#SAMPLESTART:89.119003;
#SAMPLELENGTH:15.000000;
#SELECTABLE:YES;
#BPMS:0.000000=142.000000
;
#STOPS:
;
#BGCHANGES:;
#KEYSOUNDS:;
#ATTACKS:;

//---------------dance-single - ----------------
#NOTES:
     dance-single:
     :
     Beginner:
     3:
     0.131718,0.159050,0.046101,0.076836,0.000000,120.000000,114.000000,6.000000,10.000000,0.000000,0.000000,0.131718,0.159050,0.046101,0.076836,0.000000,120.000000,114.000000,6.000000,10.000000,0.000000,0.000000:
0000
0000
0000
0000
,
0000
0000
0000
0000
,
0000
0000
0000
0000
,
0000
0000
0000
0000
,
0000
0000
0000
0000
,
1000
0000
0010
0000
,
1000
0000
0001
0000
,
0010
0000
0100
0000
,
0010
0000
0001
0000
,
1000
0000
1000
0000
,
0100
0000
0100
0000
,
0010
0000
0010
0000
,
0001
0000
0001
0000
,
0100
0000
0100
0000
,
0010
0000
0010
0000
,
1000
0000
1000
0000
,
1001
0000
0000
0000
,
0200
0000
0000
0300
,
0020
0000
0000
0030
,
2000
0000
0000
3000
,
0001
0000
0010
0000
,
0001
0000
0100
0000
,
0010
0000
1000
0000
,
0001
0000
0010
0000
,
0110
0000
0000
0000
,
0002
0000
0000
0003
,
1000
0000
0010
0000
,
2000
0000
0000
3000
,
0001
0000
0100
0000
,
0020
0000
0000
0030
,
1000
0000
0001
0000
,
0200
0000
0000
0300
,
0110
0000
0000
0000
,
0001
0000
0100
0000
,
1000
0000
0100
0000
,
0001
0000
0010
0000
,
1000
0000
0010
0000
,
0001
0000
0100
0000
,
0010
0000
0100
0000
,
2000
0000
0000
3000
,
0010
0000
0010
0000
,
0100
0000
0001
0000
,
0100
0000
0001
0000
,
1000
0000
0010
0000
,
1000
0000
0010
0000
,
0100
0000
0100
0000
,
0100
0000
0100
0000
,
0010
0000
0010
0000
,
0010
0000
0010
0000
,
1001
0000
0000
0000
,
0200
0000
0300
0000
,
0020
0000
0030
0000
,
0110
0000
0000
0000
,
1000
0000
0100
0000
,
1000
0000
0001
0000
,
0100
0000
0010
0000
,
0100
0000
0001
0000
,
1000
0000
0100
0000
,
0010
0000
0001
0000
,
0100
0000
0010
0000
,
1000
0000
0100
0000
,
0001
0000
0100
0000
,
1000
0000
0100
0000
,
0001
0000
1000
0000
,
0010
0000
0100
0000
,
0001
0000
0001
0000
,
0100
0000
0100
0000
,
0010
0000
1000
0000
,
0100
0000
0010
0000
,
0110
0000
0000
0000
,
0000
0000
0000
0000
;

//---------------dance-single - ----------------
#NOTES:
     dance-single:
     :
     Easy:
     7:
     0.268925,0.318099,0.169038,0.199773,0.015367,245.000000,223.000000,22.000000,26.000000,0.000000,0.000000,0.268925,0.318099,0.169038,0.199773,0.015367,245.000000,223.000000,22.000000,26.000000,0.000000,0.000000:
0000
0000
0000
0000
,
0000
0000
0000
0000
,
0000
0000
0000
0000
,
0000
0000
0000
0000
,
0000
0000
0000
0000
,
0010
1000
0010
1000
,
0001
0010
0200
0300
,
1000
0001
1000
0001
,
0010
0100
1000
0001
,
0110
0000
0100
0100
,
1001
0000
0001
1000
,
0100
0100
0010
0010
,
0001
0100
0001
1000
,
0010
0010
0100
0100
,
0001
1000
0010
1000
,
0001
0001
0100
0100
,
0010
0000
1000
0000
0100
0010
0100
0000
,
2000
0000
3000
0100
2000
0000
3000
0001
,
0200
0000
0300
0001
0200
0000
0300
0001
,
0020
0000
0030
0100
0020
0000
0030
0100
,
1000
0100
1000
0001
,
0010
0000
0000
0010
0000
0000
0010
0000
0001
0000
0000
0000
0000
0000
0000
0000
,
0100
0000
0000
0100
0000
0000
0100
0000
0010
0000
0000
0000
0000
0000
0000
0000
,
1000
0000
0000
1000
0000
0000
1000
0000
0100
0000
0000
0100
0000
0000
0100
0000
,
0020
0031
1001
0000
,
0200
0300
0020
0030
,
1000
1000
1001
0000
,
0002
0003
0020
0030
,
0100
0010
0100
0000
1001
0000
0010
0000
,
2000
3000
0002
0003
,
0100
0100
0110
0000
,
0020
0030
2000
3000
,
0200
0320
0230
1300
,
0001
0000
0110
0000
,
1000
0000
1010
0000
,
0001
0000
0101
0000
,
1000
0000
0010
0100
0010
0000
0200
0000
,
0301
0000
0110
0000
,
0010
0000
0110
0000
,
0020
0000
0130
0000
,
0001
0000
1000
0100
1000
0000
0100
0000
,
0010
0010
0001
0000
,
0100
0100
0010
0000
,
1000
0100
0001
0100
,
1000
0010
0100
0000
,
0001
0000
0000
0001
0100
0000
0000
0100
,
0010
0000
0000
0010
1000
0000
0000
0010
,
0100
0000
0000
0100
0001
0000
0000
0001
,
1000
0000
0000
0010
0100
0000
0010
0000
,
1000
0001
1001
0000
,
0020
0000
0230
0000
,
2300
0000
3001
0000
,
0220
0000
0330
0000
,
1001
0100
0001
0100
,
1010
0100
0001
0000
,
0100
0010
1000
0010
,
0100
0001
0110
0000
,
1000
1000
0001
0100
,
1000
0100
0001
0010
,
0100
0100
1000
0001
,
1001
0000
0100
0000
0010
1000
0010
0000
,
1000
0100
0010
0001
,
1000
0010
0110
0000
,
0100
0001
1000
0010
,
1000
0001
1001
0000
,
0010
0100
1000
0010
,
0100
0001
1001
0000
,
1000
0100
0001
0100
,
0110
0000
1000
0000
0001
0100
1000
0000
,
0110
0000
0000
0000
,
0000
0000
0000
0000
;

//---------------dance-single - ----------------
#NOTES:
     dance-single:
     :
     Medium:
     10:
     0.409424,0.424133,0.291975,0.261241,0.153671,373.000000,335.000000,38.000000,34.000000,0.000000,0.000000,0.409424,0.424133,0.291975,0.261241,0.153671,373.000000,335.000000,38.000000,34.000000,0.000000,0.000000:
0000
0000
0000
0000
,
0000
0000
0000
0000
,
0000
0000
0000
0000
,
0000
0000
0000
0000
,
0000
0000
0000
0000
,
1000
0000
0001
0000
0100
0010
0100
0000
,
0001
0000
0010
0100
0010
0000
0000
0000
,
0100
1000
0010
1000
,
0001
0100
0010
1000
0010
0000
0101
0000
,
2200
0000
3300
0000
0010
0100
0010
0000
,
0202
0000
0303
0000
0010
0100
0010
0000
,
1000
0100
1000
0000
0001
0100
0001
0000
,
2000
3010
0002
0013
,
0100
0000
1000
0000
0010
1000
0100
0000
,
0010
0000
0001
0000
0100
0001
0010
0000
,
0100
1000
0100
0000
1000
0010
1000
0000
,
0010
0100
0001
0000
0010
0100
1000
0000
,
0002
0000
0000
0013
0000
0000
0010
0000
0200
0000
0000
1300
0000
0000
1000
0000
,
0200
0000
0000
0310
0000
0000
0010
0000
0200
0000
0000
1300
0000
0000
1000
0000
,
0002
0000
0000
0013
0000
0000
0010
0000
0200
0000
0000
0310
0000
0000
0010
0000
,
0001
0100
0010
0000
1000
0100
0010
0000
,
0001
0000
0000
0001
0000
0000
0001
0000
0100
0000
0000
0100
0000
0000
0100
0000
,
0010
0000
0000
0010
0000
0000
0010
0000
1000
0000
0000
1000
0000
0000
1000
0000
,
0100
0000
0000
0100
0000
0000
0100
0000
0010
0000
0000
0010
0000
0000
0010
0000
,
0002
1003
0110
0000
,
0002
0103
2000
3100
,
0110
0000
0000
0001
0010
0001
0100
0000
0000
0010
0000
0000
,
2000
3100
0002
0103
,
1000
0100
0010
0100
1000
0000
2010
0000
,
3002
0013
2000
3010
,
0110
0000
0000
1000
0100
1000
0010
0000
0000
0100
0000
0000
,
0002
0013
2000
3010
,
0200
0302
2003
3020
0230
0300
0110
0000
,
0001
0000
0100
0000
0100
0000
0010
0000
1000
0000
1000
0000
,
0100
0000
0010
0000
0010
0000
0110
0000
0000
0001
0000
0000
,
1000
0000
0010
0000
0010
0000
0100
0000
0001
0000
0001
0000
,
0010
0100
0010
0001
1000
0000
2010
0000
,
3100
0000
0010
0000
0010
0000
0001
0000
0100
0000
0100
0000
,
0010
0000
1000
0000
1000
0000
1010
0000
0000
0001
0000
0000
,
0012
0000
1003
0010
,
0100
0010
0100
0001
1000
0100
0010
0100
,
1000
0010
1000
0001
,
0011
0101
1100
1010
,
0001
0000
0010
0000
0100
1000
0010
0000
,
1000
0100
0001
0000
1000
0010
0001
0000
,
1000
0000
0000
1000
0000
0000
0100
0000
0010
0000
0000
0010
0000
0000
0001
0000
,
1000
0000
0000
1000
0000
0000
0010
0000
0100
0000
0000
0100
0000
0000
0001
0000
,
0010
0000
0000
0010
0000
0000
1000
0000
0010
0000
0000
0010
0000
0000
0001
0000
,
0100
0000
0000
0100
0000
0000
1000
0000
0100
0000
0000
0100
0000
0000
0001
0000
,
0010
0100
1000
0001
0200
0000
0000
0000
,
0320
1000
0100
0031
,
0200
1000
0301
0000
,
2002
0000
3003
0100
,
0011
0000
1100
0000
0001
0010
0100
0000
,
1010
0000
0100
0001
0010
0000
0110
0000
,
1100
0000
0011
0000
1000
0010
0100
0000
,
0001
0010
0001
0100
0010
1000
0100
0000
,
0011
0000
0101
0000
0010
1000
0100
0000
,
0010
0000
0001
0100
0010
0000
1010
0000
,
0100
0101
0011
1010
,
1100
0000
0010
0100
0001
0010
0100
0000
,
1000
0100
1000
0000
0010
0100
0010
0000
,
0100
0001
0100
0001
0010
0000
0110
0000
,
0001
0100
0001
0000
0010
0100
0010
0000
,
0100
1000
0100
0010
0001
0000
0101
0000
,
1000
0010
1000
0000
0001
0010
0001
0000
,
0100
0010
0100
0001
1000
0000
0011
0000
,
0010
1010
1100
0101
,
0011
0000
1000
0100
1000
0010
0100
0000
,
1001
0000
0000
0000
;

//---------------dance-single - ----------------
#NOTES:
     dance-single:
     :
     Hard:
     13:
     0.486260,0.556674,0.245874,0.222823,0.357286,443.000000,411.000000,32.000000,29.000000,0.000000,0.000000,0.486260,0.556674,0.245874,0.222823,0.357286,443.000000,411.000000,32.000000,29.000000,0.000000,0.000000:
0000
0000
0000
0000
,
0000
0000
0000
0000
,
0000
0000
0000
0000
,
0000
0000
0000
0000
,
0000
0000
0000
0000
,
0001
0000
0000
0001
0000
0000
0001
0000
0100
0000
0000
0100
0000
0000
0100
0000
,
0010
0000
0000
0010
0000
0000
0010
0000
1000
0000
0000
0000
1000
0000
0000
0000
,
0100
0010
0100
0010
,
0001
0100
0001
0100
0010
1000
0001
1000
,
2000
0000
3000
0001
0010
0001
0100
0010
,
0020
0000
0000
0000
0030
0000
1000
0000
0100
0000
1000
0001
0000
0000
0010
0000
,
0100
0010
0001
0010
0100
1000
0010
0100
,
0001
0100
0010
0100
0002
0000
0003
1000
,
2000
0000
3100
0010
0001
0010
0100
0000
,
1000
0000
0001
0000
0100
0000
0010
0000
1000
0000
0100
0010
0000
0010
0100
0000
,
1000
0100
1000
0001
0010
0100
0010
0001
,
0100
0010
1000
0100
1100
0000
0110
0000
,
0002
0000
0000
0010
0000
0000
0013
0000
2000
0000
0000
0100
0000
0000
3100
0000
,
0020
0000
0000
0001
0000
0000
0031
0000
1000
0000
0100
0010
0000
0100
0010
0000
,
0002
0000
0000
0010
0000
0000
0013
0000
2000
0000
0000
0100
0000
0000
3100
0000
,
0010
0000
0001
0000
0100
0000
0010
0000
1000
0000
0000
0100
0000
0000
0010
0000
,
0110
0000
0000
0100
0000
0000
0001
0000
0100
0000
0000
1000
0000
0000
0010
0000
,
1000
0000
0000
0001
0000
0000
0100
0000
0010
0000
1000
0010
0000
1000
0001
0000
,
0010
0000
0000
0001
0000
0000
0100
0000
1000
0000
0100
0000
0001
0000
0010
0000
,
0200
2300
0002
3003
,
0100
0000
0000
0010
0000
0000
1000
0000
1000
0000
1000
0000
,
0101
0000
0000
0010
0001
0010
0001
0000
0010
0000
1000
0000
,
0020
0000
0000
0031
0000
0000
0100
0000
0100
0000
0100
0000
,
0010
1000
0010
0100
0001
0000
2001
0000
,
3200
0000
0000
0310
0000
0000
0001
0000
0001
0000
0001
0000
,
1010
0000
0000
1000
0100
1000
0100
0000
0010
0000
0001
0000
,
0200
0000
0000
0310
0000
0000
1000
0000
1000
0000
1000
0000
,
0200
0000
0000
0000
0000
0000
0320
0000
0000
0000
0000
0000
0230
0000
0000
0000
0000
0000
2300
0000
0000
0000
0000
0000
3010
0000
0000
0000
0000
0000
0000
0000
0000
0100
0000
0000
0001
0000
0000
0000
1000
0000
0000
0000
0001
0000
0000
0000
,
0010
0000
0100
0000
1000
0000
0010
0000
0100
0000
0001
0000
,
0010
0000
0100
0000
0010
0000
0110
0000
0001
0000
0001
0000
,
1000
0000
0010
0000
0100
0000
0001
0000
0010
0000
0100
0000
,
1000
0010
0001
0010
1000
0000
0012
0000
,
1003
0000
0010
0000
0100
0000
1000
0000
0100
0000
0001
0000
,
1000
0000
0010
0000
0001
0000
1000
0000
0100
0000
0010
0000
,
0220
0000
0000
0000
0000
0000
0000
0000
0000
0330
0000
0000
0001
0000
0000
0000
1000
0000
0000
0000
0100
0000
0000
0000
,
0010
0000
0000
0001
0000
0000
0010
0000
0000
0001
0000
0000
1000
0000
0100
0000
0010
0000
0100
0000
0010
0000
0100
0000
,
1000
0001
0010
0001
1000
0100
0010
0000
,
0001
0000
0100
0000
0010
0000
0000
0000
0100
0000
0010
1000
0010
1000
0010
1000
,
0010
0100
0001
0010
0001
1000
0100
0010
,
0110
0000
0011
0000
0101
1000
0100
0000
,
1001
0000
0000
1000
0000
0000
1000
0000
0101
0000
0000
0001
0000
0000
0001
0000
,
1100
0000
0000
1000
0000
0000
0100
0000
0011
0000
0000
0001
0000
0000
0100
0000
,
1010
0000
0000
1000
0000
0000
0100
0000
0001
0000
0000
1001
0000
0000
0100
0000
,
1000
0000
0000
1001
0000
0000
0100
0000
0001
0000
0000
1001
0000
0000
0100
0000
,
0010
1000
0100
0010
0002
0000
0000
0000
,
0203
0001
0010
1300
,
0020
0000
0130
0001
0020
0000
0000
0000
,
0230
1000
0301
0010
,
0110
0000
0001
0100
1000
0010
0001
0000
,
0110
0000
1000
0100
0001
0010
1000
0000
,
0110
0000
0001
0100
0010
1000
0100
0000
,
0010
0001
0010
0001
1000
0100
1000
0000
,
0110
0000
0001
0010
1000
0100
0001
0000
,
0110
0000
1000
0010
0001
0100
1000
0000
,
0100
0000
0101
0000
0010
0001
1000
1100
,
0000
0110
1000
0001
1000
0001
0200
0000
,
0310
0000
0000
1000
0000
0000
0001
0000
0010
0100
0000
0100
0010
0000
0001
0000
,
1000
0010
0000
0010
1000
0000
0100
0000
0010
0000
0001
0000
0010
0000
0000
0000
,
0001
0000
0000
0100
0000
0000
1000
0000
0001
1000
0000
1000
0001
0000
0010
0000
,
0001
0100
0000
0001
1000
0000
0100
0000
0010
0000
0100
0000
1000
0000
0000
0000
,
0001
0000
0000
0010
0000
0000
0100
0000
0010
0001
0000
0001
0010
0000
0100
0000
,
1000
0010
0000
0010
1000
0000
0100
0000
0010
0000
0001
0000
0100
0000
0001
0000
,
0001
0000
1100
0000
0101
0000
0011
1000
,
0100
0010
0000
0100
0001
0000
0100
0000
0010
0000
0001
0000
1000
0000
0000
0000
,
0110
0000
0000
0000
;

//---------------dance-double - ----------------
#NOTES:
     dance-double:
     :
     Easy:
     7:
     0.250265,0.265083,0.145988,0.199773,0.000000,228.000000,209.000000,19.000000,26.000000,0.000000,0.000000,0.250265,0.265083,0.145988,0.199773,0.000000,228.000000,209.000000,19.000000,26.000000,0.000000,0.000000:
00000000
00000000
00000000
00000000
,
00000000
00000000
00000000
00000000
,
00000000
00000000
00000000
00000000
,
00000000
00000000
00000000
00000000
,
00000000
00000000
00000000
00000000
,
00001000
00000100
00001000
00000100
,
00010000
00001000
00020000
00030000
,
00001000
00100000
00010000
00100000
,
00010000
01000000
00100000
10000000
,
10010000
00000000
00001000
00001000
,
00011000
00000000
00000010
00000100
,
00000001
00000001
00001000
00001000
,
00000100
00010000
00001000
01000000
,
00010000
00010000
10000000
10000000
,
01000000
00010000
00001000
00010000
,
00000100
00000100
00001000
00001000
,
00000010
00000100
00000001
00000001
,
00000200
00000300
00002000
00003000
,
00020000
00030000
02000000
03000000
,
20000000
30000000
00200000
00300000
,
01000000
00010000
00100000
00001000
,
00010000
00010000
00001000
00000000
,
00000100
00000100
00000001
00000000
,
00000010
00000010
00000100
00000100
,
00002000
00003100
00011000
00000000
,
02000000
03000000
00020000
00030000
,
00100000
00100000
01100000
00000000
,
20000000
30000000
00020000
00030000
,
01000000
00001000
00010000
00001000
,
00020000
00030000
00000020
00000030
,
00001000
00001000
00001001
00000000
,
00000200
00000300
00000020
00000030
,
00002000
00003200
00020300
00031000
,
00010000
00000000
10010000
00000000
,
00001000
00000000
00001001
00000000
,
00000010
00000000
00000110
00000000
,
00010000
00000000
00001000
00010000
00001000
00000000
00200000
00000000
,
00310000
00000000
01100000
00000000
,
10000000
00000000
01100000
00000000
,
00002000
00000000
00013000
00000000
,
00000100
00000000
00001000
00000010
00001000
00000000
00000010
00000000
,
00000100
00000001
00001000
00000000
,
00000100
00010000
00001000
00000000
,
00010000
00100000
10000000
01000000
,
00010000
00001000
00000100
00000000
,
00000001
00000000
00000000
00001000
00000010
00000000
00000000
00000100
,
00010000
00000000
00000000
00100000
00001000
00000000
00000000
00010000
,
01000000
00000000
00000000
10000000
01000000
00000000
00000000
00010000
,
00100000
00000000
00000000
01000000
00001000
00000000
00010000
00000000
,
00001000
00000100
00000110
00000000
,
00000002
00000000
00000023
00000000
,
00002030
00000000
00013000
00000000
,
00022000
00000000
00033000
00000000
,
10010000
01000000
00010000
00001000
,
00011000
00000010
00000001
00000000
,
00000100
00000010
00001000
00000100
,
00010000
00001000
00011000
00000000
,
00100000
00100000
00010000
10000000
,
01000000
00100000
00010000
01000000
,
00001000
00001000
00010000
00000100
,
00001000
00000010
00000100
00000001
,
00000010
00000100
00001000
00000010
,
00010000
00001000
00011000
00000000
,
00010000
01000000
00100000
10000000
,
00100000
01000000
01100000
00000000
,
00010000
00100000
00001000
00010000
,
00001000
00000100
00000110
00000000
,
00000001
00000100
00001000
00010000
,
01000000
10000000
00010000
01000000
,
01100000
00000000
00000000
00000000
,
00000000
00000000
00000000
00000000
;

//---------------dance-double - ----------------
#NOTES:
     dance-double:
     :
     Medium:
     10:
     0.368811,0.397624,0.215140,0.261241,0.153671,336.000000,308.000000,28.000000,34.000000,0.000000,0.000000,0.368811,0.397624,0.215140,0.261241,0.153671,336.000000,308.000000,28.000000,34.000000,0.000000,0.000000:
00000000
00000000
00000000
00000000
,
00000000
00000000
00000000
00000000
,
00000000
00000000
00000000
00000000
,
00000000
00000000
00000000
00000000
,
00000000
00000000
00000000
00000000
,
00000001
00000000
00001000
00000000
00000010
00000100
00000010
00000000
,
00001000
00000000
00000100
00010000
00000100
00000000
00000000
00000000
,
00010000
01000000
10000000
01000000
,
00100000
00010000
01000000
00001000
00010000
00000000
00010100
00000000
,
00002002
00000000
00003003
00000000
00000100
00000010
00000100
00000000
,
00020200
00000000
00030300
00000000
00001000
00100000
00001000
00000000
,
01000000
01000000
00010000
00010000
,
20000000
31000000
00020000
00031000
,
00010000
00000000
00000100
00000000
00001000
00000010
00000100
00000000
,
00000001
00000000
00001000
00000000
00000010
00001000
00000100
00000000
,
00010000
00010000
00001000
00001000
,
00100000
00010000
10000000
00000000
01000000
00100000
00010000
00000000
,
20000000
00000000
00000000
31000000
00000000
00000000
01000000
00000000
00200000
00000000
00000000
00310000
00000000
00000000
00010000
00000000
,
02000000
00000000
00000000
03001000
00000000
00000000
00001000
00000000
00020000
00000000
00000000
00030010
00000000
00000000
00000010
00000000
,
00002000
00000000
00000000
00003100
00000000
00000000
00000100
00000000
00000020
00000000
00000000
00000031
00000000
00000000
00000001
00000000
,
00000100
00000000
00001000
00000000
00010000
01000000
10000000
00000000
,
00010000
00000000
00000000
00010000
00000000
00000000
00010000
00000000
00100000
00000000
00000000
00100000
00000000
00000000
00100000
00000000
,
00001000
00000000
00000000
00001000
00000000
00000000
00001000
00000000
00010000
00000000
00000000
00010000
00000000
00000000
00010000
00000000
,
00000100
00000000
00000000
00000100
00000000
00000000
00000100
00000000
00001000
00000000
00000000
00001000
00000000
00000000
00001000
00000000
,
00000002
00000013
00000110
00000000
,
00002000
00003100
00000200
00010300
,
00011000
00000000
00000000
00010000
00001000
00010000
00001000
00000000
00000000
00100000
00000000
00000000
,
00020000
10030000
02000000
03100000
,
00010000
00000000
10000000
01000000
00100000
00000000
02010000
00000000
,
03002000
00013000
00000020
00001030
,
00001100
00000000
00000000
00000001
00000010
00000001
00000010
00000000
00000000
00000001
00000000
00000000
,
00000200
00001300
00020000
00031000
,
00020000
00032000
00203000
00320000
20030000
30000000
10010000
00000000
,
10000000
00100000
00100000
00010000
00001000
00001000
,
00000010
00000001
00000001
00000100
00000000
00000000
,
00000001
00000100
00000100
00001000
00010000
00010000
,
00001000
00010000
00100000
01020000
,
10030000
00100000
00100000
01000000
00010000
00010000
,
00100000
00001000
00001000
00011000
00000000
00000000
,
00020100
00000000
00030010
00000001
,
00000100
00000010
00000100
00000000
00000010
00001000
00000100
00000000
,
00010000
00001000
00010000
00001000
,
00110000
10010000
00011000
00001010
,
00000001
00000000
00000100
00000000
00000010
00001000
00000100
00000000
,
00010000
00000000
00001000
00000000
00010000
00100000
10000000
00000000
,
01000000
00000000
00000000
01000000
00000000
00000000
00010000
00000000
00001000
00000000
00000000
00001000
00000000
00000000
00000100
00000000
,
00000001
00000000
00000000
00000001
00000000
00000000
00000100
00000000
00001000
00000000
00000000
00001000
00000000
00000000
00010000
00000000
,
00001000
00000000
00000000
00001000
00000000
00000000
00100000
00000000
00010000
00000000
00000000
00010000
00000000
00000000
01000000
00000000
,
00100000
00000000
00000000
00100000
00000000
00000000
10000000
00000000
00010000
00000000
00000000
00010000
00000000
00000000
00100000
00000000
,
00001000
00001000
00000200
00000000
,
00000302
00001000
00000010
00000103
,
00002000
00010000
01003000
00000000
,
02200000
00000000
03300000
10000000
,
01000000
00000000
00100000
00000000
00010000
00100000
00001000
00000000
,
00010000
00001000
00000100
00000001
,
00000010
00000000
00000001
00000000
00000010
00000100
00001000
00000000
,
00000100
00010000
00000100
00000000
00010000
00000000
00001000
00000000
,
01010000
00000000
00100000
00000000
10000000
01000000
00100000
00000000
,
00010000
10000000
00100000
00010000
,
00001000
00001010
00001001
00011000
,
00110000
00000000
10000000
00000000
00010000
00100000
01000000
00000000
,
10000000
10000000
01000000
01000000
,
00100000
00010000
00100000
00001000
00010000
00000000
00011000
00000000
,
00000010
00000010
00000100
00000100
,
00000001
00000010
00000001
00001000
00000100
00000000
00001100
00000000
,
00010000
00010000
00001000
00001000
,
00100000
00010000
00100000
01000000
10000000
00000000
00100000
00000000
,
01000000
01010000
00011000
00001100
,
00000011
00000000
00000100
00000000
00000001
00000010
00001000
00000000
,
00011000
00000000
00000000
00000000
,
00000000
00000000
00000000
00000000
;

//---------------dance-double - ----------------
#NOTES:
     dance-double:
     :
     Hard:
     12:
     0.453330,0.477149,0.161355,0.230507,0.315026,413.000000,392.000000,21.000000,30.000000,0.000000,0.000000,0.453330,0.477149,0.161355,0.230507,0.315026,413.000000,392.000000,21.000000,30.000000,0.000000,0.000000:
00000000
00000000
00000000
00000000
,
00000000
00000000
00000000
00000000
,
00000000
00000000
00000000
00000000
,
00000000
00000000
00000000
00000000
,
00000000
00000000
00000000
00000000
,
10000000
00000000
00000000
10000000
00000000
00000000
10000000
00000000
00010000
00000000
00000000
00010000
00000000
00000000
00010000
00000000
,
01000000
00000000
00000000
01000000
00000000
00000000
01000000
00000000
00001000
00000000
00000000
00000000
00001000
00000000
00000000
00000000
,
00010000
00001000
00000100
00000001
,
00000010
00000100
00000010
00000001
00000100
00001000
00010000
00001000
,
00022000
00000000
00033000
00100000
00010000
01000000
00100000
10000000
,
20000000
00000000
00000000
00000000
30000000
00000000
01000000
00000000
00010000
00000000
00001000
00010000
00000000
00000000
00001000
00000000
,
00000010
00000001
00000010
00001000
00010000
00100000
10000000
00010000
,
01000000
00000000
00001000
00000000
00010000
00000000
00000010
00000000
00001000
00000000
00000000
00000100
00000000
00000000
00000010
00000000
,
00000002
00000000
00000013
00000100
00001000
00000100
00010000
00000000
,
00001000
00000000
00010000
00000000
00001000
00000000
01000000
00000000
00010000
00000000
00100000
01000000
00000000
00000000
10000000
00000000
,
00100000
10000000
00010000
00100000
00010000
01000000
00001000
00010000
,
00001000
00000100
00000101
00000011
,
00000200
00000000
00000000
00001000
00000000
00000000
00001300
00000000
00020000
00000000
00000000
00001000
00000000
00000000
00031000
00000000
,
00200000
00000000
00000000
01000000
00000000
00000000
01300000
00000000
20000000
00000000
00000000
00100000
00000000
00000000
30100000
00000000
,
02000000
00000000
00000000
00010000
00000000
00000000
03010000
00000000
00200000
00000000
00000000
00001000
00000000
00000000
00301000
00000000
,
00010000
00000000
00001000
00000000
00000100
00000000
00000001
00000000
00000010
00000000
00000000
00000100
00000000
00000000
00001000
00000000
,
00000100
00000000
00000000
00001000
00000000
00000000
00010000
00000000
00100000
00000000
00000000
10000000
00000000
00000000
00100000
00000000
,
00010000
00000000
00000000
01000000
00000000
00000000
00100000
00000000
10000000
00000000
01000000
00010000
00000000
00001000
00010000
00000000
,
00001000
00000000
00000000
00000100
00000000
00000000
00000010
00000000
00001000
00000000
00000100
00000000
00000010
00000000
00000001
00000000
,
00000200
00002300
00020000
00033000
,
00010000
00000000
00000000
00100000
00000000
00000000
01000000
00000000
01000000
00000000
01000000
00000000
,
00010000
00000000
00000000
10000000
01000000
10000000
01000000
00000000
00100000
00000000
00010000
00000000
,
00200000
00000000
00000000
00301000
00000000
00000000
00010000
00000000
00010000
00000000
00010000
00000000
,
00001000
00000100
00000001
00000100
00001000
00000000
00020000
00000000
,
02030000
00000000
00000000
13000000
00000000
00000000
00010000
00000000
00010000
00000000
00010000
00000000
,
00100000
00000000
00000000
00001000
00010000
00001000
00010000
00000000
00000100
00000000
00001000
00000000
,
00000002
00000000
00000000
00000103
00000000
00000000
00001000
00000000
00001000
00000000
00001000
00000000
,
00000200
00000000
00000000
00000320
00000000
00000000
00020030
00000000
00000000
00032000
00000000
00000000
00013000
00000000
00000000
00000000
00000000
00000000
00010000
00000000
00001000
00000000
00010000
00000000
,
00001000
00100000
00010000
01000000
10000000
01000000
,
00010000
00100000
00001000
00011000
00000010
00000010
,
00001000
00000100
00000001
00000100
00001000
00000010
,
00010000
00001000
00010000
00100000
10000000
00000000
00120000
00000000
,
10030000
01000000
00010000
00001000
00000010
00001000
,
00000001
00000100
00001000
00000010
00010000
00001000
,
00022000
00000000
00000000
00000000
00000000
00000000
00000000
00000000
00000000
00033000
00000000
00000000
00010000
00000000
00000000
00000000
00001000
00000000
00000000
00000000
01000000
00000000
00000000
00000000
,
00010000
00000000
00000000
00100000
00000000
00000000
00010000
00000000
00000000
00100000
00000000
00000000
01000000
00000000
10000000
00000000
01000000
00000000
10000000
00000000
01000000
00000000
10000000
00000000
,
00100000
01000000
00010000
00100000
00001000
00010000
00001000
00000000
,
00010000
00000100
00001000
00000000
00000001
00000100
00000100
00000010
,
00000010
00001000
00000001
00000000
00000100
00001000
00010000
00000000
,
00011000
00000000
01000000
00000000
00011000
00000100
00000010
00000000
,
00000001
00000000
00000000
00000100
00000000
00000000
00000100
00000000
00000010
00000000
00000000
00001000
00000000
00000000
00001000
00000000
,
00000100
00000000
00000000
00010000
00000000
00000000
00001000
00000000
00100000
00000000
00000000
00010000
00000000
00000000
01000000
00000000
,
00100000
00000000
00000000
00100000
00000000
00000000
10000000
00000000
01000000
00000000
00000000
01100000
00000000
00000000
00010000
00000000
,
00100000
00000000
00000000
00011000
00000000
00000000
00010000
00000000
00000010
00000000
00000000
00001100
00000000
00000000
00000010
00000000
,
00000001
00000100
00001000
00010000
02000000
00000000
00000000
00000000
,
23000000
00010000
00100000
31000000
,
00020000
00000000
00031000
00010000
00000020
00000000
00000000
00000000
,
00002030
00000100
00003001
00000010
,
00000110
00000000
00000001
00000100
00001000
00000000
00010000
00000000
,
00011000
00000000
00010000
00100000
10000000
00000000
00010000
00000000
,
00110000
00000000
10000000
00100000
01000000
00010000
00100000
00000000
,
00001000
00010000
00001000
00010000
00000010
00001000
00000010
00000000
,
00001100
00000000
00000001
00000010
00001000
00000000
00010000
00000000
,
00011000
00000000
00010000
01000000
10000000
00000000
00100000
00000000
,
01000000
00000000
11000000
00000000
00010000
00100000
00001000
00010000
,
00000000
00001000
00000100
00000001
00000010
00000001
00002000
00000000
,
00003010
00000000
00000000
00000100
00000000
00000000
00000001
00000000
00000010
00000000
00000100
00000000
00001000
00000000
00000100
00000000
,
00010000
00001000
00000000
00001000
00010000
00000000
00001000
00000000
00100000
00000000
00010000
00000000
00100000
00000000
00000000
00000000
,
01000000
00000000
00000000
10000000
00000000
00000000
00100000
00000000
10000000
00000000
01000000
00000000
00100000
00000000
00010000
00000000
,
00100000
00001000
00000000
00010000
00001000
00000000
00010000
00000000
00000010
00000000
00001000
00000000
00000010
00000000
00000000
00000000
,
00000100
00000000
00000000
00000001
00000000
00000000
00001000
00000000
00000001
00000000
00000010
00000000
00001000
00000000
00010000
00000000
,
00100000
01000000
00000000
01000000
00100000
00000000
10000000
00000000
00010000
00000000
01000000
00000000
00100000
00000000
00000000
00000000
,
01000000
00011000
00001100
00000011
,
00001000
00000100
00000000
00010000
00001000
00000000
00100000
00000000
00001000
00000000
00010000
00000000
00100000
00000000
00000000
00000000
,
10100000
00000000
00000000
00000000
,
00000000
00000000
00000000
00000000
;

//---------------dance-single - ----------------
#NOTES:
     dance-single:
     :
     Challenge:
     14:
     0.672860,0.726097,0.376494,0.268925,0.799090,613.000000,564.000000,49.000000,35.000000,4.000000,0.000000,0.672860,0.726097,0.376494,0.268925,0.799090,613.000000,564.000000,49.000000,35.000000,4.000000,0.000000:
// measure 0
0000
0000
0000
0000
,  // measure 1
0000
0000
0000
0000
,  // measure 2
0000
0000
0000
0000
,  // measure 3
0000
0000
0000
0000
,  // measure 4
0000
0000
0000
0000
,  // measure 5
1000
0000
0000
0100
0000
0000
0001
0000
0100
0000
0000
1000
0000
0000
0001
0000
,  // measure 6
0100
0000
0000
1000
0000
0000
0100
0000
0001
0000
1000
0000
0001
0000
0000
0000
,  // measure 7
1000
0001
1000
0000
0010
0100
0000
0010
0000
0100
0010
0000
1000
0010
0000
1000
,  // measure 8
0001
1000
0001
1000
0001
0000
0010
0000
0100
0000
1000
0100
0000
0010
0001
0000
,  // measure 9
0201
0000
0000
0010
0000
0000
1000
0000
0010
0000
0000
0001
0000
0000
0010
0000
,  // measure 10
2300
0000
0000
0100
0000
0000
3001
0000
MMMM
0000
0000
0021
0000
0000
0001
0000
,  // measure 11
2030
0000
0000
0010
0000
0000
0001
0000
3200
0000
0000
1000
0000
0000
0010
0000
,  // measure 12
0302
0000
0000
0010
0000
0000
1000
0000
0203
0000
0000
1000
0000
0000
0010
0300
,  // measure 13
2000
0000
0000
0100
0000
0000
0010
0000
0100
0000
0000
0001
0000
0000
0100
0000
,  // measure 14
3020
0000
0000
0001
0000
0000
1000
0000
0032
0000
0000
0100
0000
0000
1000
0000
,  // measure 15
0023
0000
0000
0100
0000
0000
0001
0000
2030
0000
0000
0001
0000
0000
0100
0000
,  // measure 16
3020
0000
0230
0000
,  // measure 17
0310
0010
0000
0000
0100
0100
0000
0000
0001
0100
1000
0100
0001
0000
1000
0100
,  // measure 18
0001
0000
0100
0000
1000
0000
0001
0100
0010
0000
0001
0000
0010
0000
0100
0001
,  // measure 19
0100
1000
0100
0010
1000
0100
0001
0100
,  // measure 20
0010
0001
0010
0001
0010
0001
0010
0001
1000
0000
0100
0000
0001
0000
0100
0000
,  // measure 21
0010
0001
0000
0001
1000
0000
0001
0000
1000
0100
0000
0001
0100
0000
1000
0000
,  // measure 22
0010
0001
0000
0010
1000
0000
0100
0000
0001
0100
0000
0010
0001
0000
1000
0001
,  // measure 23
1000
0000
0010
0000
0010
0000
0001
1000
0001
0000
0100
0000
0100
0000
1000
0000
,  // measure 24
0001
0000
0100
0000
1000
0000
0010
0000
0001
0000
0100
0000
1000
0000
0100
0010
,  // measure 25
0002
0000
0000
0000
0000
0000
0010
0000
0000
0003
0000
0000
0101
0000
0000
0000
1100
0000
0000
0000
0101
0000
0000
0000
,  // measure 26
0001
0010
0100
1000
0100
0010
0001
0000
1001
0000
1100
0000
,  // measure 27
2020
0000
0000
0000
0000
0000
0000
0000
0000
3030
0000
0000
1100
0000
0000
0000
0101
0000
0000
0000
1100
0000
0000
0000
,  // measure 28
1000
1000
0100
0100
0002
0000
0203
0000
,  // measure 29
1300
0000
1010
0000
0011
0000
0101
0000
1100
0000
1001
0000
,  // measure 30
0101
0000
0000
0100
1000
0100
0001
0000
1001
0000
1100
0000
,  // measure 31
0220
0000
0000
0000
0000
0000
0000
0000
0000
0330
0000
0000
0011
0000
0000
0000
0101
0000
0000
0000
1001
0000
0000
0000
,  // measure 32
1000
0000
0000
0000
0000
0000
0100
0000
0000
0000
0000
0000
0010
0000
0000
0000
0000
0000
0001
0000
0000
0000
0000
0000
0100
0000
0000
0000
0000
0000
0000
0000
0000
0100
0000
0000
0010
0000
0000
0000
1000
0000
0000
0000
0001
0000
0000
0000
,  // measure 33
1000
0000
0100
0000
0010
0000
0011
0000
1001
0000
1010
0000
,  // measure 34
0210
0000
0310
0100
0001
0100
1000
0000
1100
0000
0101
0000
,  // measure 35
0022
0000
0000
0000
0000
0000
0000
0000
0000
0033
0000
0000
1001
0000
0000
0000
1100
0000
0000
0000
1100
0000
0000
0000
,  // measure 36
1000
0010
0010
0001
0020
0000
0230
0000
,  // measure 37
0301
0000
0100
0000
1000
0000
1100
0000
0110
0000
1010
0000
,  // measure 38
2200
0000
0000
0000
0000
0000
0000
0000
0000
3300
0000
0000
0001
0000
0000
0000
0010
0000
0000
0000
0100
0000
0000
0000
1000
0000
0000
0000
0000
0000
0000
0000
1001
0000
0000
0000
0000
0000
0000
0000
0101
0000
0000
0000
0000
0000
0000
0000
,  // measure 39
0220
0000
0000
0000
0000
0000
0000
0000
0000
0330
0000
0000
1010
0000
0000
0000
1001
0000
0000
0000
0101
0000
0000
0000
,  // measure 40
0110
0000
0000
0010
0000
0000
0110
0000
0000
0100
0000
0000
0001
0000
0010
0000
0100
0000
1000
0000
0100
0000
0010
0000
,  // measure 41
0001
0000
0100
0001
0100
0001
0100
0001
1000
0000
0100
0001
0100
0000
1000
0000
,  // measure 42
0001
0000
0010
1000
0000
1000
0010
0000
0100
0000
0001
0100
1000
0100
0010
0001
,  // measure 43
0100
0000
1000
0100
0000
0100
0010
0001
0010
0100
0010
0001
0010
0100
0010
0001
,  // measure 44
0010
0000
0000
0000
1010
0000
0000
0000
0011
0000
0000
0000
1000
0000
0001
0100
,  // measure 45
1000
0000
0100
0000
0001
0000
1000
0000
0100
0000
0001
0000
0100
0000
1000
0100
,  // measure 46
0001
0100
0010
0000
0001
0000
0010
0000
0100
0000
1000
0000
0001
0000
0100
0000
,  // measure 47
0001
0000
0010
1000
0010
0000
0001
0100
1000
0000
0100
0000
0001
0000
1000
0010
,  // measure 48
0001
0010
0100
0000
0010
0001
0010
0000
0100
0001
0100
0010
1000
0000
0100
0001
,  // measure 49
0100
0000
0000
0000
1100
0000
0000
0001
0000
0100
0000
0001
0010
0000
1000
0010
,  // measure 50
0001
0000
0100
1000
0100
0000
0001
0010
1000
0000
0010
0000
0001
0000
1000
0000
,  // measure 51
0100
0000
1000
0100
0010
0001
1000
0001
0010
0100
1000
0001
0020
0000
0001
0000
,  // measure 52
1030
0100
0010
0001
0100
0000
0010
0000
0100
0000
0001
0010
0100
1000
0010
0000
,  // measure 53
0100
0000
0001
1000
0000
1000
0010
0000
0010
0100
0000
0100
0001
0000
0001
0000
,  // measure 54
1000
0001
0000
0001
0100
0000
0010
0000
1000
0010
1000
0010
1000
0010
1000
0000
,  // measure 55
0001
1000
0010
0000
1000
0100
0000
0001
0100
0000
1000
0010
0000
0001
0010
0000
,  // measure 56
1000
0100
0010
0001
0100
0000
0100
0000
0010
0000
1000
0000
0001
0000
1000
0000
,  // measure 57
0010
0100
0000
0001
0100
0000
0010
0000
1000
0001
0000
0100
0001
0000
0010
0000
,  // measure 58
0100
0010
0000
0001
0010
0000
0001
0000
1000
0100
0000
0010
0100
0000
1000
0000
,  // measure 59
0001
0100
0000
0010
0100
0000
0001
0000
1000
0010
0000
0100
0010
0000
1000
0000
,  // measure 60
0001
0100
0001
0100
0010
1000
0010
1000
0001
1000
0001
1000
0010
0100
0010
0100
,  // measure 61
0001
0000
0001
0010
0000
0010
1000
0000
1000
0010
0000
0010
0001
0000
1000
0000
,  // measure 62
0001
0100
0000
0100
1000
0000
0100
0000
0001
1000
0001
1000
0010
1000
0010
0000
,  // measure 63
1000
0100
0010
0000
0100
0010
0001
0010
0000
0010
0100
0000
0100
1000
0100
0010
,  // measure 64
0001
1000
0100
1000
0010
0000
0010
0000
0020
0000
0000
0000
2030
0000
0000
0000
,  // measure 65
3001
0000
0001
0100
0000
0100
0010
0000
0010
1000
0000
1000
0001
0000
1000
0000
,  // measure 66
0001
0000
0010
0001
0000
0001
0100
0000
1000
0100
0001
0000
0001
1000
0001
0000
,  // measure 67
1000
0100
0001
0000
0001
0100
1000
0000
0010
1000
0100
0000
0010
0001
0100
0000
,  // measure 68
0001
0010
0100
1000
0001
0000
0100
0000
1000
0000
0100
0010
0000
1000
0010
0000
,  // measure 69
0022
0000
0000
0000
,  // measure 70
0033
0000
0000
0000
;
