#TITLE:Last Twilight;
#SUBTITLE:;
#ARTIST:cosMo@暴走P;
#TITLETRANSLIT:;
#SUBTITLETRANSLIT:;
#ARTISTTRANSLIT:cosMo@BousouP;
#GENRE:;
#CREDIT:;
#BANNER:Last Twilight.png;
#BACKGROUND:Last Twilight-bg.png;
#LYRICSPATH:;
#CDTITLE:;
#MUSIC:Last Twilight.ogg;
#OFFSET:0.000000;
#SAMPLESTART:96.970001;
#SAMPLELENGTH:15.000000;
#SELECTABLE:YES;
#BPMS:0.000000=198.000000
;
#STOPS:254.000000=0.303000
;
#BGCHANGES:;
#KEYSOUNDS:;
#ATTACKS:;

//---------------dance-single - ----------------
#NOTES:
     dance-single:
     :
     Beginner:
     4:
     0.191169,0.320523,0.088144,0.184301,0.000000,167.000000,156.000000,11.000000,23.000000,0.000000,0.000000,0.191169,0.320523,0.088144,0.184301,0.000000,167.000000,156.000000,11.000000,23.000000,0.000000,0.000000:
0000
0000
0000
0000
,
0000
0000
0000
0000
,
0000
0000
0000
0000
,
0000
0000
0000
0000
,
0100
0000
1000
0000
,
0100
0000
1000
0000
,
0001
0000
0100
0000
,
0001
0000
0100
0000
,
0010
0010
0010
0000
,
0100
0100
0100
0000
,
0001
0000
1000
0000
,
0010
0000
1000
0000
,
0002
0000
0000
0003
,
0200
0000
0000
0300
,
0020
0000
0000
0030
,
2000
0000
0000
3000
,
1001
0000
0000
0000
,
0100
0000
0010
0000
,
1000
1000
1000
0000
,
0001
0001
0001
0000
,
0100
0000
0010
0000
,
0100
0000
0001
0000
,
1000
0000
0100
0000
,
1000
0000
0010
0000
,
0100
0000
0001
0000
,
0010
0000
0001
0000
,
1000
0000
0100
0000
,
0020
0000
0000
0030
,
0100
0000
1000
0000
,
0001
0000
0100
0000
,
0001
0000
0010
0000
,
0100
0000
0010
0000
,
0100
0000
1000
0000
,
0010
0000
0100
0000
,
0001
0000
1000
0000
,
1001
0000
0000
0000
,
0200
0000
0000
0300
,
0010
0000
0000
0000
,
2000
0000
0000
3000
,
0001
0000
0000
0000
,
0020
0000
0000
0030
,
0100
0000
0000
0000
,
0110
0000
0000
0000
,
1001
0000
0000
0000
,
0010
0000
1000
0000
,
0010
0000
1000
0000
,
1001
0000
0000
0000
,
0100
0000
0001
0000
,
0010
0000
0001
0000
,
0100
0000
0001
0000
,
0010
0000
0100
0000
,
1000
0000
0100
0000
,
1000
0000
1000
0000
,
0001
0000
0001
0000
,
0100
0000
0010
0000
,
0110
0000
0000
0000
,
0100
0000
0100
0000
,
0001
0000
0001
0000
,
0010
0010
0010
0000
,
0100
0100
0100
0000
,
0220
0000
0000
0000
,
0330
0000
1000
0000
,
0002
0000
0000
0000
,
0000
0000
0003
0200
,
0000
0300
0000
0020
,
0000
0030
0000
2000
,
0000
3000
0000
0002
,
0000
0000
0003
1000
,
0000
0000
0000
0010
,
0000
0000
0000
2000
,
0000
3000
0000
0200
,
0000
0300
0000
0020
,
0000
0030
0000
0002
,
0000
0003
0000
1000
,
0000
0100
0000
0010
,
0000
0001
0000
0100
,
0000
0100
0000
0010
,
0000
0010
0000
1000
,
1000
1000
0000
0100
,
0100
0100
0000
0010
,
0000
0001
0000
0010
,
0000
0001
0000
1000
,
0000
0100
0000
1000
,
0000
0100
0000
0110
,
0000
0000
0000
1001
,
0000
0000
0000
0010
,
0000
1000
0000
0010
,
0000
0100
0000
0001
,
0000
0100
0000
0001
,
0000
1000
0000
1001
,
0000
0000
0000
0110
,
0000
0000
0000
0010
,
0000
1000
0000
0010
,
0000
0100
0000
0020
,
0000
0000
0000
0000
,
0000
0000
0030
0002
,
0000
0000
0000
0000
,
0000
0000
0003
2000
,
0000
0000
3000
0200
,
0000
0000
0000
0000
,
0300
0000
0000
0000
;

//---------------dance-single - ----------------
#NOTES:
     dance-single:
     :
     Easy:
     8:
     0.398364,0.600981,0.296484,0.264432,0.000000,348.000000,311.000000,37.000000,33.000000,0.000000,0.000000,0.398364,0.600981,0.296484,0.264432,0.000000,348.000000,311.000000,37.000000,33.000000,0.000000,0.000000:
0000
0000
0000
0000
,
0000
0000
0000
0000
,
0000
0000
0000
0000
,
0000
0000
0000
0000
,
0010
1000
0010
1000
,
0001
0100
0010
0000
,
1000
0100
1000
0100
,
0010
0001
0100
0010
,
1000
0001
0100
0010
,
1000
1000
0001
0001
,
0100
0010
0100
0001
,
1000
0010
1000
0100
,
0020
0000
0001
0031
,
0002
0000
1000
1003
,
2000
0000
0100
3100
,
0200
0000
0010
0310
,
0110
0000
1001
0000
,
0100
1000
0100
0000
,
0010
0001
0010
0001
,
1000
0100
1000
0100
,
1000
0100
0001
0100
,
1000
0010
1000
0001
,
0010
0001
0100
0001
,
0010
0100
1000
0010
,
1000
0001
0100
0001
,
1000
0010
0100
0001
,
0010
0100
1000
0001
,
0200
0310
2000
3001
,
0010
0001
0010
0100
,
0110
0001
1001
0100
,
0010
0100
0010
1000
,
1001
0100
0110
0001
,
0100
0010
0110
0110
,
1001
0010
1001
0100
,
0010
1000
1001
0110
,
0002
0103
2000
3010
,
0120
0000
0100
0030
,
0001
0000
1000
0100
,
0210
0000
0010
0300
,
1000
0000
0001
1000
,
1002
0000
1000
0003
,
0010
0000
0100
0010
,
0220
0330
2002
3003
,
1000
0001
1001
0000
,
0100
1000
0001
0100
,
0010
0010
0100
0100
,
0110
0000
1001
0000
,
1000
0010
1000
0010
,
0100
0001
1000
0010
,
0100
0100
0001
0001
,
1000
0100
0010
0010
,
0001
1000
0100
0010
,
0110
0000
1001
0000
,
0010
0100
0010
1000
,
0001
0001
1000
1000
,
1001
0000
0110
0000
,
0001
0001
1000
1000
,
0010
0100
0010
0100
,
0001
0100
0001
0000
1000
0100
1000
0000
,
0010
0100
0010
0100
0010
0100
0010
0000
,
0220
0000
0000
0000
,
0330
0000
1000
0001
,
0200
0000
0000
0300
,
0020
0000
0030
2000
,
0000
3100
0000
0002
,
0000
0103
0000
0020
,
0000
1030
0000
0200
,
0300
0020
0030
0110
,
0000
0001
0000
1001
,
0000
1000
0000
0200
,
0000
0310
0000
0020
,
0000
0130
0000
0002
,
0000
0103
0000
0200
,
0000
0310
0000
1001
,
0000
0110
0000
0010
,
1000
0000
0010
0000
0000
0000
0100
0100
,
0000
0001
0001
0000
1000
1000
0000
0010
,
0010
1000
0100
0010
,
0001
0010
0001
0100
,
0010
1000
0001
1000
,
0100
0001
0100
1000
,
1000
0010
0010
0100
,
0001
1000
1000
0010
,
0100
0001
0001
1001
,
0000
0110
0000
0010
,
0100
0001
0000
0100
,
0010
1000
0001
0100
,
0010
0110
0000
1000
,
0001
0100
0001
0010
,
0100
0010
0001
1001
,
0100
1001
0010
0110
,
0001
0110
1000
0001
,
0100
1000
0100
0001
,
1000
0010
1000
1002
,
0000
0100
0000
1000
,
0000
0010
0003
0200
,
0000
0000
0000
0000
,
0000
0000
0300
0020
,
0000
0000
0030
2000
,
3000
0002
0000
0000
,
0003
0000
0000
0000
;

//---------------dance-single - ----------------
#NOTES:
     dance-single:
     :
     Medium:
     12:
     0.619296,0.761242,0.360588,0.280458,0.072118,541.000000,496.000000,45.000000,35.000000,0.000000,0.000000,0.619296,0.761242,0.360588,0.280458,0.072118,541.000000,496.000000,45.000000,35.000000,0.000000,0.000000:
0000
0000
0000
0000
,
0000
0000
0000
0000
,
0000
0000
0000
0000
,
0000
0000
0000
0000
,
0001
0000
0010
0000
0001
0010
0000
0100
,
0000
1000
0010
0000
0100
0001
0100
0001
,
0100
0000
0010
0000
0100
0010
0000
1000
,
0000
0001
0010
0000
0100
1000
0100
0000
,
0010
0001
0010
0001
0100
0001
0100
0001
,
1000
0010
1000
0010
0100
0010
0100
0000
,
0001
0000
0001
0010
0000
0010
0100
0000
0100
1000
0000
0000
,
0010
0000
0010
0100
0000
0100
0001
0000
0001
1000
0000
0000
,
0200
1300
0010
0100
,
0002
0013
0100
1000
,
0020
0130
0001
0010
,
0200
1300
0020
0130
,
1100
1001
0010
0010
,
0011
1001
0100
0100
,
1000
0010
1000
0010
0100
0001
0100
0001
,
0010
0001
0010
0001
1000
0100
1000
0000
,
0010
0100
0010
0000
0100
0001
0100
0000
,
0001
1000
0001
0010
0100
1000
0100
0000
,
1000
0010
1000
0000
0010
0100
0010
0000
,
0100
0001
0100
0010
1000
0100
0010
0000
,
0001
0100
0001
0000
1000
0010
1000
0000
,
0001
0100
1000
0100
0001
0100
1000
0000
,
0100
0001
0100
0000
0010
1000
0010
0000
,
0200
0300
0001
0200
0300
1000
0100
0000
,
0010
0100
0010
0000
1000
0001
1000
0000
,
0101
0000
0010
1000
0010
1000
0100
0000
,
0010
0001
0010
0000
0100
1000
0100
0000
,
1010
0000
0100
0001
0100
0001
0010
0000
,
0100
0010
0100
0000
0010
0001
0010
0000
,
1001
0000
0010
0100
0010
0100
0001
0000
,
1000
0100
1000
0000
0010
0100
0010
0000
,
2000
3000
0010
2000
3000
0100
0010
0000
,
0012
0000
0000
0010
0000
0000
1003
0000
,
0000
1000
0000
0000
0010
0000
0100
0000
,
0210
0000
0000
0010
0000
0000
0301
0000
,
0000
0001
0000
0000
1000
0000
0100
0000
,
0210
0000
0000
0010
0000
0000
1300
0000
,
0000
1000
0000
0000
0001
0000
0010
0000
,
2002
3003
0220
0330
,
0001
0000
0000
0001
0000
0000
0001
0000
1000
0000
0000
0000
1001
0000
0000
0000
,
0001
0100
0010
1000
0001
0100
0001
0000
,
1000
0000
0100
0010
0000
0100
1000
0100
,
0010
0000
0000
0001
0000
0000
0010
0000
0000
0000
0001
0000
0100
0000
0001
0000
,
0100
0010
1000
0001
0100
0010
1000
0000
,
1001
0000
0101
0000
0000
0010
1000
0010
,
0100
0001
0100
0000
0001
0010
0001
0000
,
1000
0100
0001
0100
1000
0000
1010
0000
,
0100
0010
0100
0000
0001
0100
0001
0000
,
0010
0000
0000
0100
0000
0000
1000
0000
0000
0000
0010
0000
1000
0000
0100
0000
,
0010
0000
0000
0000
0011
0000
0000
0000
0100
0000
0000
1000
0000
0000
0001
0000
,
0100
0001
0010
0000
0100
1000
0010
0000
,
0101
0000
0000
0101
0000
0000
0101
0000
0000
1100
0000
0000
0010
0000
0100
0000
,
0001
0010
0100
1000
0100
0010
0001
0010
,
0001
0100
1000
0000
1000
0100
0001
0100
,
1000
0100
1000
0100
0010
0100
0010
0100
,
0001
0100
0001
0100
0001
1000
0001
0000
,
2002
0000
0000
0000
,
3003
0000
0100
0010
,
0220
0000
0000
0330
,
2002
0000
3003
0002
,
0000
0103
0000
2000
,
0010
3010
0000
0200
,
0000
0301
0000
0020
,
0130
2000
3001
1001
,
0100
0010
1000
0100
,
0110
0001
1001
0200
,
0010
0310
1000
0200
,
0300
0010
0000
0001
0100
0000
0012
0000
,
0000
1003
0000
0020
,
0100
0100
0030
0101
,
1001
0000
0000
0010
0000
1000
0000
0100
0000
0010
0000
0000
,
0001
0000
0011
0000
1100
0000
0001
0001
,
0100
1000
1000
0100
0001
0001
0010
1000
,
1000
0010
0001
0001
1000
0000
0100
1000
,
0100
1000
0001
0010
0001
0010
0100
1000
,
0001
0010
0100
1000
0010
0000
0100
0001
,
1000
0000
0100
0010
0001
0000
0100
0010
,
1000
0001
0000
0010
0100
0000
1100
0000
,
1000
0010
0000
0110
0000
0101
0000
1001
,
0000
1100
0000
0010
0001
0000
0101
1000
,
0100
0000
1010
0001
0010
0000
0100
1000
,
0010
1000
0100
0000
0110
0000
0011
0000
,
0001
0100
1000
0100
0001
0001
0000
0010
,
0100
1000
0010
0000
1010
0000
0100
0001
,
0010
0000
0100
1000
0010
0000
0100
0001
,
0100
0000
0000
0001
0000
0000
0000
0000
0000
1000
0000
0000
0100
0000
0000
0000
0000
0000
0010
0000
0000
0000
0010
0000
,
0001
0000
0000
0001
0000
0001
0100
0000
0000
0100
0000
0100
,
1000
0000
0000
0000
0000
0000
1000
0000
0000
0000
1000
0000
0010
0000
0000
0000
0000
0000
1000
0000
0000
0100
0000
0000
,
0001
0000
0001
0100
1000
0000
0010
1000
,
0010
1000
0001
0000
0101
0000
0210
0000
,
0310
1000
0001
0100
0010
1000
0100
0010
,
0001
1000
0010
0000
0110
0000
2000
0000
,
0000
0010
0000
0001
,
0000
0100
3000
0002
,
0100
0100
1003
0010
,
0100
0000
0001
1000
0200
0000
0000
0000
,
0300
0000
0000
0000
;

//---------------dance-single - ----------------
#NOTES:
     dance-single:
     :
     Hard:
     16:
     0.829926,1.001635,0.600981,0.280458,0.372608,725.000000,650.000000,75.000000,35.000000,0.000000,0.000000,0.829926,1.001635,0.600981,0.280458,0.372608,725.000000,650.000000,75.000000,35.000000,0.000000,0.000000:
0000
0000
0000
0000
,
0000
0000
0000
0000
,
0000
0000
0000
0000
,
0000
0000
0000
0000
,
1000
0100
0010
0100
1000
0010
0000
0100
,
0000
0000
0001
0000
0001
0000
0000
0000
0010
0100
0010
0000
0100
1000
0100
0000
,
0010
0001
0100
0001
0010
0100
0000
1000
,
0000
0100
0100
0010
0001
1000
0100
1000
,
0001
0010
0001
0000
1000
0100
1000
0000
0010
1000
0010
0000
0100
0001
0100
0000
,
0010
0100
0010
0000
1000
0100
1000
0000
0001
0100
0001
0100
0001
0000
0100
0000
,
0001
0000
0010
0100
0000
1000
0100
1000
0100
1000
0000
0010
,
0100
0000
0001
0100
0000
0010
1000
0010
1000
0001
0100
0001
,
0200
0310
1000
0001
,
0021
0000
0130
1000
0100
0000
0010
0000
,
1002
0103
0010
1000
,
1200
0000
0310
0001
0012
0000
0103
0000
,
1010
0000
0000
0110
0000
0000
0001
0100
0001
0100
0000
0000
,
1100
0000
0000
1001
0000
0000
0010
0100
0010
0100
0000
0000
,
0001
0100
1000
0100
0001
0100
1000
0100
,
0010
0000
1000
0000
0001
0000
1000
0000
0001
0010
0001
0010
0001
0000
0000
0000
,
1000
0100
0001
1000
0010
0001
1000
0000
,
0010
0000
0100
0001
0100
0000
0010
0000
1000
0000
0100
0000
0010
0001
0010
0000
,
0100
1000
0001
0010
1000
0001
0100
0000
,
0010
0000
0100
1000
0100
0000
0010
0000
0001
0000
1000
0000
0010
0100
0010
0000
,
1000
0100
0001
0100
1000
0010
0100
0001
,
1000
0000
0100
1000
0100
0000
0010
0000
0100
0000
1000
0000
0001
0100
0001
0000
,
1000
0100
0010
0100
1000
0010
0100
0001
,
0020
0000
0130
1000
0100
0000
0020
0000
0031
0100
0001
0000
1000
0000
0100
0000
,
0010
0001
0010
1000
0010
0001
0100
0000
,
1010
0000
1000
0010
1000
0000
0001
0000
0010
0000
0100
0000
1000
0100
1000
0000
,
0001
0010
0100
1000
0010
0100
0001
0000
,
0110
0000
0010
0100
0010
0000
1000
0000
0001
0000
0100
0000
0001
0100
0001
0000
,
0010
0100
1000
0100
1000
0010
1000
0100
,
0010
0000
0001
0010
0100
0000
0010
0000
0100
0000
1000
0000
0010
1000
0001
0000
,
0100
0010
1000
0010
0100
0010
1000
0001
,
0200
0000
0310
1000
0010
0000
0200
0000
0301
0010
0001
0000
1000
0000
0100
0000
,
0010
0002
0000
1000
0000
0000
0103
0000
,
0000
0010
0000
0000
1010
0000
1001
0000
,
0100
2000
0000
0001
0000
0000
3010
0000
,
0000
0100
0000
0000
1001
0000
0011
0000
,
0100
0020
0000
1000
0000
0000
0031
0000
,
0000
0100
0000
0000
1001
0000
1010
0000
,
0220
0330
2002
3003
,
1000
0000
0000
1010
0000
0000
0101
0000
0011
0000
0000
0000
1000
0100
1000
0000
,
0010
0000
0100
0000
0001
0100
0001
0000
1000
0000
0100
0000
0010
0100
0010
0000
,
0001
0000
1010
1010
0000
0001
0100
0101
,
0010
0000
0000
1010
0000
0000
0101
0000
0000
0000
1000
0000
0100
0000
1000
0000
,
0001
0000
0100
0010
0100
0000
0001
0100
0001
0000
1000
0000
0100
0000
0010
0000
,
0100
0000
0000
0000
0001
0010
0001
0000
0000
0000
0100
0000
0001
0000
0100
0000
,
0010
0000
1000
0000
0010
0000
1000
0000
0001
0000
0100
0000
0001
0010
0100
0000
,
1000
0000
0010
0100
0001
0000
1000
0000
1010
0000
1010
0000
0000
0000
0001
0000
,
1000
0100
0010
0000
0100
0000
1000
0000
0001
0000
0100
0000
1000
0000
0100
0000
,
0101
0000
0000
1100
0000
0000
1010
0000
0000
0000
0001
0000
0100
0000
0001
0000
,
1000
0000
0000
0000
1010
0000
0000
0000
0101
0000
0000
1100
0000
0000
1001
0000
,
1000
0100
0001
0100
1000
0001
0010
0100
,
1100
0000
0000
0101
0000
0000
0011
0000
0000
1010
0000
0000
0100
0000
0001
0000
,
0101
0000
1000
0100
1000
0100
1000
0000
0010
0000
0100
0000
0001
0000
0100
0000
,
0010
1000
0010
0000
1000
0100
1000
0000
0001
0100
0001
0000
0010
0001
0010
0000
,
0001
0010
0001
0010
0100
1000
0100
1000
,
0001
0000
0100
0000
0001
0000
1000
0100
1000
0100
1000
0100
1000
0000
0001
0000
,
2002
0000
0000
0000
,
3003
0000
1000
0010
,
0220
0000
0000
0330
,
0202
0000
0303
2000
,
0001
3100
0010
0002
,
0100
0000
1003
0000
0010
1000
0200
0000
,
0310
0001
1000
0120
,
1030
0201
0310
0101
,
1000
0010
0100
0010
,
1010
0100
0101
0021
,
1000
0000
0130
0000
0001
0100
0201
0000
,
0300
0010
0000
1000
0100
0010
0012
0000
,
1000
0103
0010
2000
,
0010
0001
3100
0101
,
1001
0000
0000
0010
0000
1000
0000
0100
0000
0010
0000
0000
,
0001
0000
0101
0000
1010
0000
0110
0001
,
0001
0110
1000
1000
0110
0001
0001
0110
,
1000
0000
1000
0000
0001
0100
0001
0000
1000
0010
1000
0000
0100
0000
0010
0000
,
0001
0100
0010
0000
1000
0100
0010
0000
0001
1000
0100
0000
0010
0000
0001
0000
,
0010
0001
1000
0100
0010
0100
1000
0001
,
0010
0000
0001
0000
0100
0000
0010
0000
1000
0000
1000
0000
0001
0000
0100
0010
,
0100
0010
0000
1000
0001
0010
0011
0000
,
0100
1100
0000
1001
0000
0110
0000
0001
,
0100
1000
0000
1000
0100
0001
1000
0010
,
0100
0001
0100
0000
0101
0000
0010
0000
1000
0100
1000
0000
0100
0000
0100
0000
,
0010
0001
1000
0000
0001
0100
0110
0000
,
0001
1000
0100
0000
1000
0000
0001
0000
0100
0000
0101
0000
0000
0000
0010
0000
,
1000
0100
1100
0000
1001
0000
0001
1000
,
0100
0000
1000
0000
0010
0000
0100
0000
0001
0000
0001
0000
1000
0000
0010
0100
,
0010
0100
0000
0001
0010
0100
0110
0000
,
0010
0001
0010
1000
0000
0000
0001
0100
1000
0100
0000
0000
,
1000
0000
0010
0000
0001
0000
0010
0000
0000
0000
0000
0000
1000
0000
0100
0000
0001
0000
0100
0000
0000
1000
0000
0000
,
0001
0100
0001
0000
0101
0000
1000
0100
1000
0000
0100
0000
0010
0000
0001
0000
,
0010
0001
1001
0000
1010
0000
0201
0000
,
0310
1000
0010
1000
0000
0000
0001
0100
0001
0100
0000
0000
,
0010
0000
1010
0000
0100
0100
0002
0000
,
0000
1000
0100
0010
,
0010
1000
0103
2010
,
0100
0000
0001
0000
3010
0000
0100
0001
,
0100
1000
0100
0001
2000
0000
0000
0000
,
3000
0000
0000
0000
;

//---------------dance-double - ----------------
#NOTES:
     dance-double:
     :
     Easy:
     8:
     0.392641,0.560915,0.256418,0.264432,0.000000,343.000000,311.000000,32.000000,33.000000,0.000000,0.000000,0.392641,0.560915,0.256418,0.264432,0.000000,343.000000,311.000000,32.000000,33.000000,0.000000,0.000000:
00000000
00000000
00000000
00000000
,
00000000
00000000
00000000
00000000
,
00000000
00000000
00000000
00000000
,
00000000
00000000
00000000
00000000
,
00001000
00010000
00001000
00010000
,
00000100
00001000
00000001
00000000
,
00000100
00000010
00000100
00000010
,
00001000
00000100
00010000
00001000
,
00100000
00010000
10000000
00100000
,
01000000
01000000
00010000
00010000
,
00100000
00001000
00010000
00001000
,
00010000
00000100
00001000
00000010
,
00000200
00000000
00000001
00000301
,
00000020
00000000
00001000
00001030
,
00020000
00000000
00001000
00031000
,
02000000
00000000
00010000
03010000
,
10010000
00000000
01100000
00000000
,
00001000
00010000
00001000
00000000
,
00000100
00000010
00000100
00000010
,
00001000
00000001
00001000
00000001
,
00000100
00000001
00000100
00001000
,
00010000
01000000
10000000
00010000
,
10000000
00100000
00010000
00001000
,
00000010
00000001
00000010
00001000
,
00010000
00001000
01000000
00010000
,
10000000
01000000
00010000
00001000
,
00000100
00000010
00001000
00000001
,
00000020
00000130
00002000
00003100
,
00010000
00001000
00100000
00010000
,
10010000
01000000
01100000
00010000
,
00100000
00001000
00010000
00000100
,
00001100
00000010
00000110
00000001
,
00000010
00001000
00010000
00001000
,
01010000
00100000
01100000
10000000
,
00010000
01000000
00001000
00010000
,
00002000
00013000
00000200
00001300
,
00001002
00000000
00000010
00000003
,
00000100
00000000
00001000
00010000
,
00012000
00000000
00100000
00003000
,
01000000
00000000
10000000
00100000
,
02100000
00000000
00010000
03000000
,
10000000
01000000
00010000
00001000
,
00022000
00033000
00000220
00000330
,
00000001
00001000
00001001
00000000
,
00000010
00001000
00000001
00000100
,
00001000
00010000
00001000
00010000
,
00011000
00000000
01100000
00000000
,
00010000
01000000
00010000
10000000
,
00100000
00010000
00001000
00000010
,
00000100
00000100
00001000
00001000
,
00000001
00000010
00001000
00001000
,
00000010
00001000
00010000
00100000
,
01100000
00000000
10010000
00000000
,
01000000
00100000
01000000
00010000
,
10000000
01000000
00010000
00001000
,
00011000
00000000
00001001
00000000
,
00000100
00000100
00000010
00000010
,
00010000
00001000
00100000
00010000
,
10000000
01000000
10000000
00000000
00010000
00100000
00010000
00000000
,
01000000
00001000
01000000
00001000
01000000
00000000
00001000
00000000
,
00022000
00000000
00000000
00000000
,
00033000
00000000
00000010
00000100
,
00000002
00000000
00000000
00000003
,
00002000
00000000
00003000
00000200
,
00000000
00010300
00000000
00020000
,
00000000
00031000
00000000
00200000
,
00000000
01300000
00000000
20000000
,
30000000
02000000
03000000
01100000
,
00000000
00001000
00000000
00011000
,
00000000
00010000
00000000
00000020
,
00000000
00000130
00000000
00002000
,
00000000
00003001
00000000
00000002
,
00000000
00000103
00000000
00002000
,
00000000
00013000
00000000
01100000
,
00000000
11000000
00000000
00100000
,
00010000
00000000
00100000
00000000
00000000
00000000
00010000
00010000
,
00000000
01000000
01000000
00000000
00001000
00001000
00000000
00010000
,
00010000
00000010
00001000
00000001
,
00000100
00000001
00000100
00001000
,
00010000
01000000
10000000
00100000
,
10000000
00010000
10000000
01000000
,
01000000
00010000
00010000
00001000
,
00000010
00001000
00010000
00000100
,
00001000
00000001
00000100
00000110
,
00000000
00010010
00000000
00001000
,
01000000
00010000
00000000
10000000
,
00100000
01000000
00010000
00100000
,
00001000
00011000
00000000
00010000
,
00000100
00001000
00000001
00000010
,
00001000
00010000
00100000
01100000
,
10000000
10010000
01000000
01100000
,
00010000
00101000
00010000
00000100
,
00001000
00000010
00000100
00000001
,
00001000
00000001
00000100
00000002
,
00000000
00000010
00000000
00001000
,
00000000
00000100
00000003
00002000
,
00000000
00000000
00000000
00000000
,
00000000
00000000
00003000
00020000
,
00000000
00000000
00030000
02000000
,
03000000
20000000
00000000
00000000
,
30000000
00000000
00000000
00000000
;

//---------------dance-double - ----------------
#NOTES:
     dance-double:
     :
     Medium:
     13:
     0.612428,0.681112,0.312510,0.280458,0.072118,535.000000,496.000000,39.000000,35.000000,0.000000,0.000000,0.612428,0.681112,0.312510,0.280458,0.072118,535.000000,496.000000,39.000000,35.000000,0.000000,0.000000:
00000000
00000000
00000000
00000000
,
00000000
00000000
00000000
00000000
,
00000000
00000000
00000000
00000000
,
00000000
00000000
00000000
00000000
,
01000000
00000000
10000000
00000000
00010000
00100000
00000000
00001000
,
00000000
00010000
00000100
00000000
00001000
00000010
00001000
00000010
,
00001000
00000000
00000001
00000000
00000010
00000100
00000000
00001000
,
00000000
00000100
00010000
00000000
00001000
00010000
00001000
00000000
,
00100000
00010000
00100000
00010000
10000000
01000000
10000000
01000000
,
00100000
00010000
01000000
00001000
00010000
00000100
00001000
00000000
,
00000001
00000000
00000001
00000010
00000000
00000010
00000100
00000000
00000100
00010000
00000000
00000000
,
00001000
00000000
00001000
01000000
00000000
01000000
00010000
00000000
00010000
00100000
00000000
00000000
,
00020000
10030000
01000000
00100000
,
00020000
01030000
00001000
00010000
,
00000200
00001300
00000010
00000100
,
00000002
00001003
00000200
00000310
,
00000011
00001001
00000100
00000100
,
00001100
00011000
00100000
00100000
,
00010000
01000000
00010000
01000000
00100000
10000000
00100000
10000000
,
01000000
00010000
00001000
00000100
00000001
00000010
00000001
00000000
,
00001000
00000100
00001000
00000000
00000010
00000100
00000010
00000000
,
00001000
00000100
00010000
00001000
01000000
00010000
00100000
00000000
,
01000000
10000000
01000000
00000000
00100000
01000000
00100000
00000000
,
00010000
00100000
00001000
00010000
00000010
00001000
00000100
00000000
,
00000010
00000001
00000010
00000000
00000100
00001000
00000100
00000000
,
00000010
00000001
00000100
00001000
00010000
01000000
10000000
00000000
,
00010000
00100000
00010000
00000000
10000000
01000000
10000000
00000000
,
00200000
00300000
00010000
00002000
00003000
00010000
00000100
00000000
,
00001000
00000010
00001000
00000000
00000001
00000010
00000001
00000000
,
00000101
00000000
00001000
00000010
00010000
00001000
00100000
00000000
,
00010000
01000000
00010000
00000000
10000000
00100000
10000000
00000000
,
00110000
00000000
01000000
00001000
00010000
00000100
00001000
00000000
,
00000010
00000100
00000010
00000000
00000100
00000001
00000100
00000000
,
00000011
00000000
00000100
00001000
00010000
01000000
10000000
00000000
,
10000000
00100000
00010000
00000000
00001000
00000010
00000001
00000000
,
00000200
00000300
00000010
00002000
00003000
00000100
00010000
00000000
,
00012000
00000000
00000000
00010000
00000000
00000000
00103000
00000000
,
00000000
00010000
00000000
00000000
10000000
00000000
01000000
00000000
,
00120000
00000000
00000000
00100000
00000000
00000000
01030000
00000000
,
00000000
00001000
00000000
00000000
00010000
00000000
00000100
00000000
,
00002001
00000000
00000000
00000001
00000000
00000000
00003010
00000000
,
00000000
00000100
00000000
00000000
00000001
00000000
00001000
00000000
,
00002200
00003300
00022000
00033000
,
01000000
00000000
00000000
01000000
00000000
00000000
01000000
00000000
00010000
00000000
00000000
00000000
10010000
00000000
00000000
00000000
,
00100000
01000000
00010000
10000000
01000000
00010000
00001000
00000000
,
00010000
00000000
00000010
00001000
00000000
00000001
00000100
00000010
,
00001000
00000000
00000000
00000001
00000000
00000000
00000001
00000000
00000000
00000000
00001000
00000000
00000001
00000000
00001000
00000000
,
00000010
00010000
00001000
00100000
00010000
01000000
00100000
00000000
,
11000000
00000000
01010000
00000000
00000000
00100000
10000000
00100000
,
01000000
00001000
00010000
00000000
00000100
00001000
00000100
00000000
,
00000010
00000001
00000010
00000100
00001000
00000000
00011000
00000000
,
00100000
00010000
00100000
00000000
00010000
01000000
00010000
00000000
,
10000000
00000000
00000000
01000000
00000000
00000000
00010000
00000000
00000000
00000000
00001000
00000000
00000100
00000000
00000001
00000000
,
00000010
00000000
00000000
00000000
00000110
00000000
00000000
00000000
00001000
00000000
00000000
00000001
00000000
00000000
00000100
00000000
,
00000001
00000010
00001000
00000000
00010000
00100000
10000000
00000000
,
10000000
00000000
00000000
01000000
00000000
00000000
00010000
00000000
00000000
00001000
00000000
00000000
00000100
00000000
00000001
00000000
,
00000010
00000100
00001000
00000100
00010000
00001000
01000000
00010000
,
00100000
01000000
10000000
00000000
00010000
00100000
00010000
10000000
,
01000000
00100000
01000000
00100000
00010000
01000000
00010000
01000000
,
00001000
00010000
00001000
00010000
00000100
00001000
00000100
00000000
,
00002002
00000000
00000000
00000000
,
00003003
00000000
00000010
00000100
,
00000220
00000000
00000000
00000330
,
00002200
00000000
00003300
00020000
,
00000000
00031000
00000000
00200000
,
00010000
00310000
00000000
20000000
,
00000000
31000000
00000000
00020000
,
00130000
02000000
13000000
10010000
,
00100000
00001000
00010000
00000010
,
00001010
00000100
00000101
00000020
,
00001000
00001030
00000100
00020000
,
00030000
00001000
00000000
01000000
00010000
00000000
20100000
00000000
,
00000000
31000000
00000000
00020000
,
00001000
00001000
00030000
00001100
,
00000101
00000000
00000000
00000010
00000000
00000001
00000000
00000100
00000000
00001000
00000000
00000000
,
00010000
00000000
01010000
00000000
11000000
00000000
00100000
00100000
,
00010000
01000000
01000000
00001000
00010000
00010000
00000010
00001000
,
00001000
00000100
00000010
00000010
00000001
00000000
00001000
00000100
,
00001000
00000100
00010000
00001000
00010000
00001000
00100000
00010000
,
01000000
00100000
10000000
01000000
00010000
00000000
00001000
00010000
,
00000100
00000000
00001000
00000001
00000010
00000000
00000100
00001000
,
00000010
00010000
00000000
00001000
00010000
00000000
00011000
00000000
,
00100000
00010000
00000000
01010000
00000000
10010000
00000000
10100000
,
00000000
01100000
00000000
00010000
00100000
00000000
00001000
00010000
,
00001000
00000000
00000100
00000010
00000100
00000000
00000001
00000010
,
00000100
00000010
00000001
00000000
00000101
00000000
00001010
00000000
,
00000001
00000100
00001000
00010000
01000000
10000000
00000000
00100000
,
10000000
01000000
00100000
00000000
00110000
00000000
00001000
00010000
,
00000010
00000000
00001000
00000001
00000100
00000000
00000010
00001000
,
00000010
00000000
00000000
00001000
00000000
00000000
00000000
00000000
00000000
00000100
00000000
00000000
00010000
00000000
00000000
00000000
00000000
00000000
00001000
00000000
00000000
00000000
00001000
00000000
,
00010000
00000000
00000000
01000000
00000000
01000000
00100000
00000000
00000000
10000000
00000000
10000000
,
00010000
00000000
00000000
00000000
00000000
00000000
00100000
00000000
00000000
00000000
00100000
00000000
01000000
00000000
00000000
00000000
00000000
00000000
00010000
00000000
00000000
10000000
00000000
00000000
,
01000000
00000000
00010000
00001000
00000010
00000000
00000001
00000100
,
00000001
00000100
00000010
00000000
00001010
00000000
00021000
00000000
,
00031000
01000000
00010000
10000000
00100000
10000000
01000000
00100000
,
00001000
00010000
00001000
00000000
00001010
00000000
00002000
00000000
,
00000000
00000010
00000000
00000001
,
00000000
00000100
00003000
00020000
,
00100000
00000000
00100000
00000000
10000000
00030000
01000000
00000000
,
00010000
00000000
00001000
00000100
00000002
00000000
00000000
00000000
,
00000003
00000000
00000000
00000000
;

//---------------dance-double - ----------------
#NOTES:
     dance-double:
     :
     Hard:
     16:
     0.827636,1.001635,0.576942,0.264432,0.372608,723.000000,651.000000,72.000000,33.000000,0.000000,0.000000,0.827636,1.001635,0.576942,0.264432,0.372608,723.000000,651.000000,72.000000,33.000000,0.000000,0.000000:
00000000
00000000
00000000
00000000
,
00000000
00000000
00000000
00000000
,
00000000
00000000
00000000
00000000
,
00000000
00000000
00000000
00000000
,
00000001
00000100
00000010
00001000
00000100
00010000
00000000
00001000
,
00000000
00000000
00100000
00000000
00100000
00000000
00000000
00000000
00010000
01000000
00010000
00000000
10000000
00100000
10000000
00000000
,
01000000
10000000
00010000
00100000
00001000
00010000
00000000
00000100
,
00000000
00001000
00001000
00000010
00000100
00000001
00001000
00000001
,
00001000
00000100
00001000
00000000
00000100
00010000
00000100
00000000
00010000
00001000
00010000
00000000
00001000
01000000
00001000
00000000
,
01000000
00010000
01000000
00000000
00010000
00100000
00010000
00000000
10000000
01000000
10000000
01000000
10000000
00000000
00100000
00000000
,
10000000
00000000
01000000
00010000
00000000
00001000
00010000
00001000
00010000
00001000
00000000
00000100
,
00000001
00000000
00000010
00000001
00000000
00001000
00000100
00010000
00001000
01000000
00010000
10000000
,
00200000
01300000
00010000
10000000
,
20100000
00000000
30010000
01000000
00010000
00000000
00100000
00000000
,
00021000
00030100
00001000
00000001
,
00000012
00000000
00001003
00000100
00001200
00000000
00010300
00000000
,
00011000
00000000
00000000
00110000
00000000
00000000
10000000
01000000
10000000
01000000
00000000
00000000
,
01100000
00000000
00000000
00110000
00000000
00000000
00001000
00010000
00001000
00010000
00000000
00000000
,
00001000
00000100
00000001
00000100
00001000
00010000
01000000
10000000
,
00100000
00000000
00010000
00000000
00001000
00000000
00000010
00000000
00000001
00000100
00000001
00000100
00000001
00000000
00000000
00000000
,
00000010
00001000
00010000
00100000
10000000
01000000
10000000
00000000
,
00010000
00000000
01000000
00100000
01000000
00000000
00010000
00000000
00100000
00000000
00001000
00000000
00010000
00001000
00010000
00000000
,
00000010
00001000
00000001
00000100
00001000
00010000
00001000
00000000
,
00100000
00000000
00010000
01000000
00010000
00000000
00100000
00000000
01000000
00000000
10000000
00000000
01000000
00100000
01000000
00000000
,
10000000
00100000
00010000
00001000
00000010
00000001
00000010
00001000
,
00010000
00000000
00001000
00010000
00001000
00000000
00100000
00000000
00010000
00000000
01000000
00000000
00100000
10000000
00100000
00000000
,
10000000
01000000
00010000
00001000
00010000
01000000
00010000
00001000
,
00000200
00000000
00000310
00001000
00000010
00000000
00000200
00000000
00000301
00001000
00000001
00000000
00000010
00000000
00000100
00000000
,
00001000
00000010
00010000
00001000
00100000
00010000
10000000
00000000
,
10010000
00000000
10000000
00010000
10000000
00000000
01000000
00000000
00100000
00000000
00001000
00000000
00010000
00001000
00010000
00000000
,
00000100
00001000
00000001
00000100
00000010
00001000
00000100
00000000
,
00011000
00000000
00001000
00010000
00001000
00000000
01000000
00000000
00010000
00000000
10000000
00000000
00100000
01000000
00100000
00000000
,
10000000
00010000
01000000
00001000
00010000
00000100
00001000
00000001
,
00000100
00000000
00000010
00001000
00000001
00000000
00000100
00000000
00001000
00000000
00010000
00000000
01000000
10000000
00010000
00000000
,
10000000
00100000
01000000
00100000
10000000
00100000
00010000
00001000
,
00000020
00000000
00000031
00001000
00000001
00000000
00000200
00000000
00000310
00001000
00000010
00000000
00010000
00000000
00001000
00000000
,
00010000
00002000
00000000
01000000
00000000
00000000
00013000
00000000
,
00000000
01000000
00000000
00000000
11000000
00000000
00110000
00000000
,
00001000
00020000
00000000
00000100
00000000
00000000
00031000
00000000
,
00000000
00000010
00000000
00000000
00000011
00000000
00001100
00000000
,
00010000
00002000
00000000
00010000
00000000
00000000
00103000
00000000
,
00000000
00010000
00000000
00000000
10010000
00000000
01100000
00000000
,
00220000
00330000
00022000
00033000
,
00000100
00000000
00000000
00001100
00000000
00000000
00000011
00000000
00000110
00000000
00000000
00000000
00001000
00000010
00001000
00000000
,
00000001
00000000
00000100
00000000
00001000
00010000
00001000
00000000
00100000
00000000
00010000
00000000
01000000
00100000
01000000
00000000
,
00010000
00000000
11000000
11000000
00000000
00100000
00001000
00011000
,
00010000
00000000
00000000
00001100
00000000
00000000
00000101
00000000
00000000
00000000
00000010
00000000
00000001
00000000
00000010
00000000
,
00000100
00000000
00010000
00001000
00010000
00000000
00001000
00010000
00001000
00000000
01000000
00000000
00010000
00000000
10000000
00000000
,
01000000
00000000
00000000
00000000
10000000
00100000
10000000
00000000
00000000
00000000
01000000
00000000
00100000
00000000
10000000
00000000
,
01000000
00000000
00010000
00000000
00001000
00000000
00000100
00000000
00000001
00000000
00000010
00000000
00000001
00000100
00000010
00000000
,
00001000
00000000
00000100
00010000
00001000
00000000
01000000
00000000
01010000
00000000
01010000
00000000
00000000
00000000
00100000
00000000
,
10000000
00010000
01000000
00000000
00010000
00000000
00100000
00000000
00001000
00000000
00010000
00000000
00000100
00000000
00001000
00000000
,
00001001
00000000
00000000
00000101
00000000
00000000
00001010
00000000
00000000
00000000
00010000
00000000
00001000
00000000
00100000
00000000
,
00010000
00000000
00000000
00000000
11000000
00000000
00000000
00000000
01010000
00000000
00000000
00011000
00000000
00000000
00001100
00000000
,
00000100
00000010
00000001
00000100
00001000
00010000
01000000
10000000
,
11000000
00000000
00000000
00110000
00000000
00000000
00011000
00000000
00000000
00001010
00000000
00000000
00000001
00000000
00000100
00000000
,
00000101
00000000
00000010
00001000
00000010
00001000
00000010
00000000
00010000
00000000
00001000
00000000
00100000
00000000
00010000
00000000
,
10000000
01000000
10000000
00000000
00100000
01000000
00100000
00000000
01000000
00010000
01000000
00000000
00001000
00010000
00001000
00000000
,
00010000
00001000
00010000
00001000
00000100
00000010
00000100
00000010
,
00000100
00000000
00000001
00000000
00000100
00000000
00000001
00001000
00000001
00001000
00000001
00001000
00000001
00000000
00001000
00000000
,
00002200
00000000
00000000
00000000
,
00003300
00000000
00010000
00001000
,
00022000
00000000
00000000
00033000
,
02200000
00000000
03300000
00100000
,
10000000
01000000
00010000
00001000
,
00000100
00000000
00000001
00000000
00000100
00000001
00000020
00000000
,
00000130
00001000
00000010
00021000
,
00130000
20100000
31000000
01010000
,
00100000
00010000
00001000
00000010
,
00000011
00000100
00001100
00020100
,
00001000
00000000
01030000
00000000
10000000
00100000
10200000
00000000
,
00300000
00010000
00000000
10000000
01000000
00010000
00012000
00000000
,
00100000
00013000
00000010
00002000
,
00000100
00000001
00003100
00011000
,
00110000
00000000
00000000
10000000
00000000
01000000
00000000
00010000
00000000
00001000
00000000
00000000
,
00000100
00000000
00000101
00000000
00001010
00000000
00001001
00000100
,
00000100
00001000
00010000
00010000
00011000
00001000
00001000
00100000
,
00010000
00000000
00010000
00000000
10000000
00100000
10000000
00000000
00010000
01000000
00010000
00000000
00100000
00000000
00001000
00000000
,
00010000
00000100
00001000
00000000
00000010
00000100
00000001
00000000
00001000
00000010
00000100
00000000
00000001
00000000
00000010
00000000
,
00001000
00010000
00100000
10000000
00010000
01000000
00100000
10000000
,
00010000
00000000
01000000
00000000
00001000
00000000
00010000
00000000
00000100
00000000
00000100
00000000
00001000
00000000
00000001
00000010
,
00000001
00000100
00000000
00000010
00001000
00000100
00010100
00000000
,
00010000
00011000
00000000
01010000
00000000
11000000
00000000
10000000
,
01000000
00010000
00000000
00001000
00000100
00000001
00001000
00000010
,
00000100
00000001
00000100
00000000
00000101
00000000
00000010
00000000
00001000
00000100
00001000
00000000
00000001
00000000
00000001
00000000
,
00000100
00001000
00010000
00000000
01000000
00100000
01100000
00000000
,
10000000
00010000
01000000
00000000
00010000
00000000
00100000
00000000
00001000
00000000
00011000
00000000
00000000
00000000
00000010
00000000
,
00000001
00000100
00000101
00000000
00001100
00000000
00010000
00001000
,
00010000
00000000
00100000
00000000
10000000
00000000
00010000
00000000
01000000
00000000
01000000
00000000
00010000
00000000
00100000
00001000
,
00100000
00001000
00010000
00000010
00001000
00000001
00000011
00000000
,
00000100
00000001
00000100
00001000
00000000
00000000
00010000
00100000
10000000
01000000
00000000
00000000
,
00010000
00000000
00001000
00000000
00000010
00000000
00001000
00000000
00000000
00000000
00000000
00000000
00010000
00000000
00001000
00000000
00000100
00000000
00000001
00000000
00000000
00000100
00000000
00000000
,
00000010
00001000
00000010
00000000
00001010
00000000
00010000
00001000
00010000
00000000
00001000
00000000
01000000
00000000
00010000
00000000
,
01000000
00100000
10100000
00000000
01010000
00000000
00021000
00000000
,
00030100
00001000
00000001
00000010
00000000
00000000
00000100
00001000
00000100
00010000
00000000
00000000
,
00001000
00000000
01010000
00000000
00100000
00100000
02000000
00000000
,
00000000
00100000
10000000
00010000
,
00010000
00100000
03100000
00002000
,
00010000
00000000
00010000
00000000
00003100
00000000
00000001
00000010
,
00001000
00010000
00100000
10000000
02000000
00000000
00000000
00000000
,
03000000
00000000
00000000
00000000
;

//---------------dance-single - ----------------
#NOTES:
     dance-single:
     :
     Challenge:
     18:
     1.048568,1.322158,0.400654,0.488798,1.213981,916.000000,866.000000,50.000000,61.000000,0.000000,0.000000,1.048568,1.322158,0.400654,0.488798,1.213981,916.000000,866.000000,50.000000,61.000000,0.000000,0.000000:
// measure 0
0000
0000
0000
0000
,  // measure 1
0000
0000
0000
0000
,  // measure 2
0000
0000
0000
0000
,  // measure 3
0000
0000
0000
0000
,  // measure 4
0001
0010
0100
0010
0001
1001
0000
1100
,  // measure 5
0000
0000
1000
0000
0101
0000
0000
0000
0001
0010
0100
1000
0100
0010
0001
0000
,  // measure 6
1000
0100
0010
0100
1000
1001
0000
0011
,  // measure 7
0000
0000
1000
0000
0101
0000
0001
0000
1000
0100
0010
0001
0010
0100
1000
0000
,  // measure 8
0001
0010
0001
0000
1000
0100
1000
0000
0001
1000
0001
0000
1000
0001
1000
0000
,  // measure 9
0001
0010
0100
1000
0010
0100
0001
0010
0100
1000
0010
0100
0001
0010
0100
1000
,  // measure 10
0010
0000
0010
0100
0000
0000
0001
0010
0100
1000
0100
0001
,  // measure 11
0100
1000
0100
0010
0001
0010
1000
0010
0001
0010
0100
1000
,  // measure 12
0020
0100
0001
0100
,  // measure 13
1000
0000
0100
0100
0100
0000
0001
0000
,  // measure 14
0230
0010
0001
0010
,  // measure 15
1000
0000
0010
0010
0010
0000
0001
0000
,  // measure 16
0310
0000
0010
1000
0100
0001
0100
1000
0010
0001
0010
1000
,  // measure 17
0100
0000
0100
0001
0100
1000
0100
0010
0001
0010
1000
0010
,  // measure 18
0001
0010
0100
0000
1000
0100
0010
0000
0001
0010
0100
0000
1000
0100
0010
0000
,  // measure 19
0001
1000
0001
1000
0001
0000
0100
0000
0010
0100
0010
0100
0020
0000
0000
0000
,  // measure 20
1030
0100
0001
0100
1000
2000
3020
0000
,  // measure 21
1030
0000
0001
0010
0100
0000
0010
0000
0001
0000
1000
0000
0100
0010
0100
0000
,  // measure 22
1000
0001
0100
1000
0100
0002
2003
0000
,  // measure 23
3001
0000
0010
0100
0010
0000
0001
0000
1000
0000
0010
0000
1000
0000
0001
0000
,  // measure 24
0100
0010
0100
0001
1000
0010
1000
0001
,  // measure 25
1000
0000
0010
1000
0010
0000
0200
0000
0000
0000
0301
0000
0001
1000
0001
0000
,  // measure 26
1000
0010
0001
0010
1000
0001
0100
0001
,  // measure 27
1000
0100
1000
0100
1000
0000
0001
0100
0001
0100
0001
0000
1000
0010
1000
0000
,  // measure 28
1001
0000
0001
0000
0100
0000
1000
0000
0100
0010
0100
0000
0002
0000
0000
0003
,  // measure 29
0011
0000
0001
0010
0100
0000
1000
0000
0100
0000
0010
0001
0100
0001
1000
0000
,  // measure 30
0010
1000
0100
0010
0001
0100
0001
0000
,  // measure 31
1001
0000
1000
0100
0010
0000
0100
0000
1000
0000
0001
1000
0001
1000
0010
0000
,  // measure 32
0110
0100
0001
0100
0010
1000
0001
1000
,  // measure 33
1100
0000
1000
0001
1000
0000
0001
0000
1000
0100
0010
0001
0010
0100
1000
0000
,  // measure 34
1001
1000
0100
0001
0100
1000
0001
0100
,  // measure 35
0001
1000
0001
1000
0001
0000
1000
0010
1000
0010
1000
0000
0010
0100
0010
0100
,  // measure 36
0001
0000
0000
0001
0010
0100
1000
0100
0010
0001
0010
0100
,  // measure 37
1000
0100
0010
0001
0010
0100
1000
0100
0010
0001
0010
0100
,  // measure 38
1000
0100
0010
0001
0010
0100
1000
0100
0010
0001
0010
0100
,  // measure 39
1000
0100
0010
0001
0010
0100
1000
0100
0010
0001
0000
0000
,  // measure 40
1001
0000
0000
0001
0010
0100
0001
0100
1000
0100
0010
1000
,  // measure 41
0010
0001
0010
0100
0001
0100
1000
0010
0001
0010
1000
0010
,  // measure 42
0220
0000
0000
0330
2002
0000
0000
3003
,  // measure 43
0110
0000
0000
0101
0000
0000
1001
0000
1001
0000
0000
0000
1010
0000
0000
0000
,  // measure 44
1000
0000
0001
0010
0100
1000
0001
0010
0100
1000
0001
0010
0100
1000
0100
0010
,  // measure 45
0002
0000
0000
0000
0103
0000
1001
0000
0000
0000
1000
0100
0010
0001
0010
0100
,  // measure 46
1000
0000
0000
1001
0000
0000
0101
0000
0000
0000
0001
0000
0010
0000
0100
0000
,  // measure 47
1000
0010
1000
0010
0100
0000
0001
0100
0010
0000
0100
0001
1000
0000
0001
0000
,  // measure 48
2001
0000
0000
0000
3001
0010
0200
0000
0300
0000
1000
0000
0001
0000
0100
0000
,  // measure 49
1000
0000
0100
0000
0001
0000
0010
0000
1000
0000
0010
0000
0001
1000
0002
0000
,  // measure 50
0003
0000
1000
0100
0002
0000
0003
0000
0100
0000
2000
0000
3000
0000
0001
0000
,  // measure 51
1000
0100
0010
0001
0100
0010
1000
0100
0010
0001
0100
0010
1000
0100
0010
0001
,  // measure 52
0100
0000
0000
1000
0000
0000
0100
0000
0000
0000
0001
0000
0010
0000
1000
0000
,  // measure 53
0010
0000
0000
0000
0011
0000
0000
0000
1001
0000
0000
1100
0000
0000
1000
0000
,  // measure 54
0001
0010
0100
1000
0010
0100
0001
0010
0100
1000
0010
0100
0001
0010
0100
1000
,  // measure 55
0010
0000
0000
0110
0000
0000
0101
0000
0000
1001
0000
0000
1000
0010
1000
0000
,  // measure 56
0001
0010
0100
1000
0001
1000
0100
0010
0001
0010
0100
1000
0001
1000
0100
0010
,  // measure 57
0001
0000
0000
0000
1000
0100
0010
0001
1000
0001
0010
0100
1000
0100
0010
0001
,  // measure 58
1000
0100
0010
0001
1000
0010
0100
0001
1000
0100
0010
0001
1000
0010
0100
0001
,  // measure 59
1000
0010
1000
0010
1000
0010
1000
0010
1000
0010
1000
0010
1000
0010
1000
0010
,  // measure 60
0200
0000
0000
0302
0000
0000
2003
0000
,  // measure 61
0000
3002
0000
0000
0023
0000
0032
0000
,  // measure 62
2003
0000
0000
3002
0000
0000
2003
0000
,  // measure 63
3001
0010
0100
1000
0100
0010
0001
0000
0000
2000
0000
0000
,  // measure 64
0000
0000
0000
0000
0000
0000
0000
0000
3001
0010
0100
1000
0002
0000
0000
0000
,  // measure 65
0000
0000
0000
0000
0203
0000
0000
0000
0301
0000
1000
0000
0001
1000
0001
1000
,  // measure 66
0001
0010
0100
2000
0000
0000
3001
0000
0000
0101
0000
0000
,  // measure 67
0010
0110
1000
1100
,  // measure 68
1000
0100
0010
0001
0010
0100
2000
0000
0000
3002
0000
0000
,  // measure 69
0103
0200
0310
0020
,  // measure 70
1030
0000
1001
0000
0001
0100
0201
0000
,  // measure 71
0301
1000
0000
1000
0100
0010
0001
0000
,  // measure 72
0001
0100
0001
0200
0000
0000
1300
0100
1000
0200
0000
0000
,  // measure 73
0301
0000
0010
0000
0001
0000
0100
0000
0000
0100
0000
0000
0100
0000
0000
0100
0000
0000
0010
0000
0000
0000
0000
0000
,  // measure 74
1000
0010
1000
0020
0000
0000
0031
0100
0001
0200
0000
0000
,  // measure 75
1300
0000
0000
0000
0100
0000
0000
0000
1000
0000
0000
0000
0100
0000
0000
0000
0000
0000
0100
0000
0000
0000
0000
0000
1000
0000
0000
0000
0000
0000
0001
0000
0000
0000
0000
0000
1001
0000
0000
0000
0000
0000
1000
0000
0000
0010
0000
0000
,  // measure 76
1000
0000
1001
0000
0001
0100
0001
0000
1001
0000
1000
0100
1000
0000
1001
0000
,  // measure 77
0001
0010
0001
0000
1000
0100
0010
0001
1000
0001
0010
0100
1000
0100
0010
0001
,  // measure 78
1000
0100
0010
0001
1000
0100
0010
0001
1000
0100
0010
0001
0100
0000
0100
0000
,  // measure 79
0100
0000
0100
0000
0100
0010
0100
0010
0200
0000
0000
0000
0301
0000
0100
0000
,  // measure 80
1000
0000
0100
0000
0001
0000
0100
1000
0100
0000
0001
0000
1000
0000
0100
0010
,  // measure 81
0001
0010
0200
0000
0000
0000
1300
0001
0010
0001
1000
0001
0020
0000
0000
0000
,  // measure 82
0031
0100
0000
1100
0000
0101
0000
0001
,  // measure 83
0010
0000
1010
0000
0000
0000
0010
0001
0010
0001
0100
0001
0200
0000
0000
0000
,  // measure 84
1300
0100
1000
0100
0002
0000
0000
0000
1003
0010
1000
0010
0001
0000
1000
0100
,  // measure 85
0001
0000
0100
0000
2100
0000
0000
0000
3001
0010
0100
1000
0020
0000
0000
0000
,  // measure 86
0130
0001
0100
0010
0100
1000
0100
0010
0100
0001
0200
0000
0000
0000
0310
0000
,  // measure 87
1000
0100
0010
0100
2000
0000
0000
0000
3001
0100
0001
0100
0001
0000
0010
0000
,  // measure 88
1000
0000
0010
0000
0001
0000
0010
1000
0010
0000
0001
0000
0100
0000
1000
0100
,  // measure 89
0001
0000
0000
0000
0000
0000
0100
0000
0000
0000
0000
0000
0000
0000
0000
0000
0000
0000
0100
0000
0000
0000
0000
0000
0010
0000
0000
1000
0000
0000
0100
0000
0000
0000
0000
0000
1100
0000
0000
0000
0100
0000
0000
0000
0001
0000
0000
0000
,  // measure 90
0100
1000
0100
0110
0010
0001
0010
1000
0010
0110
0100
1000
,  // measure 91
0100
0000
0000
0000
0010
0000
0000
0000
0001
0000
0000
0000
0011
0000
0000
0000
0010
0000
0000
0000
0100
0000
0000
0000
1000
0000
0000
0000
0100
0000
0000
0000
0010
0000
0000
0000
0110
0000
0000
0000
0000
0000
0100
0000
0000
0010
0000
0000
,  // measure 92
0001
0010
0100
0000
1000
0000
0001
0010
0100
0010
0001
0000
1000
0010
0100
0010
,  // measure 93
1000
0000
0000
0000
0000
0000
0001
0000
0000
0000
0000
0000
1001
0000
0000
0000
0000
0000
1000
0000
0000
0100
0000
0000
1000
0000
0000
0100
0000
0000
1000
0000
0000
0100
0000
0000
1000
0000
0000
0000
0100
0000
0000
0000
0010
0000
0000
0000
,  // measure 94
0001
0010
0100
1000
0001
0010
0001
0100
0010
0100
0000
0110
,  // measure 95
0000
0000
0000
0000
1000
0001
0100
0000
0001
1000
0100
0000
2000
0000
0000
0000
,  // measure 96
0000
3002
0023
0230
,  // measure 97
0000
0320
0032
2003
,  // measure 98
3020
0000
0000
0230
0000
0000
0302
0000
0000
0103
0000
0100
,  // measure 99
0001
0000
0001
1000
0000
1000
0020
0000
0000
0000
0000
0000
,  // measure 100
0030
0000
0000
0000
;
