#TITLE:Inner Spirit -GIGA HiTECH MIX-;
#SUBTITLE:;
#ARTIST:lapix (Remixed by Blacklolita);
#TITLETRANSLIT:;
#SUBTITLETRANSLIT:;
#ARTISTTRANSLIT:;
#GENRE:;
#CREDIT:;
#BANNER:Inner Spirit -GIGA HiTECH MIX-.png;
#BACKGROUND:;
#LYRICSPATH:;
#CDTITLE:;
#MUSIC:Inner Spirit -GIGA HiTECH MIX-.ogg;
#OFFSET:0.000000;
#SAMPLESTART:80.000000;
#SAMPLELENGTH:15.000000;
#SELECTABLE:YES;
#BPMS:0.000000=150.000000
;
#STOPS:
;
#BGCHANGES:;
#KEYSOUNDS:;
#ATTACKS:;

//---------------dance-single - ----------------
#NOTES:
     dance-single:
     :
     Beginner:
     3:
     0.164014,0.245426,0.108154,0.049917,0.000000,138.000000,125.000000,13.000000,6.000000,0.000000,0.000000,0.164014,0.245426,0.108154,0.049917,0.000000,138.000000,125.000000,13.000000,6.000000,0.000000,0.000000:
0000
0000
0000
0000
,
0000
0000
0000
0000
,
0000
0000
0000
0000
,
0000
0000
0000
0000
,
0000
0000
0000
0000
,
0000
0000
0000
0000
,
0001
0000
0100
0000
,
0001
0000
0100
0000
,
0010
0000
1000
0000
,
1001
0000
0000
0000
,
0100
0000
0000
0000
,
0010
0000
0000
0000
,
0001
0000
0000
0000
,
1000
0000
0000
0000
,
0001
0001
0001
0000
,
0010
0010
0010
0000
,
0200
0000
0300
0000
,
1000
1000
1000
0000
,
0010
0000
1000
0000
,
0001
0000
0100
0000
,
0010
0000
1000
0000
,
0001
0000
0100
0000
,
0010
0000
0001
0000
,
0100
0000
1000
0000
,
0010
0000
0001
0000
,
1001
0000
0000
0000
,
1001
0000
0010
0000
,
1001
0000
0010
0000
,
1001
0000
0100
0000
,
1001
0000
0100
0000
,
1001
0000
0001
0000
,
1001
0000
1000
0000
,
0020
0000
0030
0000
,
1001
0000
0000
0000
,
0020
0000
0000
0000
,
0030
0000
0000
0000
,
0200
0000
0000
0000
,
0300
0000
0000
0000
,
2000
0000
0000
0000
,
3000
0000
0000
0000
,
0002
0000
0000
0000
,
0003
0000
0000
0000
,
1000
0000
0100
0000
,
1000
0000
0100
0000
,
0010
0000
0001
0000
,
0010
0000
0001
0000
,
0100
0100
0100
0000
,
0010
0010
0010
0000
,
1000
0000
0001
0000
,
1001
0000
0000
0000
,
1000
1000
1000
0000
,
0010
0010
0010
0000
,
0001
0001
0001
0000
,
0010
0010
0010
0000
,
0100
0000
0010
0000
,
1000
0000
0001
0000
,
0100
0000
0010
0000
,
1001
0000
0000
0000
,
0100
0100
0100
0000
,
0010
0010
0010
0000
,
1000
1000
1000
0000
,
0001
0001
0001
0000
,
1000
0000
0010
0000
,
0001
0000
0010
0000
,
1001
0000
0000
0000
,
1001
0000
0000
0000
,
0100
0000
0000
0000
,
0100
0000
0000
0000
,
0010
0000
0000
0000
,
0010
0000
0000
0000
,
0001
0001
0001
0000
,
0100
0100
0100
0000
,
0010
0010
0010
0000
,
1000
1000
1000
1000
;

//---------------dance-single - ----------------
#NOTES:
     dance-single:
     :
     Easy:
     7:
     0.322085,0.429496,0.074876,0.174710,0.000000,271.000000,262.000000,9.000000,21.000000,0.000000,0.000000,0.322085,0.429496,0.074876,0.174710,0.000000,271.000000,262.000000,9.000000,21.000000,0.000000,0.000000:
0000
0000
0000
0000
,
0000
0000
0000
0000
,
0000
0000
0000
0000
,
0000
0000
0000
0000
,
0000
0000
0000
0000
,
0000
0000
0000
0000
,
0010
1000
0010
1000
,
0001
0100
0001
0100
,
0010
1000
0001
0100
,
0110
0000
1001
0000
,
0010
0001
1000
0100
,
0010
0001
0100
0110
,
0001
1000
0010
0100
,
0002
0000
1003
1000
,
0010
0100
0010
0100
0010
0000
1000
0000
,
0001
0010
0001
0010
0001
0000
0100
0000
,
0010
1000
0010
0000
1000
0100
1000
0000
,
0002
0000
0003
0110
,
1000
0001
0100
0010
,
1000
0100
0001
0100
,
1000
0100
0010
0001
,
0010
1000
0010
0001
,
0100
0010
1000
0001
,
1000
0100
0001
0100
,
1000
0000
0001
0000
,
2002
0000
3003
0000
,
0001
0001
0100
0100
,
0010
0000
0010
0000
1000
0100
1000
0000
,
0010
0010
0100
0100
,
0001
0000
0001
0000
0010
0100
0010
0000
,
0001
0001
1000
1000
,
0100
0000
0100
0000
0010
0001
0010
0000
,
0001
0000
1000
0000
,
0220
0000
0330
0000
,
2000
0000
0000
3001
,
0100
0000
0010
0000
,
1000
0100
1000
0100
,
0010
0000
0100
0000
,
0002
0000
0000
0003
,
2000
3000
0020
0030
,
0200
0300
0002
0003
,
0020
0030
0200
0300
,
1000
0010
1000
0010
,
0100
0001
0100
0001
,
1000
0100
1000
0100
,
0020
0000
0031
0001
,
1000
0010
1000
0010
1000
0000
0100
0000
,
0010
0001
0010
0001
0010
0000
0100
0000
,
1000
0010
1000
0000
0001
0010
0001
0000
,
2002
0000
0000
3003
,
0100
0001
0100
0010
,
1000
0100
0010
0000
0100
0000
0010
0000
,
0001
0010
0100
0000
0010
0100
1000
0000
,
0010
0010
0100
0100
,
0001
0010
0001
0100
,
0010
1000
0100
0000
0010
0000
0001
0000
,
0100
0010
1000
0000
0100
0010
0001
0000
,
1000
1000
0100
0100
,
0020
0031
1000
0100
,
0010
0001
0100
0000
0010
0000
1000
0000
,
0001
0100
0010
0000
0100
0010
1000
0000
,
0100
0100
0010
0010
,
0001
1000
0100
1000
,
0001
0010
0100
0000
0010
0000
0100
0000
,
1000
0000
0001
0000
,
0220
0000
0330
0000
,
2000
3100
0010
0100
,
0010
0001
0010
0100
,
1000
0010
1000
0010
,
0100
0001
1000
0100
,
0010
0000
0001
0000
1000
0100
0001
0000
,
0100
0000
0010
0000
0001
0100
1000
0000
,
0100
0010
0100
0000
0010
0100
0010
0000
,
1000
0010
0001
0110
;

//---------------dance-single - ----------------
#NOTES:
     dance-single:
     :
     Medium:
     11:
     0.482533,0.521531,0.207988,0.199669,0.083195,406.000000,381.000000,25.000000,24.000000,0.000000,0.000000,0.482533,0.521531,0.207988,0.199669,0.083195,406.000000,381.000000,25.000000,24.000000,0.000000,0.000000:
0000
0000
0000
0000
,
0000
0000
0000
0000
,
0000
0000
0000
0000
,
0000
0000
0000
0000
,
0000
0000
0000
0000
,
0000
0000
0000
0000
,
0001
0010
0001
0000
1000
0100
1000
0000
,
0010
0100
0010
0100
0001
1000
0100
0000
,
1000
0010
1000
0010
0100
0001
0100
0001
,
0100
0000
0110
0000
1000
0100
0010
0100
,
1000
0010
1000
0000
0001
0000
0100
0000
,
0010
1000
0100
0000
0010
0000
0011
0000
,
1000
0100
1000
0000
0001
0000
0100
0000
,
0001
0010
0001
0000
1000
0000
0110
0000
,
1000
0100
1000
0100
0010
0001
0002
0000
,
0103
0010
0100
0010
1000
0100
0200
0000
,
0310
0001
0010
0100
0010
0001
1000
0010
,
0100
0000
0001
0100
0000
0001
0100
0000
0010
1000
0000
0000
0010
0000
0000
0000
,
2000
0000
3100
0100
0010
0001
0100
0000
,
0020
0000
1030
0010
0100
0001
0100
0000
,
0002
0000
0013
0010
0100
1000
0010
0000
,
0200
0000
0301
0100
0010
1000
0010
0000
,
1001
0000
0100
0010
1000
0100
0010
0000
,
1001
0000
0100
0010
0001
0100
0010
0000
,
0100
0000
1010
0000
1000
0100
0001
0100
,
1000
0000
0000
1000
0000
0000
0010
0000
0200
0000
0000
0000
0301
0000
0000
0000
,
1000
0000
0000
1000
0000
0000
1000
0000
0100
0000
0000
0100
0000
0000
0100
0000
,
0001
0000
0000
0001
0000
0000
0001
0000
0010
0000
0100
0000
0010
0000
0001
0000
,
0010
0000
0000
0010
0000
0000
0010
0000
0100
0000
0000
0100
0000
0000
0100
0000
,
1000
0000
0000
1000
0000
0000
1000
0000
0020
0000
0000
0000
0130
0000
0000
0000
,
0001
0000
0000
0001
0000
0000
0001
0000
0100
0000
0000
0100
0000
0000
0100
0000
,
1000
0000
0000
1000
0000
0000
1000
0000
0010
0000
1000
0000
0010
0000
0100
0000
,
0001
0000
0011
0000
0100
0010
1000
0100
,
0010
0000
0000
0010
0000
0000
0001
0000
1001
0000
0000
0000
1100
0000
0000
0000
,
0020
0000
0000
0130
,
0001
0100
0010
1000
,
0100
1000
0010
0100
,
0001
0000
0000
0100
0000
0000
0000
0000
,
0020
0000
0000
2030
,
3002
0203
0320
2030
,
3002
0010
2003
0010
,
3002
0100
2003
0100
,
3001
1000
0100
1000
,
0001
0000
0010
0000
0001
0100
0010
0000
,
0100
0001
0100
0001
,
1000
0100
1000
0010
0100
0001
1000
0000
,
0001
0010
0001
0010
0100
0100
2000
0000
,
3010
0100
0010
0100
0001
0001
0020
0000
,
0130
1000
0010
0001
0010
1000
0100
0010
,
0011
0000
0000
0000
0100
0010
0000
0001
0000
0100
0010
0000
0100
0000
0000
0000
,
0001
1000
0001
0100
0010
0000
0110
0000
,
1000
0100
1000
0000
0001
0010
0001
0000
,
0100
0001
0010
0001
0100
0010
1000
0010
,
0100
0101
0010
1010
,
0100
0001
1000
0001
0010
0000
0110
0000
,
0001
0100
0001
0000
1000
0010
1000
0000
,
0001
0100
0010
0100
0001
1000
0100
0010
,
0100
1100
0010
0011
,
2010
0000
3100
0000
0010
0001
0100
0000
,
0010
1000
0001
0000
0010
0100
1000
0000
,
0010
0100
0001
0100
0010
1000
0100
0010
,
0001
0101
1000
1010
,
0001
1000
0100
1000
0001
0000
0101
0000
,
1000
0010
0100
0010
0100
0001
0010
0000
,
0002
0000
0100
0000
,
0013
0000
0000
0001
0000
0000
1000
0000
0010
0000
0100
0000
0001
0000
0100
0000
,
0002
1003
0100
1000
,
0100
0010
0001
0101
,
0010
0100
0010
0100
,
0001
1000
0100
1100
,
0001
0100
1000
0100
0001
0000
1001
0000
,
1000
0100
0001
0100
1000
0000
1001
0000
,
0010
0100
0001
1000
0010
0100
0001
1000
,
0010
0000
0000
0010
0000
0000
0100
0000
0000
0100
0000
0000
0110
0000
0000
0000
;

//---------------dance-single - ----------------
#NOTES:
     dance-single:
     :
     Hard:
     15:
     0.734496,0.766957,0.241267,0.274545,0.690522,618.000000,589.000000,29.000000,33.000000,0.000000,0.000000,0.734496,0.766957,0.241267,0.274545,0.690522,618.000000,589.000000,29.000000,33.000000,0.000000,0.000000:
0000
0000
0000
0000
,
0000
0000
0000
0000
,
0000
0000
0000
0000
,
0000
0000
0000
0000
,
0000
0000
0000
0000
,
0000
0000
0000
0000
,
1000
0100
1000
0100
0010
0001
0010
0001
,
0100
0010
0100
0010
1000
0010
1000
0010
,
0100
0001
0100
0000
0001
0010
0001
0000
1000
0010
1000
0000
0010
0100
0010
0000
,
1000
0100
0000
0010
0001
1000
0000
0010
0000
0100
0010
0000
0100
0001
0100
0000
,
0001
0000
0010
0000
0001
0100
0000
0010
0000
1000
0000
0000
0100
0000
1000
0100
,
1000
0000
0001
0100
0001
0100
0000
0010
0000
1000
0000
0010
0100
0000
0001
0000
,
0010
0000
0100
0000
1000
0010
0000
0100
0000
0001
0000
0000
1000
0000
0001
0010
,
0001
0000
2000
0000
0000
0000
3100
0000
0010
0001
0010
0100
0010
0100
1000
0000
,
0001
0000
0100
0000
0001
0010
0001
0000
1000
0000
0010
1000
0020
0000
0000
0000
,
1030
0000
0100
0000
1000
0100
1000
0000
0001
0000
0010
0001
0020
0000
0000
0000
,
0031
0100
0001
0000
1000
0010
1000
0000
0001
0010
0001
0000
1000
0100
1000
0000
,
0100
0000
1000
0100
0000
0001
0100
0000
1000
0001
0000
0000
1001
0000
0000
0000
,
0201
0000
0310
1000
0100
0010
0100
0010
,
0021
0000
0130
1000
0010
1000
0100
0010
,
0120
0000
0031
1000
0010
0100
0001
0100
,
0210
0000
0000
0000
0301
0000
0100
0000
0001
0000
2000
0000
3010
0100
0010
0000
,
1002
0000
0103
0010
1000
0001
0100
0001
,
0021
0000
0000
0000
0130
0000
1000
0000
0010
0000
0100
0000
0001
0100
0001
0100
,
0001
0000
1000
0000
0010
1000
0000
1000
0010
0000
1000
0100
0000
0010
0001
0000
,
0011
0000
0000
0101
0000
0000
1100
0000
0020
0000
0000
0000
1030
0100
1000
0000
,
0001
0000
0010
0100
0000
0010
0001
0000
1000
0000
0010
0100
0000
0010
1000
0000
,
0010
0000
0100
0001
0000
0100
0010
0000
1000
0000
0001
0100
0000
0001
0010
0000
,
0100
0000
1000
0100
0000
0001
0100
0000
0010
0000
0001
0100
0000
1000
0100
0000
,
0001
0000
1000
0100
0000
1000
0010
0000
0200
0000
0000
0000
0301
0010
0001
0000
,
1000
0000
0010
0100
0000
0010
1000
0000
0001
0000
1000
0100
0010
0100
0010
0000
,
0001
0000
0100
0010
1000
0010
1000
0000
0100
0000
0010
0001
0010
0100
1000
0100
,
1000
0000
0000
0000
0010
0100
0000
0100
0001
0000
1000
0010
1000
0010
1000
0000
,
1010
0000
0000
1001
0000
0000
0101
0000
0110
0000
0000
0000
0100
0010
0100
0000
,
0002
0000
0000
0103
,
1000
0010
0100
0010
,
1000
0100
0001
0100
,
1000
0000
0000
0001
0000
0000
0000
0000
,
0200
0000
0000
0320
,
2030
3200
0302
0203
,
2300
3020
0032
2003
,
3200
0302
0023
0230
,
1300
0100
1000
0100
0010
0001
0010
0100
,
1000
0010
1000
0010
0100
0001
0010
0000
,
0001
0100
0001
0100
0010
1000
0100
1000
,
0001
0100
0001
0100
0010
1000
0100
0000
1000
0100
1000
0000
0001
0100
0001
0000
,
1000
0000
0010
0000
1000
0100
1000
0000
0100
0000
0010
0001
0020
0000
0000
0000
,
0130
0000
0010
0000
0001
0100
0001
0000
1000
0000
0010
0100
0020
0000
0000
0000
,
1030
0100
1000
0000
0001
0100
0001
0000
0010
0001
0010
0000
0100
1000
0100
0000
,
0010
0100
0000
1000
0001
0100
0000
0010
0000
0100
0001
0000
0010
0001
0010
0000
,
0100
0000
1000
0000
0001
0100
0001
0000
1000
0100
0010
0100
0000
1000
0010
0000
,
0100
0001
0100
0001
0000
0010
0001
0000
1000
0010
1000
0010
1000
0000
0001
0000
,
0100
0010
0100
0000
0001
0100
0001
0000
1000
0100
1000
0000
0010
1000
0010
0000
,
0100
0000
0001
0000
0000
0010
0000
0010
0100
0000
0100
0000
1000
0000
1000
0000
,
0001
0000
0100
0000
0010
0100
0010
0000
1000
0001
0100
0001
0000
0100
0010
0000
,
0100
0001
0100
0001
0000
1000
0000
1000
0010
0100
0010
0000
1000
0000
0100
0000
,
0010
0001
0010
0000
0001
0100
0001
0000
1000
0100
1000
0000
0010
0100
0010
0000
,
0110
0000
0000
0000
0100
0000
0001
0000
0000
1000
0000
0000
0010
0000
0100
0000
,
1002
0000
0000
0000
0103
0000
0010
0000
1000
0100
0010
0100
1000
0000
0010
0000
,
0100
0001
0100
0010
0000
1000
0100
0000
0010
0001
0010
0100
0010
0000
0001
0000
,
1000
0010
0100
0000
0001
1000
0100
0000
0010
0001
0100
0000
0010
1000
0100
0000
,
1000
0010
1000
0000
0001
0100
0000
0100
0001
0000
0001
0000
0010
0000
0010
0000
,
0100
0000
1000
0000
0001
0100
0010
0000
1000
0100
0010
0100
0000
0010
0001
0000
,
0100
0010
0100
0001
0000
1000
0100
0000
0010
0001
1000
0000
0010
0100
0001
0000
,
0201
0010
1000
0010
,
0301
0000
0000
0101
0000
0000
1001
0000
0010
1000
0010
0000
1000
0000
0100
0000
,
0220
0330
0001
0100
0010
1000
0010
1000
,
0100
0000
0010
0000
0001
0100
0000
0010
0000
0010
0000
1000
0100
0000
0000
0000
,
0010
0001
0010
0001
1000
0010
0100
0010
,
1000
0000
0100
0000
0010
0001
0010
0000
0001
0100
0010
0100
0001
0000
0000
0000
,
1000
0010
0100
0000
0001
0100
0010
0000
0100
0000
0110
0000
0110
0000
0000
0000
,
0001
1000
0100
0000
0010
0001
1000
0000
0001
0000
1001
0000
1001
0000
0000
0000
,
1000
0100
1000
0000
1000
0010
1000
0000
0001
0100
0001
0000
0001
0010
0001
0000
,
0110
0000
0000
1100
0000
0000
0101
0000
0000
0011
0000
0000
1010
0000
0000
0000
;

//---------------dance-double - ----------------
#NOTES:
     dance-double:
     :
     Easy:
     7:
     0.330404,0.429496,0.066556,0.141432,0.000000,278.000000,270.000000,8.000000,17.000000,0.000000,0.000000,0.330404,0.429496,0.066556,0.141432,0.000000,278.000000,270.000000,8.000000,17.000000,0.000000,0.000000:
00000000
00000000
00000000
00000000
,
00000000
00000000
00000000
00000000
,
00000000
00000000
00000000
00000000
,
00000000
00000000
00000000
00000000
,
00000000
00000000
00000000
00000000
,
00000000
00000000
00000000
00000000
,
00000001
00000010
00000001
00000010
,
00000100
00001000
00000100
00001000
,
00000100
00010000
00001000
00100000
,
01100000
00000000
10010000
00000000
,
01000000
00010000
00100000
00001000
,
00010000
00000100
00001000
00001001
,
00000010
00000001
00000100
00000010
,
00002000
00000000
00003100
00010000
,
00001000
00010000
00001000
00010000
00001000
00000000
00100000
00000000
,
00010000
01000000
00010000
01000000
00010000
00000000
10000000
00000000
,
00100000
01000000
00100000
00000000
10000000
01000000
10000000
00000000
,
02000000
00000000
03000000
10010000
,
00100000
01000000
00100000
01000000
,
00010000
00100000
00001000
00010000
,
00000100
00001000
00000100
00001000
,
00000001
00000100
00000010
00001000
,
00000010
00010000
00001000
01000000
,
00010000
00100000
01000000
10000000
,
00010000
00000000
10000000
00000000
,
20020000
00000000
30030000
01000000
,
00010000
00010000
00100000
00100000
,
00001000
00000000
00001000
00000000
00010000
00001000
00010000
00000000
,
00000100
00000100
00001000
00001000
,
00000001
00000000
00000001
00000000
00000010
00000100
00000010
00000000
,
00001000
00001000
00010000
00010000
,
00100000
00000000
00100000
00000000
10000000
01000000
10000000
00000000
,
00100000
00000000
01000000
00000000
,
00002000
00000000
00013000
00011000
,
00020000
00000000
00000000
00030100
,
00001000
00000000
00000010
00000000
,
00000001
00000010
00001000
00010000
,
00100000
00000000
10000000
00000000
,
02000000
00000000
00000000
03000000
,
00020000
00030000
00002000
00003000
,
00000200
00000300
00000002
00000003
,
00002000
00003000
00000200
00000300
,
00010000
00001000
00010000
00001000
,
00100000
00010000
01000000
00100000
,
10000000
01000000
10000000
01000000
,
00100000
00000000
00100000
00000000
00001000
00010000
00001000
00000000
,
00000100
00000010
00000100
00000010
00000100
00000000
00000001
00000000
,
00001000
00000100
00001000
00000100
00001000
00000000
00000010
00000000
,
00010000
00001000
00010000
00000000
00001000
00010000
00001000
00000000
,
01000000
00010000
00100000
10000000
,
01000000
10000000
01000000
00010000
,
00001000
00000100
00000010
00000000
00001000
00000000
00000100
00000000
,
00001000
00000100
00001000
00000000
00000001
00000010
00000100
00000000
,
00010000
00010000
00001000
00001000
,
00100000
00010000
00100000
01000000
,
10000000
00100000
01000000
00000000
00010000
00000000
00100000
00000000
,
00001000
00010000
00000100
00000000
00001000
00000010
00000100
00000000
,
00000001
00000001
00000010
00000010
,
00000200
00001300
00000100
00010000
,
00001000
00010000
00001000
00000000
01000000
00000000
00010000
00000000
,
00100000
00001000
00010000
00000000
00000010
00001000
00000001
00000000
,
00000010
00000010
00000100
00000100
,
00001000
00000100
00010000
00001000
,
00010000
01000000
00100000
00000000
00010000
00000000
01000000
00000000
,
00001000
00000000
00010000
00000000
,
00022000
00000000
00033000
00000000
,
00000200
00001300
00000010
00001000
,
00000001
00000100
00001000
00010000
,
01000000
00100000
00010000
10000000
,
01000000
00010000
00001000
00000100
,
00000001
00000000
00000010
00000000
00000001
00000100
00000001
00000000
,
00000100
00000000
00001000
00000000
00010000
00001000
00010000
00000000
,
00001000
01000000
00010000
00000000
10000000
00100000
01000000
00000000
,
00010000
00100000
01000000
10010000
;

//---------------dance-double - ----------------
#NOTES:
     dance-double:
     :
     Medium:
     11:
     0.469460,0.490853,0.166391,0.216308,0.079036,395.000000,375.000000,20.000000,26.000000,0.000000,0.000000,0.469460,0.490853,0.166391,0.216308,0.079036,395.000000,375.000000,20.000000,26.000000,0.000000,0.000000:
00000000
00000000
00000000
00000000
,
00000000
00000000
00000000
00000000
,
00000000
00000000
00000000
00000000
,
00000000
00000000
00000000
00000000
,
00000000
00000000
00000000
00000000
,
00000000
00000000
00000000
00000000
,
01000000
00100000
01000000
00000000
00100000
00010000
00100000
00000000
,
00001000
00010000
00001000
00010000
00000100
00001000
00000001
00000000
,
00000010
00000001
00000010
00000001
00001000
00000100
00001000
00000100
,
00010000
00000000
00011000
00000000
00010000
00001000
00010000
00000000
,
00001000
00000100
00000001
00000000
00001000
00000000
00000001
00000000
,
00000001
00000100
00001000
00000000
00010000
00000000
00011000
00000000
,
00010000
01000000
10000000
00000000
00010000
00000000
10000000
00000000
,
10000000
01000000
00010000
00000000
00001000
00000000
00011000
00000000
,
00010000
00001000
00010000
00001000
00100000
00010000
00020000
00000000
,
01030000
00010000
01000000
00010000
10000000
01000000
02000000
00000000
,
03100000
00010000
00100000
00001000
00010000
00000010
00001000
00000100
,
00000010
00000000
00000000
00000001
00000000
00000000
00000100
00000000
00000000
00001000
00000000
00000000
00011000
00000000
00000000
00000000
,
02000000
00000000
03010000
01000000
00100000
10000000
01000000
00000000
,
00200000
00000000
00310000
00100000
00001000
00010000
00001000
00000000
,
00000200
00000000
00000310
00001000
00000001
00000010
00000100
00000000
,
00002000
00000000
00003100
00010000
00001000
00010000
00001000
00000000
,
00200000
00000000
01300000
10000000
00010000
00100000
00010000
00000000
,
02000000
00000000
03100000
00010000
00001000
00010000
00001000
00000000
,
00000010
00000000
00001010
00000000
00000001
00000100
00001000
00010000
,
00100000
00000000
00000000
10000000
00000000
00000000
01000000
00000000
00020000
00000000
00000000
00000000
00031000
00000000
00000000
00000000
,
00000100
00000000
00000000
00000100
00000000
00000000
00000100
00000000
00000010
00000000
00000000
00000010
00000000
00000000
00000010
00000000
,
00001000
00000000
00000000
00001000
00000000
00000000
00001000
00000000
00000001
00000000
00000100
00000000
00001000
00000000
00010000
00000000
,
00100000
00000000
00000000
00100000
00000000
00000000
00100000
00000000
10000000
00000000
00000000
10000000
00000000
00000000
10000000
00000000
,
01000000
00000000
00000000
01000000
00000000
00000000
01000000
00000000
00200000
00000000
00000000
00000000
00310000
00000000
00000000
00000000
,
01000000
00000000
00000000
01000000
00000000
00000000
01000000
00000000
00001000
00000000
00000000
00001000
00000000
00000000
00001000
00000000
,
00010000
00000000
00000000
00010000
00000000
00000000
00010000
00000000
00000100
00000000
00001000
00000000
00000100
00000000
00001000
00000000
,
00000010
00000000
00000110
00000000
00000001
00000100
00000010
00001000
,
00000100
00000000
00000000
00000100
00000000
00000000
00010000
00000000
00001000
00000000
00000000
00000000
01010000
00000000
00000000
00000000
,
20000000
00000000
00000000
30100000
,
01000000
00010000
00100000
00001000
,
00010000
00000010
00001000
00000100
,
00000010
00000000
00000000
00000001
00000000
00000000
00000000
00000000
,
00002000
00000000
00000000
00003002
,
00000203
00002300
00023000
02030000
,
23000000
00100000
30020000
00100000
,
20030000
01000000
30020000
01000000
,
10030000
01000000
10000000
01000000
,
00010000
00000000
00001000
00000000
00010000
00001000
00000100
00000000
,
00000001
00000010
00000001
00000010
,
00001000
00000000
00010000
00000000
00100000
10000000
01000000
00000000
,
00100000
00010000
00100000
00001000
00010000
00010000
00002000
00000000
,
00013000
00001000
00010000
00000100
00001000
00001000
00000020
00000000
,
00000130
00000001
00000010
00000001
00000100
00000010
00001000
00000100
,
00010000
00000000
00000000
00000000
00001000
00010000
00000000
00001000
00000000
01000000
00100000
00000000
01000000
00000000
00000000
00000000
,
00010000
00100000
00001000
00010000
00001000
00000000
00011000
00000000
,
00000010
00001000
00000010
00000000
00000100
00000010
00000100
00000000
,
00000001
00000010
00001000
00010000
00100000
10000000
00100000
00010000
,
00001000
00011000
00000010
00001001
,
00001000
00000100
00000010
00000100
00001000
00000000
00011000
00000000
,
00100000
00010000
00100000
00000000
01000000
10000000
01000000
00000000
,
10000000
01000000
00010000
00001000
00000100
00000001
00000100
00001000
,
00010000
00011000
00100000
10010000
,
02000000
00000000
03100000
00000000
00010000
01000000
00100000
00000000
,
10000000
00100000
00010000
00000000
00001000
00000010
00000001
00000000
,
00000100
00000001
00000010
00000100
00001000
00000100
00010000
00001000
,
00100000
10010000
00100000
01100000
,
10000000
01000000
00010000
01000000
10000000
00000000
10010000
00000000
,
00100000
01000000
00001000
00010000
00000010
00001000
00000001
00000000
,
00002000
00000000
00000100
00000000
,
00003001
00000000
00000000
00000100
00000000
00000000
00001000
00000000
00010000
00000000
00001000
00000000
00100000
00000000
00010000
00000000
,
20000000
30100000
01000000
00100000
,
10000000
00010000
00100000
00001000
,
00010000
00000100
00001000
00000100
,
00000010
00000001
00000100
00000110
,
00000001
00000100
00001000
00010000
01000000
00000000
01100000
00000000
,
10000000
01000000
00010000
00001000
00000100
00000000
00000110
00000000
,
00000001
00000010
00001000
00010000
00001000
00010000
00100000
10000000
,
00010000
00000000
00000000
00100000
00000000
00000000
00001000
00000000
00000000
00010000
00000000
00000000
00011000
00000000
00000000
00000000
;

//---------------dance-double - ----------------
#NOTES:
     dance-double:
     :
     Hard:
     15:
     0.728554,0.766957,0.199669,0.266225,0.690522,613.000000,589.000000,24.000000,32.000000,0.000000,0.000000,0.728554,0.766957,0.199669,0.266225,0.690522,613.000000,589.000000,24.000000,32.000000,0.000000,0.000000:
00000000
00000000
00000000
00000000
,
00000000
00000000
00000000
00000000
,
00000000
00000000
00000000
00000000
,
00000000
00000000
00000000
00000000
,
00000000
00000000
00000000
00000000
,
00000000
00000000
00000000
00000000
,
00010000
00001000
00010000
00001000
00000100
00000010
00000100
00000010
,
00001000
00000100
00001000
00000100
00010000
00001000
00010000
00001000
,
01000000
00100000
01000000
00000000
00010000
00100000
00010000
00000000
00100000
00001000
00100000
00000000
00001000
00010000
00001000
00000000
,
00000100
00000001
00000000
00000010
00000100
00001000
00000000
00000100
00000000
00010000
00001000
00000000
01000000
00010000
01000000
00000000
,
00100000
00000000
10000000
00000000
01000000
00010000
00000000
00001000
00000000
00000010
00000000
00000000
00000100
00000000
00001000
00000010
,
00001000
00000000
00000001
00000100
00000001
00000100
00000000
00000001
00000000
00000010
00000000
00000100
00001000
00000000
00000100
00000000
,
00010000
00000000
00001000
00000000
00100000
00010000
00000000
10000000
00000000
00100000
00000000
00000000
01000000
00000000
00001000
00010000
,
00000010
00000000
00000200
00000000
00000000
00000000
00000310
00000000
00001000
00000100
00001000
00000100
00010000
00001000
00010000
00000000
,
00001000
00000000
00100000
00000000
00010000
01000000
00010000
00000000
10000000
00000000
00100000
01000000
00200000
00000000
00000000
00000000
,
10300000
00000000
01000000
00000000
00010000
00001000
00010000
00000000
00000010
00000000
00001000
00000100
00002000
00000000
00000000
00000000
,
00003001
00000100
00000001
00000000
00000010
00000100
00000010
00000000
00001000
00010000
00001000
00000000
00100000
01000000
00100000
00000000
,
01000000
00000000
00010000
01000000
00000000
10000000
01000000
00000000
00010000
00001000
00000000
00000000
00011000
00000000
00000000
00000000
,
00000020
00000000
00000031
00001000
00000010
00000100
00000001
00000100
,
00002000
00000000
00013000
01000000
10000000
01000000
00100000
00010000
,
02000000
00000000
03001000
00010000
00000010
00001000
00000001
00000100
,
00000020
00000000
00000000
00000000
00001030
00000000
00000100
00000000
00010000
00000000
00002000
00000000
00103000
00010000
00100000
00000000
,
01020000
00000000
10030000
00100000
01000000
00010000
00100000
00001000
,
00021000
00000000
00000000
00000000
00030010
00000000
00001000
00000000
00000001
00000000
00000010
00000000
00000100
00001000
00000100
00001000
,
00000100
00000000
00010000
00000000
00001000
00010000
00000000
00100000
10000000
00000000
01000000
00010000
00000000
00001000
00000100
00000000
,
00001100
00000000
00000000
00000101
00000000
00000000
00000011
00000000
00000200
00000000
00000000
00000000
00010300
00001000
00010000
00000000
,
00001000
00000000
00010000
00001000
00000000
01000000
00010000
00000000
10000000
00000000
01000000
00100000
00000000
00010000
00100000
00000000
,
00001000
00000000
00010000
00000010
00000000
00001000
00000010
00000000
00000100
00000000
00000001
00000010
00000000
00000100
00000010
00000000
,
00001000
00000000
00010000
00001000
00000000
00100000
00010000
00000000
10000000
00000000
00100000
01000000
00000000
00010000
01000000
00000000
,
00001000
00000000
00010000
00000100
00000000
00001000
00000100
00000000
00000020
00000000
00000000
00000000
00000031
00000100
00000001
00000000
,
00001000
00000000
00000001
00000010
00000000
00001000
00010000
00000000
00100000
00000000
10000000
01000000
00100000
01000000
00100000
00000000
,
00010000
00000000
01000000
00001000
00010000
00001000
00010000
00000000
00000010
00000000
00001000
00000001
00001000
00000010
00000100
00000010
,
00000100
00000000
00000000
00000000
00001000
00010000
00000000
00010000
00100000
00000000
10000000
01000000
10000000
01000000
10000000
00000000
,
11000000
00000000
00000000
01010000
00000000
00000000
00011000
00000000
00001010
00000000
00000000
00000000
00000100
00000001
00000100
00000000
,
00000020
00000000
00000000
00000130
,
00000001
00000100
00001000
00010000
,
01000000
10000000
00100000
00010000
,
00001000
00000000
00000000
00000010
00000000
00000000
00000000
00000000
,
00002000
00000000
00000000
00023000
,
00230000
20300000
32000000
03020000
,
00032000
00003200
00000302
00000023
,
00002030
00023000
00230000
00320000
,
00031000
00010000
00001000
00010000
00000010
00001000
00000010
00001000
,
00000001
00000100
00000001
00000100
00001000
00010000
01000000
00000000
,
10000000
01000000
10000000
01000000
00100000
00010000
00100000
00010000
,
01000000
00001000
01000000
00001000
00010000
00001000
00010000
00000000
00000100
00001000
00000100
00000000
00000010
00000001
00000010
00000000
,
00000001
00000000
00000100
00000000
00001000
00000100
00001000
00000000
00010000
00000000
00001000
00010000
00002000
00000000
00000000
00000000
,
00013000
00000000
01000000
00000000
10000000
00100000
10000000
00000000
00100000
00000000
00010000
00001000
00020000
00000000
00000000
00000000
,
00031000
00000100
00001000
00000000
00000100
00000010
00000100
00000000
00000001
00000010
00000001
00000000
00001000
00000100
00001000
00000000
,
00000001
00000010
00000000
00001000
00010000
00001000
00000000
00010000
00000000
00100000
10000000
00000000
00010000
01000000
00010000
00000000
,
10000000
00000000
00100000
00000000
01000000
00010000
01000000
00000000
00001000
00010000
00001000
00010000
00000000
00000100
00001000
00000000
,
00000010
00000100
00000010
00000100
00000000
00000001
00000010
00000000
00000100
00001000
00000100
00001000
00000100
00000000
00010000
00000000
,
00001000
00010000
00001000
00000000
01000000
00010000
01000000
00000000
00100000
10000000
00100000
00000000
10000000
01000000
10000000
00000000
,
00010000
00000000
01000000
00000000
00000000
00100000
00000000
00100000
10000000
00000000
01000000
00000000
00010000
00000000
00001000
00000000
,
00000100
00000000
00000010
00000000
00001000
00000100
00001000
00000000
00000001
00000010
00000001
00000100
00000000
00001000
00010000
00000000
,
00001000
00010000
00001000
00010000
00000000
00100000
00000000
00100000
01000000
00010000
01000000
00000000
00100000
00000000
10000000
00000000
,
01000000
00100000
01000000
00000000
00100000
00010000
00100000
00000000
00001000
00010000
00001000
00000000
00010000
00000100
00010000
00000000
,
00001010
00000000
00000000
00000000
00000001
00000000
00000010
00000000
00000000
00001000
00000000
00000000
00010000
00000000
00001000
00000000
,
00012000
00000000
00000000
00000000
01003000
00000000
00010000
00000000
10000000
00100000
01000000
00100000
10000000
00000000
01000000
00000000
,
00100000
00010000
00100000
00001000
00000000
00010000
00000100
00000000
00001000
00000010
00001000
00000100
00000010
00000000
00000001
00000000
,
00000010
00000001
00001000
00000000
00000100
00010000
00001000
00000000
00100000
00010000
10000000
00000000
00100000
01000000
00010000
00000000
,
10000000
01000000
10000000
00000000
01000000
00010000
00000000
00010000
00001000
00000000
00001000
00000000
00000100
00000000
00000100
00000000
,
00000001
00000000
00000010
00000000
00000100
00001000
00000001
00000000
00000100
00000010
00001000
00000010
00000000
00010000
00001000
00000000
,
01000000
00010000
01000000
00100000
00000000
10000000
01000000
00000000
00100000
00010000
00100000
00000000
00001000
00010000
00001000
00000000
,
00002100
00000010
00000001
00000010
,
00003100
00000000
00000000
00011000
00000000
00000000
00110000
00000000
10000000
01000000
10000000
00000000
00010000
00000000
01000000
00000000
,
00200000
00000000
10300000
01000000
00100000
00010000
01000000
00010000
,
00100000
00000000
00001000
00000000
00010000
00000100
00000000
00001000
00000000
00001000
00000000
00000001
00000010
00000000
00000000
00000000
,
00000100
00001000
00000100
00010000
00001000
01000000
00010000
00100000
,
01000000
00000000
10000000
00000000
00100000
01000000
00100000
00000000
10000000
00010000
01000000
00010000
10000000
00000000
00000000
00000000
,
00100000
10000000
01000000
00000000
00010000
00001000
00010000
00000000
00001000
00000000
00011000
00000000
00011000
00000000
00000000
00000000
,
00000010
00000001
00000100
00000000
00001000
00010000
00001000
00000000
00010000
00000000
00011000
00000000
00011000
00000000
00000000
00000000
,
00100000
00010000
00100000
00000000
00001000
00010000
00001000
00000000
00010000
00001000
00010000
00000000
00000100
00001000
00000100
00000000
,
00000101
00000000
00000000
00001100
00000000
00000000
00011000
00000000
00000000
01010000
00000000
00000000
10100000
00000000
00000000
00000000
;

//---------------dance-single - ----------------
#NOTES:
     dance-single:
     :
     Challenge:
     16:
     0.845027,1.015815,0.341101,0.540770,1.156416,711.000000,670.000000,41.000000,65.000000,5.000000,0.000000,0.845027,1.015815,0.341101,0.540770,1.156416,711.000000,670.000000,41.000000,65.000000,5.000000,0.000000:
// measure 0
0000
0000
0000
0000
,  // measure 1
0000
0000
0000
0000
,  // measure 2
0000
0000
0000
0000
,  // measure 3
0000
0000
0000
0000
,  // measure 4
0000
0000
0000
0000
,  // measure 5
0000
0000
0000
0000
,  // measure 6
0001
1000
0001
1000
0001
1000
0001
1000
0001
1000
0001
1000
0001
1000
0001
1000
,  // measure 7
0010
0100
0010
0100
0010
0100
0010
0100
0010
0100
0010
0100
0010
0100
0010
0100
,  // measure 8
0001
0010
0100
1000
0010
0100
0001
0010
0100
1000
0010
0100
0001
0010
0100
1000
,  // measure 9
0020
0000
0000
0130
,  // measure 10
0001
0000
0010
0000
0100
0010
0000
0001
0000
1001
0000
0000
1000
0000
0001
0000
,  // measure 11
1000
0000
0100
0000
0010
0100
0000
1000
0000
1001
0000
0001
0200
0000
0000
0000
,  // measure 12
0320
0000
0000
0000
0130
0001
0000
1000
0000
1001
0000
0000
0001
0000
0100
0000
,  // measure 13
1000
0100
0000
0001
0100
0000
1000
0100
0000
0001
0100
0000
0010
0100
0010
0000
,  // measure 14
1000
0100
1000
0100
1000
0100
1000
0100
1000
0100
1000
0100
2000
0000
0000
0000
,  // measure 15
3001
0010
0001
0010
0001
0010
0001
0010
0001
0010
0001
0010
0002
0000
0000
0000
,  // measure 16
1003
0100
0010
0001
0100
0010
1000
0100
0010
0001
0100
0010
1000
0100
0010
0001
,  // measure 17
0100
0000
0000
0110
0000
0000
1001
0000
0000
0110
0000
0000
1001
0000
0000
0000
,  // measure 18
0020
0000
0000
0000
0130
0001
1000
0001
0000
0001
0100
0001
1000
0001
0100
0001
,  // measure 19
2000
0000
0000
0000
3010
1000
0001
1000
0000
1000
0001
1000
0010
1000
0001
1000
,  // measure 20
0020
0000
0000
0000
0130
0010
1000
0010
0000
0010
1000
0010
0100
0010
1000
0010
,  // measure 21
0200
0000
0000
0000
0301
0010
0100
0010
0000
0001
0010
0100
0020
0000
0000
0030
,  // measure 22
0202
0000
0000
0303
0100
1000
0100
0001
0000
0100
1000
0100
0010
0100
1000
0100
,  // measure 23
0020
0000
0000
0000
1030
0100
0010
0001
0200
0000
0000
0000
0310
0100
0010
0100
,  // measure 24
0002
0000
0000
0000
0000
1003
0000
1000
0010
0000
0010
0100
0000
0100
0001
0000
,  // measure 25
1001
0000
0000
0110
0000
0000
1001
0000
0201
0000
0000
0000
0302
0000
0010
0000
,  // measure 26
0013
0000
1000
0010
0000
0001
0010
0000
0100
0000
0001
0100
0000
1000
0100
0000
,  // measure 27
0010
0000
1000
0010
0000
0001
0010
0000
0100
0010
0001
0010
0100
0010
0001
0010
,  // measure 28
0100
0000
1000
0100
0000
1000
0010
0000
0001
0000
0000
0011
0000
0000
1010
0000
,  // measure 29
1100
0000
0000
0101
0000
0000
1100
0000
1000
0100
0020
0000
0230
0000
0000
0300
,  // measure 30
1100
0000
1000
0100
0000
0100
0001
0100
0010
0000
0001
0010
0001
0010
0001
0000
,  // measure 31
0101
0000
0001
0010
0100
1000
0100
0010
0001
0000
1000
0100
0010
0001
0010
0100
,  // measure 32
2000
0000
0000
0000
0000
3001
0000
0001
0100
0000
0100
0010
0000
0010
0001
0000
,  // measure 33
0011
0000
0000
1010
0000
0000
1001
0000
0101
0000
0000
0000
2010
0000
0000
0000
,  // measure 34
3020
0000
0000
2030
,  // measure 35
3200
0320
0230
2300
,  // measure 36
3002
0023
0230
0320
,  // measure 37
0032
0000
0000
2003
0000
0000
3000
0000
,  // measure 38
0020
0000
0000
2030
,  // measure 39
3200
0320
0032
0023
,  // measure 40
0230
0302
0203
2300
,  // measure 41
3020
0230
0302
0023
,  // measure 42
0031
0000
1000
0000
0100
1000
0000
0100
1000
0001
1000
0000
0001
0000
0010
0000
,  // measure 43
0001
0100
0000
0001
0010
0100
0010
0001
1000
0000
0100
0000
1000
0100
0010
0000
,  // measure 44
0001
0010
0100
0000
1000
0100
0000
0100
0001
0100
1000
0000
0001
0000
0100
0000
,  // measure 45
1000
0100
0000
0100
0001
0000
1000
0000
0001
0010
0001
1000
0010
1000
0100
0000
,  // measure 46
1000
0100
0010
0001
0100
0010
1000
0100
0010
0001
0100
0010
2000
0000
0000
0000
,  // measure 47
3001
0010
0100
1000
0010
0100
0001
0010
0100
1000
0010
0100
0002
0000
0000
0000
,  // measure 48
1003
0100
0001
0100
1000
0010
0001
0010
1000
0100
0001
0100
1000
0010
0001
0010
,  // measure 49
1000
0000
0000
0000
0001
0010
0000
0001
0000
0100
0010
0000
0100
0000
0001
0000
,  // measure 50
1000
0100
1000
0000
0001
0010
0001
1000
0000
1000
0100
0001
0000
0100
1000
0000
,  // measure 51
0001
0010
0100
1000
0000
1000
0001
0000
0100
0001
0100
0001
1000
0001
1000
0000
,  // measure 52
0001
0100
1000
0000
1000
0100
0001
0000
1000
0100
0001
0000
0001
0100
10MM
0000
,  // measure 53
0010
0000
0010
0000
0001
0100
0000
0100
1000
0000
0010
0000
0010
0001
1000
0000
,  // measure 54
0M01
0010
0100
0000
0100
0010
0001
0000
1000
0100
0010
0001
0000
0001
1000
0001
,  // measure 55
1000
0010
1000
0010
0000
0010
0001
0010
0200
0000
0000
0000
0310
0100
1000
0000
,  // measure 56
0100
0001
0100
0000
0100
1000
0100
0000
0010
1000
0020
0000
0130
0001
0010
0100
,  // measure 57
0020
0000
0000
0000
0031
0000
1001
0000
0000
1010
0000
0000
0110
0000
0101
0000
,  // measure 58
0001
1000
0100
0000
1000
0010
0100
0000
0100
0010
0001
0010
0000
0010
0100
0000
,  // measure 59
0001
0010
0100
0010
0000
0010
1000
0000
0010
0000
0001
0010
0100
1000
0010
0000
,  // measure 60
0100
0001
0010
0000
0100
1000
0010
0000
1000
0100
0010
0000
0100
0010
M001
0010
,  // measure 61
0100
0000
0100
0000
0001
0010
0000
0100
0010
0000
0010
0000
1000
0100
0010
0000
,  // measure 62
0010
1000
0M01
0000
0001
1000
0010
1000
0000
0100
0010
0001
0000
0010
0001
0000
,  // measure 63
1000
0100
0010
0100
0000
0100
1000
0000
2001
0000
0000
0000
3001
0010
0100
1000
,  // measure 64
0020
0230
0320
2030
,  // measure 65
3010
1000
0100
0010
0001
0000
0100
0001
0010
0100
1000
0100
0010
0001
1000
0000
,  // measure 66
2020
0000
3030
0000
0001
1000
0000
1010
0000
1000
0001
0000
0100
0000
0001
1000
,  // measure 67
0010
0000
1000
0000
0100
1000
0000
1001
0000
1100
0000
1000
0020
0000
0000
0000
,  // measure 68
0130
0000
0000
0000
0001
1000
0000
1001
0000
0101
0000
0000
0110
0000
0010
1000
,  // measure 69
0001
0000
0001
0100
0000
1000
0100
0000
0001
0100
1000
0100
0002
0000
0003
0000
,  // measure 70
1000
0100
0010
0100
1000
0100
0010
0100
1000
0100
0010
0100
2000
0000
0000
0000
,  // measure 71
3001
0010
0100
0010
0001
0010
0100
0010
0001
0010
0100
0010
0002
0000
0000
0000
,  // measure 72
1003
0100
0010
0001
0100
0010
1000
0100
0010
0001
0100
0010
1000
0100
0001
0100
,  // measure 73
1100
0000
0000
0101
0000
0000
0011
0000
0000
1010
0000
0000
2002
0000
0000
0000
,  // measure 74
3003
0000
0000
0000
;
