#TITLE:I Want To Do This Keep;
#SUBTITLE:;
#ARTIST:KOTONOHOUSE;
#TITLETRANSLIT:;
#SUBTITLETRANSLIT:;
#ARTISTTRANSLIT:;
#GENRE:;
#CREDIT:;
#BANNER:I Want To Do This Keep.png;
#BACKGROUND:;
#LYRICSPATH:;
#CDTITLE:;
#MUSIC:I Want To Do This Keep.ogg;
#OFFSET:0.000000;
#SAMPLESTART:27.200001;
#SAMPLELENGTH:15.000000;
#SELECTABLE:YES;
#BPMS:0.000000=150.000000
;
#STOPS:
;
#BGCHANGES:;
#KEYSOUNDS:;
#ATTACKS:;

//---------------dance-single - ----------------
#NOTES:
     dance-single:
     :
     Beginner:
     3:
     0.138755,0.215055,0.050676,0.143581,0.000000,115.000000,109.000000,6.000000,17.000000,0.000000,0.000000,0.138755,0.215055,0.050676,0.143581,0.000000,115.000000,109.000000,6.000000,17.000000,0.000000,0.000000:
0000
0000
0000
0000
,
0000
0000
0000
0000
,
0000
0000
0000
0000
,
0000
0000
0000
0000
,
0000
0000
0000
0000
,
0001
0000
0100
0000
,
0010
0000
0010
0000
,
1000
0000
0100
0000
,
0010
0000
0010
0000
,
0002
0000
0000
0000
,
0003
0000
0000
0000
,
0200
0000
0000
0000
,
0300
0000
0000
0000
,
0020
0000
0030
0000
,
2000
0000
3000
0000
,
0002
0000
0003
0000
,
0000
0000
0000
0000
,
1001
0000
0000
0000
,
1001
0000
0000
0000
,
0001
0000
0100
0000
,
1000
0000
0000
0000
,
1000
0000
0100
0000
,
0001
0000
0000
0000
,
1000
0000
0001
0000
,
1001
0000
0000
0000
,
1000
0000
0010
0000
,
0100
0000
0010
0000
,
1000
0000
0010
0000
,
0001
0000
0000
0000
,
0001
0000
0010
0000
,
1000
0000
0000
0000
,
1000
0000
0100
0000
,
0010
0000
0001
0000
,
0001
0001
0001
0000
,
0100
0000
0010
0000
,
1000
1000
1000
0000
,
0100
0000
0010
0000
,
0001
0001
0001
0000
,
0010
0000
0100
0000
,
1000
1000
1000
0000
,
0010
0000
0100
0000
,
0020
0000
0000
0000
,
0030
0000
0000
0000
,
0200
0000
0000
0000
,
0300
0000
0000
0000
,
0002
0000
0003
0000
,
2000
0000
3000
0000
,
0020
0000
0030
0000
,
0000
0000
0000
0000
,
0001
0000
0100
0000
,
1000
1000
1000
0000
,
1000
0000
0100
0000
,
0010
0010
0010
0000
,
0001
0000
0100
0000
,
0010
0010
0010
0000
,
1000
0000
0001
0000
,
1001
0000
0000
0000
,
0010
0000
0100
0000
,
0010
0010
0010
0000
,
0001
0001
0100
0000
,
0010
0010
0010
0000
,
1000
1000
0100
0000
,
0010
0010
0010
0000
,
0001
0000
1000
0000
,
1001
0000
0000
0000
,
0020
0000
0030
0000
,
2000
0000
3000
0000
,
0200
0000
0300
0000
,
0002
0000
0003
0000
,
2000
0000
3000
0000
,
0002
0000
0003
0000
,
2000
0000
3000
0000
,
0000
0000
0000
1001
;

//---------------dance-single - ----------------
#NOTES:
     dance-single:
     :
     Easy:
     7:
     0.244932,0.307221,0.101351,0.135135,0.000000,203.000000,191.000000,12.000000,16.000000,0.000000,0.000000,0.244932,0.307221,0.101351,0.135135,0.000000,203.000000,191.000000,12.000000,16.000000,0.000000,0.000000:
0000
0000
0000
0000
,
0000
0000
0000
0000
,
0000
0000
0000
0000
,
0000
0000
0000
0000
,
0000
0000
0000
0000
,
0001
0100
1000
0100
,
0001
1000
0001
0000
,
1000
0100
0001
0100
,
1000
0001
1000
0000
,
1001
0000
0000
0000
,
1001
0000
0000
0000
,
1001
0000
0000
0000
,
1001
0000
0000
0000
,
0001
0000
0010
0000
,
0100
0000
1000
0000
,
1001
0000
0110
0000
,
0001
1000
0001
0000
,
1000
1000
0100
0100
,
0001
0100
1000
0001
,
1000
0010
1000
0000
,
0010
0001
0010
0000
,
0001
0100
0001
0000
,
0100
1000
0100
0000
,
0010
0000
0000
0010
0000
0000
0010
0000
,
0100
0100
0010
0000
,
0001
0010
0001
0010
,
1000
0010
0001
0000
,
1000
1000
0010
0000
,
0010
0010
0001
0000
,
0001
0001
0100
0000
,
0100
0100
1000
0000
,
1000
0010
0001
0000
,
0001
0100
1000
0000
,
1000
0010
0100
0100
,
0001
0010
0100
0100
,
1000
0010
0100
0100
,
0001
0010
0100
0100
,
0010
0001
1000
1000
,
0010
1000
0001
0001
,
0010
0001
1000
1000
,
0010
1000
0001
0001
,
0002
0000
0000
0003
,
0200
0000
0000
0300
,
0020
0000
0000
0030
,
2000
0000
0000
3000
,
2000
3000
0200
0300
,
0020
0030
0002
0003
,
1000
0000
0001
1001
,
1000
0001
1000
0000
,
0001
1000
0001
0000
0010
0000
0100
0000
,
1000
1000
1000
0000
,
1000
0001
1000
0000
0010
0000
0100
0000
,
0001
0010
0100
0000
,
0001
1000
0001
0000
0010
0000
0100
0000
,
1000
0010
0100
0000
,
0001
0000
0000
0001
0000
0000
0001
0000
,
1000
1000
0002
0003
,
1000
0010
1000
0010
,
0100
0001
0100
0000
,
0001
0010
0011
0000
,
1000
0100
1100
0000
,
0010
1000
1010
0000
,
0100
0001
0101
0000
,
0001
0010
1000
0000
,
1000
0100
0001
0000
,
0002
0000
0000
0003
,
0200
0000
0000
0300
,
2000
0000
0000
3000
,
0020
0000
0000
0030
,
2000
0000
0000
3000
,
0200
0000
0000
0300
,
0002
0000
0000
0003
,
0010
0010
0010
0000
0010
0000
1001
0000
;

//---------------dance-single - ----------------
#NOTES:
     dance-single:
     :
     Medium:
     12:
     0.480212,0.614443,0.363176,0.160473,0.278716,398.000000,355.000000,43.000000,19.000000,0.000000,0.000000,0.480212,0.614443,0.363176,0.160473,0.278716,398.000000,355.000000,43.000000,19.000000,0.000000,0.000000:
0000
0000
0000
0000
,
0000
0000
0000
0000
,
0000
0000
0000
0000
,
0000
0000
0000
0000
,
0000
0000
0000
0000
,
1000
0100
1000
0000
0001
0000
1001
0000
,
0001
0100
0001
0000
1000
0000
1001
0000
,
1000
0100
1000
0000
0001
0000
1001
0000
,
0001
0100
0001
0000
1000
0000
1001
0000
,
0011
0000
0000
0000
,
0101
0000
0000
0000
,
1010
0000
0000
0000
,
1100
0000
0000
0000
,
1001
0000
0110
0000
,
1001
0000
0110
0000
,
1001
0000
0010
0100
,
0001
1000
2002
3003
,
0001
0000
0001
0000
0100
0010
0100
0010
,
1000
1000
0001
2000
,
3001
0000
0010
0100
0000
0010
0001
0000
0010
0100
0000
1000
,
0010
0000
1000
0001
0000
1000
0010
0000
1000
0001
0000
0000
,
0100
0000
0001
0010
0000
0001
0100
0000
0001
0010
0000
0001
,
1000
0000
0100
0010
0000
0100
1000
0000
0000
0200
0000
0000
,
1300
0000
0000
1010
0000
0000
0011
0000
,
1000
0001
2002
3003
,
0001
0000
0001
0100
0000
0000
0100
0000
0100
0010
0000
0000
,
0010
0000
0010
1000
0000
1000
0100
0000
0000
0110
0000
0000
,
0001
0000
0001
1000
0000
1000
0010
0000
0010
0100
0000
0100
,
0001
0000
0001
1000
0000
1000
0100
0000
0100
0010
0000
0000
,
0100
0000
0100
1000
0000
1000
0001
0000
0001
0100
0000
0100
,
0010
0000
0010
1000
0000
1000
0001
0000
0000
0110
0000
0000
,
0001
0000
0100
1000
0000
0000
1000
0000
0010
0001
0000
0000
,
0100
1000
0010
1001
,
0100
0000
0000
0100
0001
0000
0010
0000
0001
0000
0000
0000
1001
0000
0000
0000
,
0100
0000
0000
0100
1000
0000
0010
0000
1000
0000
0000
0000
1001
0000
0000
0000
,
0100
0000
0000
0100
0001
0000
0010
0000
0001
0000
0000
0000
1001
0000
0000
0000
,
0100
0000
0000
0100
1000
0000
0010
0000
1000
0000
0000
0000
1001
0000
0000
0000
,
0010
0000
0000
0010
0001
0000
0100
0000
0001
0000
0000
0000
1001
0000
0000
0000
,
0010
0000
0000
0010
1000
0000
0100
0000
1000
0000
0000
0000
1001
0000
0000
0000
,
0010
0000
0000
0010
0001
0000
0100
0000
0001
0000
0000
0000
1001
0000
0000
0000
,
0010
0000
0000
0010
1000
0000
0100
0000
1000
0000
0000
0000
1001
0000
0000
0000
,
0001
0100
0001
0100
0010
1000
0010
0000
,
1000
0100
1000
0100
0010
0001
0010
0000
,
0001
0100
1000
0100
0001
1000
0001
0000
,
1000
0100
0001
0100
1000
0001
1000
0000
,
0010
1000
0100
1000
0010
1000
0100
0000
,
0010
0001
0100
0001
0010
0001
0100
0000
,
0010
1000
0100
0010
0001
0100
0010
1000
,
0001
1000
2002
3003
,
0010
0100
0010
0000
0010
0000
0010
0100
,
0010
0010
2002
3003
,
0001
0000
0100
0000
0010
0000
0100
0000
0001
0000
0000
0101
0000
0000
0101
0000
,
1000
0000
0100
0000
0010
0000
0100
0000
1000
0000
0000
1100
0000
0000
1100
0000
,
0001
0000
0010
0000
0100
0000
0010
0000
0001
0000
0000
0011
0000
0000
0011
0000
,
1000
0000
0010
0000
0100
0000
0010
0000
1000
0000
0000
1010
0000
0000
1010
0000
,
1001
0000
0000
0101
0000
0000
1010
0000
,
0001
1000
2002
3003
,
1000
0000
1000
0100
0000
0000
0001
0000
0001
0100
0000
0000
,
0001
0000
0001
1000
0000
1000
0020
0000
0000
0030
0000
0000
,
1000
0000
0010
0100
0000
0001
1000
0000
0010
0100
0000
0001
,
1000
0000
0010
0100
0000
0001
1000
0000
0010
0100
0000
0000
,
0001
0000
0010
0100
0000
1000
0010
0000
0100
0001
0000
0001
,
0100
0000
0010
1000
0000
0100
0010
0000
0001
1000
0000
0000
,
0001
0000
0100
0010
0000
1000
0001
0000
0010
0100
0000
1000
,
0010
0001
0100
1000
,
0020
0030
2000
3000
,
0002
0003
0200
0300
,
0002
0003
2000
3000
,
0100
1000
0001
0100
,
0010
1000
0001
0100
,
0001
1000
0100
1000
,
0010
1000
0100
0001
,
0010
0001
0100
0010
1000
0000
1001
0000
;

//---------------dance-single - ----------------
#NOTES:
     dance-single:
     :
     Hard:
     14:
     0.608108,0.737331,0.354730,0.295608,0.637669,504.000000,462.000000,42.000000,35.000000,0.000000,0.000000,0.608108,0.737331,0.354730,0.295608,0.637669,504.000000,462.000000,42.000000,35.000000,0.000000,0.000000:
// measure 0
0000
0000
0000
0000
,  // measure 1
0000
0000
0000
0000
,  // measure 2
0000
0000
0000
0000
,  // measure 3
0000
0000
0000
0000
,  // measure 4
0000
0000
0000
0000
,  // measure 5
0001
0100
1000
0100
0001
0000
1001
0000
,  // measure 6
1000
0100
0001
0100
1000
0000
1001
0000
,  // measure 7
0001
0100
1000
0100
0001
0000
1001
0000
,  // measure 8
1000
0100
0001
0100
1000
0000
1001
0000
,  // measure 9
0002
0000
0000
0000
0000
0003
0000
0000
,  // measure 10
2000
0000
0000
0000
0000
0000
0000
0000
0000
3000
0000
0000
0000
0000
0000
0000
,  // measure 11
0002
0000
0003
0000
,  // measure 12
2000
0000
0000
0000
0000
0000
0000
3000
0000
0000
0000
0000
0000
0000
0000
0000
,  // measure 13
0020
0000
0000
0000
0000
0000
0030
0000
0200
0000
0000
0000
0000
0300
0000
0000
,  // measure 14
0020
0000
0000
0000
0030
0000
0000
0000
0200
0000
0000
0300
0000
0000
0000
0000
,  // measure 15
0020
0000
0030
0000
0000
0000
0000
0000
0200
0300
0000
0000
0010
0000
0000
0000
,  // measure 16
1000
0001
1001
0100
,  // measure 17
1000
0000
1001
0000
0001
0100
0010
1000
,  // measure 18
0100
1001
0002
2003
,  // measure 19
3001
0010
0001
0010
0001
0010
0001
0100
0010
0100
0010
0100
,  // measure 20
0010
1000
0100
1000
0100
1000
0100
0000
1000
0001
0000
0000
,  // measure 21
1000
0010
1000
0010
1000
0010
1000
0100
0010
0100
0010
0100
,  // measure 22
0010
0000
0000
0000
0001
0000
0000
0000
0010
0000
0000
0000
0001
0000
0000
0000
0010
0000
0000
0000
0001
0000
0000
0000
0100
0000
0000
0000
0000
0000
0000
0000
0000
0000
0000
0000
0001
0000
0000
1000
0000
0000
0001
0000
0000
1000
0000
0000
,  // measure 23
0001
0000
0000
0101
0000
0000
1010
0000
,  // measure 24
1000
1000
0002
1003
,  // measure 25
0001
0100
0001
1000
0100
1000
0001
1000
0001
1000
0000
0000
,  // measure 26
0100
1000
0010
0100
0001
0100
0010
0000
0000
0010
0000
0000
,  // measure 27
1000
0100
1000
0100
1000
0100
0001
0100
0001
0100
0001
0100
,  // measure 28
1000
0100
1000
0100
1000
0100
0001
0100
0001
0100
0000
0000
,  // measure 29
1000
0010
1000
0010
1000
0010
0001
0010
0001
0010
0001
0010
,  // measure 30
1000
0010
1000
0010
1000
0010
0001
0010
0001
0010
0000
0000
,  // measure 31
1000
0000
1000
0100
0000
0100
0001
0000
0001
0010
0000
0010
,  // measure 32
1000
0000
0100
0001
0000
0010
1000
0000
0000
1001
0000
0000
,  // measure 33
0001
0000
0001
1000
0100
0000
1000
0000
1100
0000
0000
0000
0101
0000
0000
0000
,  // measure 34
0100
0000
0100
0010
1000
0000
0010
0000
1010
0000
0000
0000
1100
0000
0000
0000
,  // measure 35
1000
0000
1000
0001
0010
0000
0001
0000
0011
0000
0000
0000
1010
0000
0000
0000
,  // measure 36
0010
0000
0010
0100
0001
0000
0100
0000
0101
0000
0000
0000
0011
0000
0000
0000
,  // measure 37
0001
0000
0001
1000
0100
0000
1000
0000
1100
0000
0000
0000
0101
0000
0000
0000
,  // measure 38
0100
0000
0100
0010
1000
0000
0010
0000
1010
0000
0000
0000
1100
0000
0000
0000
,  // measure 39
1000
0000
1000
0001
0010
0000
0001
0000
0011
0000
0000
0000
1010
0000
0000
0000
,  // measure 40
0010
0000
0010
0100
0001
0000
0100
0000
0101
0000
0000
0000
0011
0000
0000
0000
,  // measure 41
1000
0000
0001
0100
0001
0000
0010
0100
1000
0000
0100
1000
0100
0000
0000
0000
,  // measure 42
1000
0000
0001
0000
0100
0000
0010
0000
1000
0001
1000
0001
1000
0000
0000
0000
,  // measure 43
0010
0100
0001
0000
1000
0000
0100
0000
0001
0000
0100
0000
1000
0000
0000
0000
,  // measure 44
0001
0010
1000
0010
0001
0100
0010
0000
,  // measure 45
1000
0100
1000
0100
0010
0000
0001
0000
0100
0010
1000
0000
0001
0000
0100
0000
,  // measure 46
0001
1000
0100
0010
0001
1000
0001
0000
,  // measure 47
0210
0000
0001
0300
,  // measure 48
0001
1000
2002
3003
,  // measure 49
0001
0011
1000
1010
,  // measure 50
1001
0110
2002
3003
,  // measure 51
1000
0000
0100
0010
0001
0000
0100
0010
1000
0000
0000
1001
0000
0000
1001
0000
,  // measure 52
0001
0000
0010
0100
1000
0000
0010
0100
0001
0000
0000
1001
0000
0000
1001
0000
,  // measure 53
1000
0000
0010
0100
0001
0000
0010
0100
1000
0000
0000
0110
0000
0000
0110
0000
,  // measure 54
0001
0000
0100
0010
1000
0000
0100
0010
0001
0000
0000
0001
1000
0010
0100
0001
,  // measure 55
1000
0000
0001
0100
0001
0000
0010
0000
0100
1000
0100
0000
0001
0000
0100
0000
,  // measure 56
2000
0001
3010
0110
,  // measure 57
1000
0010
0100
0001
0010
0100
1000
0001
0100
0001
0000
0001
,  // measure 58
0100
0010
1000
0010
0100
0001
0010
0100
1000
0001
0000
0000
,  // measure 59
0001
0100
0001
0100
0001
0100
1000
0100
1000
0100
1000
0100
,  // measure 60
0001
0100
0001
0100
0001
0100
1000
0100
1000
0100
0000
0000
,  // measure 61
0001
0010
0001
0010
0001
0010
1000
0010
1000
0010
1000
0010
,  // measure 62
0001
0010
0001
0010
0001
0010
1000
0010
1000
0010
0000
0000
,  // measure 63
0001
0000
0001
0100
0000
0100
1000
0000
1000
0010
0000
0010
,  // measure 64
0001
0000
0100
1000
0000
0010
0001
0000
0000
1001
0000
0000
,  // measure 65
0002
0100
2003
0010
,  // measure 66
3200
0010
2300
0010
,  // measure 67
3002
0100
0023
0100
,  // measure 68
0032
0203
2300
3200
,  // measure 69
0320
0001
0230
1000
,  // measure 70
0302
0010
2003
0100
,  // measure 71
3200
0001
0320
1000
,  // measure 72
0031
0100
1000
0010
0001
0000
1001
0000
;

//---------------dance-double - ----------------
#NOTES:
     dance-double:
     :
     Easy:
     7:
     0.243726,0.307221,0.101351,0.135135,0.000000,202.000000,190.000000,12.000000,16.000000,0.000000,0.000000,0.243726,0.307221,0.101351,0.135135,0.000000,202.000000,190.000000,12.000000,16.000000,0.000000,0.000000:
00000000
00000000
00000000
00000000
,
00000000
00000000
00000000
00000000
,
00000000
00000000
00000000
00000000
,
00000000
00000000
00000000
00000000
,
00000000
00000000
00000000
00000000
,
00010000
01000000
00100000
01000000
,
00010000
00100000
00001000
00000000
,
00010000
00000100
00000010
00000100
,
00001000
00000010
00010000
00000000
,
00011000
00000000
00000000
00000000
,
00011000
00000000
00000000
00000000
,
00011000
00000000
00000000
00000000
,
00011000
00000000
00000000
00000000
,
00100000
00000000
00010000
00000000
,
10000000
00000000
01000000
00000000
,
00010000
00000000
00001000
00000000
,
00010000
00001000
00011000
00000000
,
00000100
00000100
00001000
00001000
,
00000001
00000100
00000010
00000000
,
00001000
00000100
00001000
00000000
,
00000100
00010000
00001000
00000000
,
01000000
00010000
01000000
00000000
,
00100000
10000000
00010000
00000000
,
00100000
00000000
00000000
00100000
00000000
00000000
00100000
00000000
,
00001000
00001000
00010000
00000000
,
00000100
00001000
00000100
00000001
,
00000100
00001000
00000100
00000000
,
00010000
00010000
00001000
00000000
,
01000000
01000000
00010000
00000000
,
00010000
00010000
00100000
00000000
,
00001000
00001000
00010000
00000000
,
00000100
00001000
00000010
00000000
,
00000100
00000001
00000010
00000000
,
00000001
00000100
00001000
00001000
,
00010000
00100000
10000000
10000000
,
01000000
00010000
00001000
00001000
,
00000010
00000001
00001000
00001000
,
00000001
00000010
00001000
00010000
,
00001000
00010000
01000000
10000000
,
10000000
00100000
00010000
00001000
,
00010000
00001000
00000100
00000001
,
00000002
00000000
00000000
00000003
,
00000020
00000000
00000000
00000030
,
00000200
00000000
00000000
00000300
,
00002000
00000000
00000000
00003000
,
00020000
00030000
00200000
00300000
,
02000000
03000000
20000000
30000000
,
10000000
00000000
00010000
10010000
,
00010000
10000000
00010000
00000000
,
00100000
00010000
00100000
00000000
00001000
00000000
00010000
00000000
,
00001000
00001000
00011000
00000000
,
00000010
00001000
00000010
00000000
00000100
00000000
00000001
00000000
,
00001000
00000100
00001000
00000000
,
00000100
00010000
00000100
00000000
00010000
00000000
00001000
00000000
,
01000000
00010000
00100000
00000000
,
01000000
00000000
00000000
01000000
00000000
00000000
01000000
00000000
,
10000000
10000000
00020000
00030000
,
00100000
00001000
00100000
00001000
,
00010000
00001000
00010000
00000000
,
00000010
00001000
00001010
00000000
,
00000100
00000001
00000101
00000000
,
00010000
00001000
00011000
00000000
,
00001000
01000000
01010000
00000000
,
00100000
10000000
01000000
00000000
,
00010000
00001000
00010000
00000000
,
00002000
00000000
00000000
00003000
,
00000020
00000000
00000000
00000030
,
00000002
00000000
00000000
00000003
,
00000200
00000000
00000000
00000300
,
00002000
00000000
00000000
00003000
,
00020000
00000000
00000000
00030000
,
00200000
00000000
00000000
00300000
,
01000000
01000000
01000000
00000000
01000000
00000000
10010000
00000000
;

//---------------dance-double - ----------------
#NOTES:
     dance-double:
     :
     Medium:
     12:
     0.469353,0.614443,0.228041,0.143581,0.278716,389.000000,362.000000,27.000000,17.000000,0.000000,0.000000,0.469353,0.614443,0.228041,0.143581,0.278716,389.000000,362.000000,27.000000,17.000000,0.000000,0.000000:
00000000
00000000
00000000
00000000
,
00000000
00000000
00000000
00000000
,
00000000
00000000
00000000
00000000
,
00000000
00000000
00000000
00000000
,
00000000
00000000
00000000
00000000
,
00000001
00000010
00000001
00000000
00000100
00000000
00000110
00000000
,
00000010
00010000
00000010
00000000
00010000
00000000
00011000
00000000
,
00100000
00010000
00100000
00000000
00010000
00000000
01010000
00000000
,
01000000
00100000
01000000
00000000
00100000
00000000
10100000
00000000
,
10010000
00000000
00000000
00000000
,
00110000
00000000
00000000
00000000
,
00011000
00000000
00000000
00000000
,
00001100
00000000
00000000
00000000
,
00001001
00000000
00000001
00000000
,
00001000
00000000
00010000
00000000
,
10000000
00000000
00010000
10010000
,
01000000
00100000
02000000
03000000
,
00100000
00000000
00100000
00000000
00001000
00010000
00001000
00010000
,
00000100
00000100
00001000
00000002
,
00000013
00000000
00000001
00000100
00000000
00000001
00000100
00000000
00000010
00001000
00000000
00000010
,
00001000
00000000
00000100
00010000
00000000
00000100
00010000
00000000
00001000
00010000
00000000
00000000
,
00001000
00000000
00100000
00010000
00000000
00100000
00010000
00000000
01000000
00010000
00000000
01000000
,
00010000
00000000
10000000
00100000
00000000
10000000
00100000
00000000
00000000
02000000
00000000
00000000
,
03100000
00000000
00000000
10000000
00000000
00000000
00010000
00000000
,
00100000
00100000
00002000
00003000
,
00010000
00000000
00010000
00000010
00000000
00000000
00000010
00000000
00000010
00000100
00000000
00000000
,
00000100
00000000
00000100
00000001
00000000
00000001
00001000
00000000
00000000
00001001
00000000
00000000
,
00000100
00000000
00000100
00010000
00000000
00010000
00001000
00000000
00001000
01000000
00000000
01000000
,
00001000
00000000
00001000
00010000
00000000
00010000
00000100
00000000
00000100
00001000
00000000
00000000
,
00000010
00000000
00000010
00010000
00000000
00010000
00001000
00000000
00001000
00100000
00000000
00100000
,
00001000
00000000
00001000
00010000
00000000
00010000
00000010
00000000
00000010
00001000
00000000
00000000
,
00000100
00000000
00000100
00010000
00000000
00010000
00001000
00000000
00001000
00100000
00000000
00000000
,
00010000
10000000
01000000
10010000
,
10000000
00000000
00000000
10000000
00100000
00000000
01000000
00000000
00010000
00000000
00100000
00000000
00010000
00000000
00000000
00000000
,
00100000
00000000
00000000
00100000
00001000
00000000
00010000
00000000
00000100
00000000
00001000
00000000
00000010
00000000
00000000
00000000
,
00001000
00000000
00000000
00001000
00000001
00000000
00000100
00000000
00000010
00000000
00010000
00000000
00001000
00000000
00000000
00000000
,
01000000
00000000
00000000
01000000
00010000
00000000
00100000
00000000
01000000
00000000
10000000
00000000
01000000
00000000
00000000
00000000
,
10000000
00000000
00000000
10000000
01000000
00000000
00100000
00000000
00010000
00000000
01000000
00000000
00010000
00000000
00000000
00000000
,
01000000
00000000
00000000
01000000
00001000
00000000
00010000
00000000
00000010
00000000
00001000
00000000
00000100
00000000
00000000
00000000
,
00001000
00000000
00000000
00001000
00000001
00000000
00000010
00000000
00000100
00000000
00010000
00000000
00001000
00000000
00000000
00000000
,
00100000
00000000
00000000
00100000
00010000
00000000
01000000
00000000
00100000
00000000
10000000
00000000
00100000
00000000
00000000
00000000
,
10000000
01000000
10000000
01000000
00100000
00010000
00100000
00000000
,
00001000
00010000
00001000
00010000
00000010
00001000
00000010
00000000
,
00000100
00000001
00000100
00000001
00001000
00000100
00001000
00000000
,
00000100
00010000
00000100
00010000
00001000
01000000
00001000
00000000
,
01000000
00010000
00100000
00010000
01000000
00100000
10000000
00000000
,
01000000
00010000
00001000
00010000
01000000
00010000
00001000
00000000
,
00000010
00000001
00000100
00000001
00000010
00000100
00001000
00000000
,
00000001
00001000
00002002
00003003
,
00000100
00000010
00000100
00000000
00000100
00000000
00000100
00001000
,
00010000
00001000
00022000
00033000
,
00100000
00000000
00010000
00000000
01000000
00000000
00010000
00000000
00100000
00000000
00000000
01100000
00000000
00000000
01100000
00000000
,
10000000
00000000
01000000
00000000
00010000
00000000
00001000
00000000
00010000
00000000
00000000
00011000
00000000
00000000
00011000
00000000
,
00000010
00000000
00001000
00000000
00000100
00000000
00001000
00000000
00000010
00000000
00000000
00000110
00000000
00000000
00000110
00000000
,
00000001
00000000
00000100
00000000
00001000
00000000
00010000
00000000
00001000
00000000
00000000
00011000
00000000
00000000
00011000
00000000
,
00110000
00000000
00000000
01001000
00000000
00000000
00011000
00000000
,
00000100
00000100
00002002
00003003
,
00000001
00000000
00000001
00000010
00000000
00000000
00000100
00000000
00000100
00010000
00000000
00000000
,
00001000
00000000
00001000
00100000
00000000
00100000
00020000
00000000
00000000
00030000
00000000
00000000
,
10000000
00000000
01000000
00100000
00000000
00010000
10000000
00000000
01000000
00100000
00000000
00010000
,
10000000
00000000
10000000
01000000
00000000
01000000
00010000
00000000
00010000
00001000
00000000
00000000
,
00000010
00000000
00000100
00001000
00000000
00000001
00000010
00000000
00000100
00001000
00000000
00000001
,
00000100
00000000
00000100
00001000
00000000
00001000
00010000
00000000
00010000
00100000
00000000
00000000
,
10000000
00000000
10000000
01000000
00000000
00000000
00010000
00000000
00010000
00001000
00000000
00000000
,
00000010
00000001
00000100
00001000
,
00020000
00030000
00200000
00300000
,
02000000
03000000
00020000
00030000
,
00200000
00300000
00002000
00003000
,
00010000
00000100
00001000
00000100
,
00000001
00000100
00001000
00000010
,
00000100
00001000
00010000
00100000
,
01000000
10000000
01000000
00010000
,
00100000
01000000
00010000
00001000
00010000
00000000
00011000
00000000
;

//---------------dance-double - ----------------
#NOTES:
     dance-double:
     :
     Hard:
     15:
     0.604488,0.737331,0.354730,0.295608,0.625000,501.000000,459.000000,42.000000,35.000000,0.000000,0.000000,0.604488,0.737331,0.354730,0.295608,0.625000,501.000000,459.000000,42.000000,35.000000,0.000000,0.000000:
00000000
00000000
00000000
00000000
,
00000000
00000000
00000000
00000000
,
00000000
00000000
00000000
00000000
,
00000000
00000000
00000000
00000000
,
00000000
00000000
00000000
00000000
,
10000000
01000000
10000000
01000000
00010000
00000000
00011000
00000000
,
00001000
00000100
00001000
00000100
00000001
00000000
00001001
00000000
,
00000001
00000010
00000001
00000010
00001000
00000000
00011000
00000000
,
00010000
00100000
00010000
00100000
10000000
00000000
10010000
00000000
,
20000000
00000000
00000000
00000000
00000000
30000000
00000000
00000000
,
02000000
00000000
00000000
00000000
00000000
00000000
00000000
00000000
00000000
03000000
00000000
00000000
00000000
00000000
00000000
00000000
,
00200000
00000000
00300000
00000000
,
00020000
00000000
00000000
00000000
00000000
00000000
00000000
00030000
00000000
00000000
00000000
00000000
00000000
00000000
00000000
00000000
,
00002000
00000000
00000000
00000000
00000000
00000000
00003000
00000000
00000200
00000000
00000000
00000000
00000000
00000300
00000000
00000000
,
00000020
00000000
00000000
00000000
00000030
00000000
00000000
00000000
00000002
00000000
00000000
00000003
00000000
00000000
00000000
00000000
,
00000200
00000000
00000300
00000000
00000000
00000000
00000000
00000000
00002000
00003000
00000000
00000000
00010000
00000000
00000000
00000000
,
00100000
00100000
10010000
01000000
,
10000000
00000000
01100000
00000000
10000000
00100000
01000000
00001000
,
00010000
00011000
00002000
00003200
,
00000301
00000010
00000001
00000010
00000001
00000010
00000100
00001000
00000100
00001000
00000100
00010000
,
00001000
00010000
00001000
00010000
00001000
00100000
00010000
00000000
01000000
00100000
00000000
00000000
,
10000000
00100000
10000000
00100000
10000000
00100000
01000000
00010000
01000000
00010000
01000000
00001000
,
00010000
00000000
00000000
00000000
00001000
00000000
00000000
00000000
00010000
00000000
00000000
00000000
00001000
00000000
00000000
00000000
00010000
00000000
00000000
00000000
00000010
00000000
00000000
00000000
00001000
00000000
00000000
00000000
00000000
00000000
00000000
00000000
00000000
00000000
00000000
00000000
00000001
00000000
00000000
00001000
00000000
00000000
00000001
00000000
00000000
00001000
00000000
00000000
,
00000001
00000000
00000000
00000011
00000000
00000000
00001100
00000000
,
00000100
00000100
00020000
00031000
,
00100000
00010000
00100000
00010000
00100000
00010000
01000000
00100000
01000000
00100000
00000000
00000000
,
10000000
01000000
10000000
01000000
10000000
01000000
00010000
00000000
00000000
00010000
00000000
00000000
,
00001000
00000010
00001000
00000010
00001000
00000010
00000001
00000010
00000001
00000010
00000001
00000010
,
00000001
00000100
00000001
00000100
00000001
00000100
00001000
00000100
00001000
00010000
00000000
00000000
,
00010000
00100000
00010000
00100000
00010000
00100000
10000000
00100000
10000000
00100000
10000000
00100000
,
10000000
01000000
10000000
01000000
10000000
01000000
00010000
01000000
00010000
00001000
00000000
00000000
,
00000010
00000000
00000010
00000001
00000000
00000001
00000100
00000000
00000100
00001000
00000000
00001000
,
00010000
00000000
00100000
10000000
00000000
01000000
00010000
00000000
00000000
00011000
00000000
00000000
,
00000010
00000000
00000010
00000001
00000100
00000000
00000010
00000000
00001010
00000000
00000000
00000000
00001100
00000000
00000000
00000000
,
00000100
00000000
00000100
00010000
00001000
00000000
01000000
00000000
01010000
00000000
00000000
00000000
01100000
00000000
00000000
00000000
,
00100000
00000000
00100000
10000000
01000000
00000000
00100000
00000000
00110000
00000000
00000000
00000000
01010000
00000000
00000000
00000000
,
01000000
00000000
01000000
00001000
00010000
00000000
00000100
00000000
00001100
00000000
00000000
00000000
00001010
00000000
00000000
00000000
,
00000100
00000000
00000100
00000001
00000010
00000000
00000100
00000000
00001100
00000000
00000000
00000000
00001010
00000000
00000000
00000000
,
00000010
00000000
00000010
00010000
00001000
00000000
00100000
00000000
00110000
00000000
00000000
00000000
01010000
00000000
00000000
00000000
,
01000000
00000000
01000000
10000000
00100000
00000000
01000000
00000000
01010000
00000000
00000000
00000000
00110000
00000000
00000000
00000000
,
00100000
00000000
00100000
00001000
00010000
00000000
00000010
00000000
00001010
00000000
00000000
00000000
00001100
00000000
00000000
00000000
,
00000001
00000000
00000010
00000100
00001000
00000000
00000010
00000100
00001000
00000000
00010000
00100000
01000000
00000000
00000000
00000000
,
00010000
00000000
10000000
00000000
01000000
00000000
00100000
00000000
00001000
00010000
00001000
00010000
00001000
00000000
00000000
00000000
,
00000100
00001000
00000010
00000000
00000100
00000000
00000001
00000000
00000010
00000000
00001000
00000000
00000010
00000000
00000000
00000000
,
00000001
00000100
00001000
00010000
00001000
00100000
00001000
00000000
,
00010000
00001000
00010000
00001000
01000000
00000000
00010000
00000000
00100000
01000000
10000000
00000000
01000000
00000000
00100000
00000000
,
00001000
00010000
00000100
00001000
00000010
00000001
00000010
00000000
,
00021000
00000000
01000000
00030000
,
10000000
00010000
20020000
30030000
,
10000000
11000000
00010000
00110000
,
00101000
00010010
00022000
00033000
,
00000100
00000000
00001000
00000010
00000100
00000000
00000001
00000010
00000100
00000000
00000000
00010100
00000000
00000000
00011000
00000000
,
00001000
00000000
01000000
00010000
00100000
00000000
01000000
10000000
00100000
00000000
00000000
10100000
00000000
00000000
01010000
00000000
,
00010000
00000000
00100000
00001000
00010000
00000000
00001000
00000100
00000001
00000000
00000000
00000101
00000000
00000000
00000011
00000000
,
00000010
00000000
00000100
00010000
00001000
00000000
00000100
00001000
00010000
00000000
00000000
00100000
10000000
00010000
10000000
00010000
,
00100000
00000000
01000000
00010000
01000000
00000000
00010000
00000000
00001000
00000100
00001000
00000000
00010000
00000000
00000100
00000000
,
00000020
00000001
00000130
00000110
,
00000100
00001000
00000100
00001000
00000100
00001000
00000010
00000100
00000010
00000100
00000000
00000000
,
00000001
00000010
00000001
00000010
00000001
00000010
00001000
00000000
00000000
00001000
00000000
00000000
,
00010000
01000000
00010000
01000000
00010000
01000000
10000000
01000000
10000000
01000000
10000000
01000000
,
10000000
00100000
10000000
00100000
10000000
00100000
00010000
00100000
00010000
00001000
00000000
00000000
,
00001000
00000100
00001000
00000100
00001000
00000100
00000001
00000100
00000001
00000100
00000001
00000100
,
00000001
00000010
00000001
00000010
00000001
00000010
00001000
00000010
00001000
00010000
00000000
00000000
,
01000000
00000000
01000000
10000000
00000000
10000000
00100000
00000000
00100000
00010000
00000000
00010000
,
00001000
00000000
00000100
00000001
00000000
00000010
00001000
00000000
00000000
00011000
00000000
00000000
,
00002000
01000000
00023000
00000100
,
00032000
00100000
00023000
00000100
,
00032000
00000100
00023000
01000000
,
00032000
00003020
00000032
00000203
,
00002300
00010000
02003000
00100000
,
03020000
00001000
02030000
00001000
,
03002000
00010000
00023000
00000010
,
00030100
00001000
00000010
00000001
00000010
00000000
00001001
00000000
;

//---------------dance-single - ----------------
#NOTES:
     dance-single:
     :
     Challenge:
     15:
     0.699807,0.832348,0.447635,0.270270,0.781250,580.000000,527.000000,53.000000,32.000000,136.000000,0.000000,0.699807,0.832348,0.447635,0.270270,0.781250,580.000000,527.000000,53.000000,32.000000,136.000000,0.000000:
// measure 0
0000
0000
0000
0000
,  // measure 1
0000
0000
0000
0000
,  // measure 2
0000
0000
0000
0000
,  // measure 3
0000
0000
0000
0000
,  // measure 4
0000
0000
0000
0000
,  // measure 5
1000
0100
0001
0100
2000
0000
0000
0000
,  // measure 6
3001
0100
1000
0100
0002
0000
0000
0000
,  // measure 7
1003
0010
0001
0010
2000
0000
0000
0000
,  // measure 8
3001
0010
1000
0010
0002
0000
0000
0000
,  // measure 9
0103
0000
0001
1000
0001
0000
0100
0000
0010
0000
0010
0000
0010
0000
0010
0000
,  // measure 10
1000
0000
0001
0010
0001
0000
1000
0000
0100
0000
0100
0000
0100
0000
0100
0000
,  // measure 11
1000
0000
0010
0100
0010
0000
0001
0000
0010
0000
0010
0000
0010
0000
0010
0000
,  // measure 12
0100
0001
2000
0000
3020
0000
0000
0000
,  // measure 13
0130
0100
0100
0100
0001
0001
0001
0001
,  // measure 14
1000
1000
1000
1000
0001
0001
0001
0001
,  // measure 15
1000
0001
1000
0001
1000
0001
1000
0001
1000
0001
1000
0001
1000
0001
1000
0001
,  // measure 16
0100
0110
1001
MMMM
,  // measure 17
0101
0000
0000
0000
1100
0000
0000
0000
0101
0000
0100
0000
1100
0000
0100
0001
,  // measure 18
0100
0000
0010
0000
1000
0000
0001
0000
1000
0001
0100
0000
MMMM
0000
0000
0000
,  // measure 19
1000
0100
1000
0001
0010
0001
1000
0010
1000
0001
0100
0001
,  // measure 20
1000
0100
0010
0001
0100
0010
1000
0100
1000
MMMM
0000
0000
,  // measure 21
0001
0010
0001
1000
0100
1000
0001
0100
0001
1000
0010
1000
,  // measure 22
0001
0000
0000
0000
0010
0000
0000
0000
0100
0000
0000
0000
1000
0000
0000
0000
0010
0000
0000
0000
0100
0000
0000
0000
0001
0000
0000
1000
0000
0000
0001
0000
0000
1000
0000
0000
0001
0000
0000
0010
0000
0000
0100
0000
0000
1000
0000
0000
,  // measure 23
0010
0000
0110
1001
0000
1001
0110
0000
,  // measure 24
2000
3002
0103
MMMM
,  // measure 25
0001
0100
1000
0100
0001
0010
0100
0001
0100
1000
0000
0001
,  // measure 26
1000
0100
0001
0100
1000
0001
1000
0000
0000
MMMM
0000
0000
,  // measure 27
0001
0100
1000
0100
0001
0100
1000
0100
0001
0100
1000
0100
,  // measure 28
0001
0100
1000
0100
0001
0100
1000
0100
0001
MMMM
0000
0000
,  // measure 29
1000
0100
0001
0100
1000
0100
0001
0100
1000
0100
0001
0100
,  // measure 30
1000
0100
0001
0100
1000
0100
0001
0100
1000
0100
0010
0001
,  // measure 31
1000
0000
1000
0010
0000
0010
0001
0000
0001
0100
0000
0100
,  // measure 32
0010
0000
0100
0010
0000
0100
0010
0000
0000
MMMM
0000
0000
,  // measure 33
1001
0000
1000
0100
0010
0000
0001
0000
1001
0000
0001
0100
0001
0000
1000
0000
,  // measure 34
1001
0000
0001
0010
0100
0000
1000
0000
0001
0100
0001
0100
0001
0000
1000
0000
,  // measure 35
1010
0000
0000
0010
0100
0000
0001
0000
1000
0010
1000
0010
1000
0000
0001
0000
,  // measure 36
0101
0000
0000
0100
0001
0000
0100
0000
1000
0100
0010
0100
0001
0000
0100
0000
,  // measure 37
0010
0000
0000
1000
0010
0000
0001
0000
0010
0000
1000
0010
0001
0000
0010
0000
,  // measure 38
0100
0000
0000
0100
0001
0000
0100
0000
1000
0100
0001
0100
0010
0000
1000
0000
,  // measure 39
1001
0000
0000
0001
0010
0000
1000
0000
0011
0000
0000
0001
0100
0000
0001
0000
,  // measure 40
2001
0000
0000
0000
3200
0000
0000
0300
0022
0000
0000
0033
0202
0000
0000
0303
,  // measure 41
0001
0000
0100
1000
0100
0000
0010
0000
1000
0000
1000
0000
1000
0000
1000
0000
,  // measure 42
0010
0000
0001
0010
1000
0000
0100
0000
0010
0100
0010
0100
1000
0000
0001
0000
,  // measure 43
0100
0100
0100
0100
0010
0001
0010
1000
,  // measure 44
1010
0011
1010
1100
,  // measure 45
1001
0001
1001
0000
0110
0100
0110
0000
,  // measure 46
1010
1000
1010
0000
0101
0100
0101
0000
,  // measure 47
0001
0010
0001
0010
0100
1000
0100
1000
0010
0100
0010
0100
0010
0100
0010
0100
,  // measure 48
0020
2030
3002
0103
,  // measure 49
0100
0100
0100
0000
0101
0000
1100
0100
,  // measure 50
0010
0000
1000
0001
0010
0000
0001
0000
1001
0000
1000
0100
0020
0000
0000
0000
,  // measure 51
0130
0000
0001
0100
1000
0000
1000
0100
0010
0000
0010
0001
0100
0000
MMMM
0000
,  // measure 52
1000
0000
1000
0001
0010
0000
0010
0001
0100
0000
0100
0010
1000
0000
MMMM
0000
,  // measure 53
0100
0000
0001
1000
0010
0000
0010
1000
0100
0000
0100
1000
0001
0000
MMMM
0000
,  // measure 54
0010
0000
0100
0001
0100
0000
1000
0100
0001
0000
0100
0010
1000
0100
0010
0000
,  // measure 55
0011
0000
1001
1100
0000
1010
1001
0000
,  // measure 56
0022
0000
0000
0033
0220
0000
0000
0330
2200
0000
0000
3300
2002
0000
3003
0000
,  // measure 57
0001
0010
0001
0010
1000
0010
0001
0100
0001
0100
1000
0100
,  // measure 58
0001
0000
0000
0000
0000
0000
0000
0000
0001
0000
0000
0000
1000
0000
0000
0000
0000
0000
0000
0000
1000
0000
0000
0000
0010
0000
0000
0100
0000
0000
0010
0000
0000
0000
0000
0000
0110
0000
0000
0000
0000
0000
0000
0000
0000
0000
0000
0000
,  // measure 59
1000
0100
0001
1000
0010
0001
1000
0100
0001
1000
0010
0001
,  // measure 60
1000
0100
0001
1000
0010
0001
1000
0100
0001
2000
0000
0000
,  // measure 61
3001
0100
1000
0001
0010
1000
0001
0100
1000
0001
0010
1000
,  // measure 62
0001
0000
0000
0000
0100
0000
0000
0000
1000
0000
0000
0000
0001
0000
0000
0000
0010
0000
0000
0000
1000
0000
0000
0000
0002
0000
0000
0000
0000
0000
0103
0000
0000
0010
0000
0000
0100
0000
0000
0000
0001
0000
0000
0000
1000
0000
0000
0000
,  // measure 63
0001
0010
0100
1000
0100
0010
0001
0010
0100
1000
0100
0010
,  // measure 64
0001
0000
0000
0000
1000
0000
1100
0000
0000
0000
0001
0000
0101
0000
0000
0000
0000
0000
2002
0000
0000
3003
0000
0000
,  // measure 65
MMMM
MMMM
MMMM
MMMM
,  // measure 66
MMMM
MMMM
MMMM
MMMM
,  // measure 67
MMMM
MMMM
MMMM
MMMM
,  // measure 68
1001
0110
1001
0110
,  // measure 69
MMMM
MMMM
MMMM
MMMM
,  // measure 70
MMMM
MMMM
MMMM
MMMM
,  // measure 71
MMMM
MMMM
MMMM
MMMM
,  // measure 72
0001
0100
1000
0010
0001
0000
2002
0000
,  // measure 73
3003
0000
0000
0000
;
