#VERSION:0.83;
#TITLE:Globe Glitter;
#SUBTITLE:;
#ARTIST:Sana,ATSUMI UEDA by BEMANI Sound Team "PON";
#TITLETRANSLIT:;
#SUBTITLETRANSLIT:;
#ARTISTTRANSLIT:;
#GENRE:;
#ORIGIN:;
#CREDIT:;
#BANNER:;
#BACKGROUND:Globe Glitter-bg.png;
#PREVIEWVID:;
#JACKET:Globe Glitter-jacket.png;
#CDIMAGE:;
#DISCIMAGE:;
#LYRICSPATH:;
#CDTITLE:;
#MUSIC:Globe Glitter.ogg;
#OFFSET:0.000000;
#SAMPLESTART:43.710003;
#SAMPLELENGTH:15.000000;
#SELECTABLE:YES;
#BPMS:0.000=190.000;
#STOPS:;
#DELAYS:;
#WARPS:;
#TIMESIGNATURES:0.000=4=4;
#TICKCOUNTS:0.000=4;
#COMBOS:0.000=1;
#SPEEDS:0.000=1.000=0.000=0;
#SCROLLS:0.000=1.000;
#FAKES:;
#LABELS:0.000=Song Start;
#BGCHANGES:;
#KEYSOUNDS:;
#ATTACKS:
;

//---------------dance-single - ----------------
#NOTEDATA:;
#CHARTNAME:;
#STEPSTYPE:dance-single;
#DESCRIPTION:;
#CHARTSTYLE:;
#DIFFICULTY:Beginner;
#METER:4;
#RADARVALUES:0.191131,0.263402,0.108706,0.050172,0.000000,160.000000,147.000000,13.000000,6.000000,0.000000,0.000000,0.000000,0.000000,0.000000,0.191131,0.263402,0.108706,0.050172,0.000000,160.000000,147.000000,13.000000,6.000000,0.000000,0.000000,0.000000,0.000000,0.000000;
#CREDIT:;
#NOTES:
0000
0000
0000
0000
,
0000
0000
0000
0000
,
0000
0000
0000
0000
,
0000
0000
0000
0000
,
0000
0000
0000
0000
,
0001
0000
0010
0000
,
0001
0000
0010
0000
,
0100
0000
1000
0000
,
0100
0000
0000
0000
,
1000
0000
0010
0000
,
1000
0000
0010
0000
,
0100
0000
0001
0000
,
0100
0000
0000
0000
,
0001
0000
0010
0000
,
0001
0001
0001
0000
,
0100
0000
0010
0000
,
0100
0000
0000
0000
,
1001
0000
0000
0000
,
1001
0000
0000
0000
,
0010
0000
0100
0000
,
0010
0000
0000
0000
,
1001
0000
0000
0000
,
1001
0000
0000
0000
,
0100
0000
0010
0000
,
0100
0000
0000
0000
,
1000
0000
0010
0000
,
1000
0000
0010
0000
,
0100
0000
0001
0000
,
0100
0000
0001
0000
,
0010
0000
0001
0000
,
0010
0000
0001
0000
,
0100
0000
0100
0000
,
1000
0000
1000
0000
,
0001
0000
0001
0000
,
1001
0000
0000
0000
,
0001
0000
0010
0000
,
0001
0000
0010
0000
,
1000
0000
0010
0000
,
0001
0000
0000
0000
,
1000
0000
0010
0000
,
1000
0000
0010
0000
,
0001
0000
0010
0000
,
1000
0000
0000
0000
,
0001
0000
0100
0000
,
0001
0000
0100
0000
,
1000
0000
0100
0000
,
0001
0000
0000
0000
,
1000
0000
0100
0000
,
1000
0000
0100
0000
,
0001
0000
0100
0000
,
1000
0000
0000
0000
,
2002
0000
0000
0000
,
3003
0000
0000
0000
,
0010
0000
0010
0000
,
0100
0000
0100
0000
,
1000
0000
1000
0000
,
0001
0000
0000
0000
,
0010
0000
0010
0000
,
0001
0000
0001
0000
,
1000
0000
1000
0000
,
0100
0000
0100
0000
,
0010
0010
0010
0000
,
0110
0000
0000
0000
,
0001
0000
1000
0000
,
1001
0000
0000
0000
,
0100
0000
0010
0000
,
1000
1000
1000
0000
,
0100
0000
0010
0000
,
2002
0000
0000
0000
,
3003
0000
0000
0000
,
0220
0000
0000
0000
,
0330
0000
0000
0000
,
1000
0000
0010
0000
,
0100
0000
0100
0000
,
0001
0000
0010
0000
,
0100
0000
0100
0000
,
1000
0000
0100
0000
,
0010
0000
0001
0000
,
0100
0000
0010
0000
,
1000
0000
0000
0000
,
1001
0000
0000
0000
,
0010
0010
0010
0000
,
1001
0000
0000
0000
,
0100
0100
0100
0000
,
0001
0000
0100
0000
,
0001
0100
0001
0000
,
1000
0000
0010
0000
,
1000
0010
1000
0000
,
1000
0000
0000
0000
,
0001
0000
0000
0000
,
1001
0000
0000
0000
,
0000
0000
0000
0000
;

//---------------dance-single - ----------------
#NOTEDATA:;
#CHARTNAME:;
#STEPSTYPE:dance-single;
#DESCRIPTION:;
#CHARTSTYLE:;
#DIFFICULTY:Easy;
#METER:8;
#RADARVALUES:0.382262,0.461581,0.192325,0.150516,0.000000,320.000000,297.000000,23.000000,18.000000,0.000000,0.000000,0.000000,0.000000,0.000000,0.382262,0.461581,0.192325,0.150516,0.000000,320.000000,297.000000,23.000000,18.000000,0.000000,0.000000,0.000000,0.000000,0.000000;
#CREDIT:;
#NOTES:
0000
0000
0000
0000
,
0000
0000
0000
0000
,
0000
0000
0000
0000
,
0000
0000
0000
0000
,
0000
0000
0000
0000
,
1000
0010
1000
0010
,
0100
0000
0001
0000
1000
0001
1000
0000
,
0001
0010
0001
0010
,
0100
0000
1000
0000
0001
1000
0001
0000
,
0100
0010
0100
0010
,
1000
0001
2002
3003
,
1000
0100
0010
0001
,
1000
1000
2000
3000
,
0001
0100
1000
0100
,
0001
0000
0100
0000
0001
1000
0001
0000
,
0010
1000
0010
0001
,
1000
0100
0010
0000
,
0022
0000
0000
0030
,
0200
0000
0000
0303
,
2020
0000
0000
0030
,
0200
0000
0000
3300
,
0001
0100
0001
0100
,
0001
0010
0001
0010
,
1000
0010
1000
0010
,
1000
0100
1000
0100
,
1000
0000
0000
1001
0000
0000
0000
0000
,
0001
0000
0000
1001
0000
0000
0000
0000
,
0010
0000
0000
0110
0000
0000
0000
0000
,
0100
0000
0000
0110
0000
0000
0000
0000
,
0001
0000
0000
0101
0000
0000
0000
0000
,
1000
0000
0000
1010
0000
0000
0000
0000
,
1000
0010
1000
0000
0100
0000
0000
0000
,
0001
0010
0001
0000
0100
0000
0000
0000
,
0001
1000
0001
0000
1000
0001
1000
0000
,
0010
0010
0110
0000
,
1000
0010
0001
0010
,
1000
0000
0010
0000
0100
0001
0100
0000
,
0001
0010
1000
0010
,
0001
0000
0010
0000
0100
1000
0100
0000
,
1000
0010
0100
0001
,
0010
0000
0100
0000
1000
0001
1000
0000
,
0001
0001
0100
0100
,
1000
0100
0010
0000
,
0001
0100
1000
0100
,
0001
0000
0100
0000
0010
1000
0010
0000
,
1000
0100
0001
0100
,
1000
0000
0100
0000
0010
0001
0010
0000
,
0001
0100
0010
1000
,
0100
0000
0010
0000
0001
1000
0001
0000
,
1000
1000
0010
0010
,
0001
0010
0100
0000
,
2002
0000
0000
3003
,
0010
0000
0000
0100
0000
0000
0110
0000
,
1000
0010
1000
0100
,
0010
0000
0001
1000
0000
0001
1000
0000
,
0001
0001
0100
0100
,
1000
0100
0002
0003
,
1000
0100
0001
0100
,
0011
0000
0101
0000
,
1010
0000
1100
0000
,
0001
0001
1000
1000
,
0010
0100
1001
0000
,
0020
0000
0000
0000
0000
0000
0030
1000
,
0000
0001
0000
1000
0000
0000
0000
0200
,
0000
0000
0000
0000
0000
0000
0300
1000
,
0000
0001
0000
1000
0000
0000
0000
0000
,
0001
0010
0001
0010
,
0100
0000
1000
0000
0100
0000
1000
0020
,
0000
0000
0000
0000
,
0000
0000
0000
0000
0030
0000
0100
0002
,
0000
0000
0000
0000
0003
0000
0001
2000
,
0000
0000
0000
0000
3001
0001
0000
0000
,
0100
0010
1000
0001
,
0010
0000
0100
0000
1000
0001
1000
0000
,
0010
0100
0001
1000
,
0001
0000
0010
0000
0100
1000
0100
0000
,
1000
0001
0010
1000
,
0010
0000
0001
0000
1000
0100
0010
0000
,
0001
0001
1000
1000
,
0100
0010
1001
0000
,
0001
0010
0001
0010
,
1000
0010
1000
0010
,
0001
0100
0001
0100
,
1000
0100
1000
0100
,
0001
0100
0010
1000
,
0001
0010
0100
1000
,
0001
0100
0001
0000
1000
0010
1000
0000
,
0100
0010
1001
0000
,
0011
0000
0000
0101
0000
0000
1010
0000
,
0000
1100
0000
0000
0001
0000
1000
0002
,
0000
0000
0000
0000
,
0000
0000
0000
0000
,
0003
0000
0000
0000
,
0000
0000
0000
0000
;

//---------------dance-single - ----------------
#NOTEDATA:;
#CHARTNAME:;
#STEPSTYPE:dance-single;
#DESCRIPTION:;
#CHARTSTYLE:;
#DIFFICULTY:Medium;
#METER:11;
#RADARVALUES:0.526804,0.615441,0.192325,0.183963,0.020905,441.000000,418.000000,23.000000,22.000000,0.000000,0.000000,0.000000,0.000000,0.000000,0.526804,0.615441,0.192325,0.183963,0.020905,441.000000,418.000000,23.000000,22.000000,0.000000,0.000000,0.000000,0.000000,0.000000;
#CREDIT:;
#NOTES:
0000
0000
0000
0000
,
0000
0000
0000
0000
,
0000
0000
0000
0000
,
0000
0000
0000
0000
,
0000
0000
0000
0000
,
0010
0001
0010
0001
0100
0001
0100
0000
,
0010
1000
0100
0000
0010
0001
0100
0000
,
0010
1000
0010
1000
0100
1000
0100
0000
,
0010
0001
0100
0000
0010
1000
0100
0000
,
1000
0010
1000
0010
0100
0001
0100
0000
,
0001
0010
0100
0000
1000
0100
0010
0001
,
0000
0011
0000
1000
0000
1000
0010
0000
,
0100
0010
0000
2002
0000
0000
3003
0000
,
1000
0100
1000
0000
0001
0100
0001
0000
,
0010
0100
0010
0100
0010
0000
0000
0000
,
0001
0010
0001
0000
1000
0010
1000
0000
,
0001
0010
0100
1000
0001
0000
0000
0000
,
2000
0000
0000
0000
0000
0001
0000
0002
,
0000
0000
0000
3003
,
0010
0000
0000
0010
0000
0000
0000
0220
,
0000
0000
0000
0330
,
0001
0010
0001
0000
0010
0100
0010
0000
,
0100
1000
0100
0000
1000
0010
1000
0000
,
0001
0100
0001
0000
0100
0010
0100
0000
,
0010
1000
0010
0000
1000
0001
1000
0000
,
0001
0000
0010
0001
0000
0010
0001
0000
,
1000
0000
0100
1000
0000
0100
1000
0000
,
0010
0000
1000
0010
0000
1000
0010
0000
,
0100
0000
0001
0100
0000
0001
0100
0000
,
0001
0000
1000
0001
0000
1000
0001
0000
,
0100
0000
0010
0100
0000
0010
0100
0000
,
0001
0000
0100
0000
1000
0100
0001
0000
,
1000
0000
0100
0000
0001
0100
1000
0000
,
0001
0000
0010
0000
1000
0010
0001
0000
,
1000
0100
0010
0001
1000
0001
0000
0000
,
1000
0000
0010
0000
0100
0010
1000
0000
,
0100
0010
0001
0000
1000
0000
0000
0000
,
0001
0000
1000
0000
0010
0100
0001
0000
,
0010
0100
1000
0000
0001
0000
0000
0000
,
0100
0000
0010
0000
1000
0010
0001
0000
,
0001
0010
1000
0000
0001
0000
0100
0010
,
0000
1000
0100
0001
0000
0100
1000
0000
,
0001
1000
0000
2002
0000
0000
3003
0000
,
0001
0000
0100
0000
0010
0100
0001
0000
,
0010
0100
1000
0000
0001
0000
0000
0000
,
1000
0000
0001
0000
0100
0010
1000
0000
,
0100
0010
0001
0000
1000
0000
0000
0000
,
0010
0000
0100
0000
0001
0100
1000
0000
,
1000
0100
0001
0000
1000
0000
0010
0100
,
0000
0001
0010
1000
0000
0010
0001
0000
,
1000
0000
0001
1001
0000
0000
0010
0100
,
0020
0000
0000
0030
,
0100
0000
0000
0100
0000
0000
0010
0000
0000
0010
0000
0000
0110
0000
0000
0000
,
1000
0010
0100
0001
0100
0010
1000
0000
,
0001
0000
0000
1000
0000
0000
0002
0000
0000
0000
0100
0000
0103
0000
0000
0000
,
0010
1000
0010
0000
0100
0001
0100
0000
,
0001
1000
0001
2000
0000
0001
3001
0000
,
0010
0001
0100
0000
0010
1000
0100
0000
,
1010
1000
0011
0001
,
1100
1000
0101
0001
,
0011
0101
1010
1100
,
0001
1000
0000
0001
1000
0000
0000
0000
0001
0000
1000
0000
0000
0000
0000
0000
,
1001
0000
0000
0000
0000
0000
0000
0010
,
0000
0100
0000
0110
0000
0000
0000
1010
,
0000
0000
0000
0001
0001
0001
0000
0101
,
0000
1000
0000
2200
0000
0000
3300
0000
,
0010
1000
0010
0000
1000
0100
1000
0000
,
0001
0010
0001
0000
0100
0001
0100
0002
,
0000
0000
0023
0000
,
0230
0000
0000
0000
1300
0001
1000
0002
,
0000
0000
0000
0000
0000
0000
0003
2002
,
0000
0000
3003
0000
,
0010
0100
0001
0010
0001
0100
0010
0000
,
1000
0100
0010
0000
0001
0100
0010
0000
,
0100
0010
1000
0100
0010
0100
1000
0000
,
0001
0010
0100
0000
1000
0010
0100
0000
,
0001
0100
0010
1000
0100
0010
0001
0000
,
0010
0100
1000
0000
0001
0010
0100
1000
,
0000
1010
0000
0001
0000
0010
0100
0010
,
0000
0001
1000
0002
0000
0000
0003
0000
,
1000
0100
0010
0001
0100
0010
1000
0000
,
0001
0010
0100
1000
0010
0100
0001
0000
,
1000
0010
1000
0010
0001
0010
0001
0010
,
0000
1000
0001
1000
0000
0001
1000
0001
,
0000
0100
0010
0100
0001
0010
0001
0010
,
0000
0100
1000
0010
0000
0100
0001
0100
,
0000
0001
0010
0001
0100
0010
1000
0100
,
0000
0001
0000
0100
0000
2000
0000
0000
,
3001
0000
0000
0011
0000
0000
1000
0000
,
0000
1010
0000
0010
0100
0000
0010
0200
,
0000
0000
0000
0000
,
0000
0000
0000
0000
,
0300
0000
0000
0000
;

//---------------dance-single - ----------------
#NOTEDATA:;
#CHARTNAME:;
#STEPSTYPE:dance-single;
#DESCRIPTION:;
#CHARTSTYLE:;
#DIFFICULTY:Hard;
#METER:15;
#RADARVALUES:0.733465,0.846232,0.225773,0.150516,0.250859,614.000000,587.000000,27.000000,18.000000,0.000000,0.000000,0.000000,0.000000,0.000000,0.733465,0.846232,0.225773,0.150516,0.250859,614.000000,587.000000,27.000000,18.000000,0.000000,0.000000,0.000000,0.000000,0.000000;
#CREDIT:;
#NOTES:
// measure 0
0000
0000
0000
0000
,  // measure 1
0000
0000
0000
0000
,  // measure 2
0000
0000
0000
0000
,  // measure 3
0000
0000
0000
0000
,  // measure 4
0000
0000
0000
0000
,  // measure 5
1000
0010
0100
0001
1000
0100
0010
0001
,  // measure 6
1000
0100
0001
0100
1000
0001
0010
0010
,  // measure 7
0001
0100
0010
1000
0001
0010
0100
1000
,  // measure 8
0001
0100
1000
0100
0001
0010
0100
0100
,  // measure 9
1000
0010
0100
0001
0010
0100
1000
0010
,  // measure 10
0100
1000
0100
0001
0100
0010
1000
1000
,  // measure 11
0001
0100
0010
1000
0100
0010
0001
0100
,  // measure 12
0010
0001
0010
1000
0010
0100
0010
0000
,  // measure 13
1000
0100
1000
0000
0010
0000
1000
0000
0001
0100
0001
0000
0010
0000
0001
0000
,  // measure 14
0100
0010
1000
0001
0010
0100
1000
0001
,  // measure 15
0100
0000
0010
0000
0100
0000
0010
0000
1000
0001
1000
0000
0001
1000
0001
0000
,  // measure 16
2002
0000
0000
3003
,  // measure 17
0200
0000
0000
0000
0000
0010
0000
0020
,  // measure 18
0000
0000
0000
0330
,  // measure 19
1000
0000
0000
1100
0000
0000
0000
0011
,  // measure 20
0000
0000
0000
0001
1000
0001
0100
0000
,  // measure 21
0010
0100
0010
0100
0001
0100
0001
0000
,  // measure 22
0010
0100
0010
0100
1000
0100
1000
0000
,  // measure 23
0001
0100
0001
0100
0010
0100
0010
0000
,  // measure 24
1000
0100
1000
0100
0010
0100
0010
0000
,  // measure 25
0001
0000
0000
0000
0100
0000
0101
0000
0000
0000
0000
0000
0010
1000
0010
1000
,  // measure 26
0010
0000
0000
0000
1000
0000
1100
0000
0000
0000
0000
0000
0010
0001
0010
0001
,  // measure 27
0010
0000
0000
0000
0100
0000
0110
0000
0000
0000
0000
0000
1000
0001
1000
0001
,  // measure 28
1000
0000
0000
0000
0001
0000
1001
0000
0000
0000
0000
0000
0010
0100
0010
0100
,  // measure 29
0010
0000
0000
0000
1000
0000
1100
0000
0000
0000
0000
0000
0001
0010
0100
0010
,  // measure 30
0001
0000
0000
0000
1000
0000
1010
0000
0000
0000
0000
0000
1000
0100
0010
0100
,  // measure 31
1000
0100
1000
0100
1000
0001
1000
0001
,  // measure 32
0010
0001
0010
0001
0100
0010
0100
0010
,  // measure 33
1000
0001
1000
0000
0010
0000
0100
0000
0001
1000
0001
0000
0010
0000
0100
0000
,  // measure 34
1000
0000
0001
1000
0001
1000
0001
1000
0001
0000
0001
0000
0000
0000
0000
0000
,  // measure 35
0001
0100
0010
1000
0100
0010
1000
0010
,  // measure 36
0100
1000
0001
0010
0100
0001
0100
1000
,  // measure 37
0010
0100
0001
1000
0100
0010
0001
1000
,  // measure 38
0010
0001
0010
1000
0001
0100
0001
0001
,  // measure 39
1000
0010
0100
0001
0010
0100
0001
0100
,  // measure 40
0010
0001
1000
0100
0010
1000
0010
0001
,  // measure 41
0100
0010
1000
0001
0010
0100
1000
0001
,  // measure 42
0100
0000
1000
0000
0100
0000
0001
0000
1000
0000
0010
0100
0010
0100
0010
0000
,  // measure 43
1000
0000
0100
0000
0010
0000
0100
0000
1000
0000
0001
0100
0010
0000
1000
0000
,  // measure 44
0001
0010
0001
0010
0100
1000
0100
1000
,  // measure 45
0010
0000
0100
0000
0001
0000
0100
0000
0010
0000
1000
0100
0010
0000
0001
0000
,  // measure 46
1000
0010
1000
0010
0100
0001
0100
0001
,  // measure 47
1000
0000
0010
0000
0100
0000
0010
0000
1000
0000
0100
1000
0010
0000
0100
0000
,  // measure 48
0001
1000
0001
1000
0010
0100
0010
0100
,  // measure 49
0001
0010
1000
0010
0001
0100
1000
0100
,  // measure 50
0001
0000
0010
0000
0100
0000
1000
0000
0010
0000
0100
0001
1000
0000
0001
0000
,  // measure 51
2002
0000
0000
0000
3003
0000
0000
0000
0100
0001
1000
0010
1000
0000
0000
0000
,  // measure 52
0010
0000
0000
0010
0000
0000
0100
0000
0000
0100
0000
0000
1001
0000
0000
0000
,  // measure 53
0100
0000
0001
0000
0010
0001
0010
0000
0001
0000
1000
0000
0100
0000
1000
0000
,  // measure 54
0010
1000
0000
0010
1000
0000
0002
0000
0000
0000
0103
0001
0100
0000
0000
0000
,  // measure 55
0010
1000
0001
0000
0100
0000
0001
0000
0010
0100
1000
0000
0001
0000
0100
0000
,  // measure 56
0010
0100
0000
0010
0100
0000
0020
0000
0000
0000
0100
0000
0130
0000
0000
0000
,  // measure 57
0010
0000
1000
0000
0001
0100
0001
0000
0010
0000
0001
0000
1000
0100
1000
0000
,  // measure 58
0001
0100
0001
0100
0000
0000
1000
0100
1000
0100
0000
0000
,  // measure 59
0001
0010
0001
0010
0000
0000
1000
0010
1000
0010
0000
0000
,  // measure 60
0001
0100
0001
0000
0010
0000
0001
0000
1000
0100
1000
0000
0010
0000
1000
0000
,  // measure 61
0001
1000
0000
0001
1000
0000
0001
0000
0100
0000
0100
0000
0000
0000
0000
0000
,  // measure 62
0110
0000
0000
0000
0000
0000
0000
1000
,  // measure 63
0000
0001
0000
1001
0000
0100
0010
0100
,  // measure 64
0000
0110
0000
0010
0001
0100
0000
1010
,  // measure 65
0000
0001
0000
0101
0000
1000
0001
0000
,  // measure 66
1000
0100
0010
1000
0100
0010
1000
0000
,  // measure 67
0001
0100
0010
0001
0100
0010
0001
2002
,  // measure 68
0000
0000
0000
0000
,  // measure 69
0000
0000
0000
0000
3003
0001
1000
0220
,  // measure 70
0000
0000
0000
0000
0000
0000
0330
2002
,  // measure 71
0000
0000
0000
3003
,  // measure 72
0001
0100
0001
0010
0100
1000
0010
1000
,  // measure 73
0100
0000
0001
0000
1000
0000
0010
0000
0001
0000
1000
0100
0010
0000
0000
0000
,  // measure 74
0001
1000
0001
0100
0010
0001
0010
1000
,  // measure 75
0001
0000
0100
0000
1000
0000
0100
0000
0010
0000
1000
0001
0100
0000
0010
0000
,  // measure 76
0000
0010
1000
0100
0010
0001
0100
0010
,  // measure 77
1000
0010
0100
1000
0100
0001
0010
0100
,  // measure 78
0000
0001
0100
1000
0000
0001
0100
1000
,  // measure 79
0000
1000
0100
0002
0000
0000
1003
0000
,  // measure 80
0010
1000
0100
0010
0001
0100
0010
1000
,  // measure 81
0100
0010
0001
0100
0010
1000
0100
0010
,  // measure 82
0001
0100
1000
0100
0001
0010
1000
0010
,  // measure 83
0000
0010
0001
2000
0000
0000
3000
1001
,  // measure 84
0000
0000
0010
0000
0100
0001
0100
0000
0001
0000
0010
0000
0100
0000
1000
0000
,  // measure 85
0000
0000
1000
0000
0010
0000
0100
0000
0000
0000
0100
0010
0100
0000
0010
0000
,  // measure 86
0000
0000
1000
0001
0100
0000
0010
0000
1000
0000
0100
0010
0001
0000
0100
0000
,  // measure 87
0000
0110
0000
0100
0000
1001
0000
0000
,  // measure 88
1100
0000
0000
1010
0000
0000
0101
0000
,  // measure 89
0000
0000
0011
0000
0000
0000
0010
0001
0100
0000
0010
0000
1000
0000
2020
0000
,  // measure 90
0000
0000
0000
0000
,  // measure 91
0000
0000
0000
0000
,  // measure 92
3030
0000
0000
0000
;

//---------------dance-double - ----------------
#NOTEDATA:;
#CHARTNAME:;
#STEPSTYPE:dance-double;
#DESCRIPTION:;
#CHARTSTYLE:;
#DIFFICULTY:Easy;
#METER:8;
#RADARVALUES:0.377483,0.500046,0.167239,0.142154,0.000000,316.000000,296.000000,20.000000,17.000000,0.000000,0.000000,0.000000,0.000000,0.000000,0.377483,0.500046,0.167239,0.142154,0.000000,316.000000,296.000000,20.000000,17.000000,0.000000,0.000000,0.000000,0.000000,0.000000;
#CREDIT:;
#NOTES:
00000000
00000000
00000000
00000000
,
00000000
00000000
00000000
00000000
,
00000000
00000000
00000000
00000000
,
00000000
00000000
00000000
00000000
,
00000000
00000000
00000000
00000000
,
00000001
00000100
00000001
00000100
,
00000010
00000000
00001000
00000000
00000100
00001000
00000100
00000000
,
00010000
00001000
00010000
00001000
,
00100000
00000000
00010000
00000000
01000000
00010000
01000000
00000000
,
00100000
10000000
00100000
10000000
,
01000000
00100000
02200000
03300000
,
01000000
00100000
00010000
00100000
,
00001000
00010000
00002000
00003000
,
00010000
00000010
00001000
00000010
,
00000100
00000001
00002000
00003000
,
00000001
00000100
00000010
00001000
,
00000100
00010000
00002000
00003000
,
00200000
00000000
00010000
00000000
,
02000000
00000000
00000000
03300000
,
20000000
00000000
00100000
00000000
,
00020000
00000000
00000000
30030000
,
10000000
00010000
10000000
00010000
,
00100000
00001000
00100000
00001000
,
00010000
00000100
00010000
00000100
,
00001000
00000010
00001000
00000000
,
00000001
00000000
00000000
00001001
00000000
00000000
00000000
00000000
,
00001000
00000010
00010000
00000000
,
00001000
00000000
00000000
00011000
00000000
00000000
00000000
00000000
,
00010000
00001000
00100000
00000000
,
00100000
00000000
00000000
01100000
00000000
00000000
00000000
00000000
,
10000000
00010000
01000000
00000000
,
00010000
00100000
00010000
00000000
00100000
00000000
00000000
00000000
,
00001000
00010000
00001000
00000000
00010000
00000000
00000000
00000000
,
00000010
00001000
00000010
00000000
00000100
00000001
00000100
00000000
,
00000010
00000010
00000110
00000000
,
00000001
00000100
00001000
00010000
,
00100000
10000000
10010000
00000000
,
00100000
10000000
01000000
00100000
,
00010000
01000000
00100000
00000000
01100000
00000000
00000000
00000000
,
10000000
01000000
00010000
00001000
,
00000010
00000001
00001001
00000000
,
00001000
00001000
00000010
00000010
,
00000100
00000001
00001000
00000000
00000001
00000000
00000000
00000000
,
00000001
00000010
00001000
00010000
,
01000000
10000000
10010000
00000000
,
00010000
10000000
00100000
01000000
,
00010000
00100000
01000000
00000000
01100000
00000000
00000000
00000000
,
10000000
00100000
00010000
00001000
,
00000100
00000001
00001001
00000000
,
00001000
00001000
00000100
00000100
,
00000010
00000001
00001000
00000000
00000010
00000000
00000000
00000000
,
00000220
00000000
00000000
00000330
,
00001000
00000000
00000000
00010000
00000000
00000000
00011000
00000000
,
00100000
00010000
01000000
00010000
,
00100000
00000000
01000000
00100000
00000000
01000000
00100000
00000000
,
00010000
00010000
00001000
00001000
,
00000100
00000000
00000010
00000001
00000000
00000010
00000001
00000000
,
00001000
00001000
00000010
00000010
,
00000110
00000000
00010000
00000000
,
00011000
00000000
00100000
00000000
,
01000000
01000000
00010000
00010000
,
01000000
00100000
10010000
00000000
,
20000000
00000000
00000000
00000000
00000000
00000000
30000000
01000000
,
00000000
01000000
00000000
01000000
00000000
00000000
00000000
00020000
,
00000000
00000000
00000000
00000000
00000000
00000000
00030000
00001000
,
00000000
00001000
00000000
00001000
00000000
00000000
00000000
00000000
,
00000010
00000001
00000100
00000010
,
00001000
00000000
00000100
00000000
00010000
00000000
00001000
00020000
,
00000000
00000000
00000000
00000000
,
00000000
00000000
00000000
00000000
00030000
00000000
00001000
02000000
,
00000000
00000000
00000000
00000000
03000000
00000000
00010000
20000000
,
00000000
00000000
00000000
00000000
30010000
00010000
00000000
00000000
,
10000000
00100000
01000000
00010000
,
00100000
00000000
01000000
00000000
00010000
00001000
00010000
00000000
,
00001000
00000010
00000100
00001000
,
00000010
00000000
00000100
00000000
00000001
00001000
00000001
00000000
,
00000100
00001000
00010000
00000010
,
00010000
00000000
00001000
00000000
00100000
00010000
01000000
00000000
,
00100000
00100000
10000000
10000000
,
01000000
00100000
10010000
00000000
,
10000000
01000000
00100000
00010000
,
01000000
00000000
00100000
00000000
00010000
00001000
00010000
00000000
,
00001000
00000100
00000010
00001000
,
00000100
00000000
00000010
00000000
00000001
00001000
00000001
00000000
,
00000010
00001000
00010000
00000100
,
00010000
00000000
00001000
00000000
01000000
00010000
00100000
00000000
,
01000000
00100000
01000000
00000000
10000000
00010000
10000000
00000000
,
00100000
01000000
10010000
00000000
,
00100000
00000000
00000000
00110000
00000000
00000000
00001000
00000000
,
00000000
00011000
00000000
00000000
00010000
00000000
00001000
00020000
,
00000000
00000000
00000000
00000000
,
00000000
00000000
00000000
00000000
,
00030000
00000000
00000000
00000000
,
00000000
00000000
00000000
00000000
;

//---------------dance-double - ----------------
#NOTEDATA:;
#CHARTNAME:;
#STEPSTYPE:dance-double;
#DESCRIPTION:;
#CHARTSTYLE:;
#DIFFICULTY:Medium;
#METER:11;
#RADARVALUES:0.508886,0.538511,0.167239,0.183963,0.020905,426.000000,406.000000,20.000000,22.000000,0.000000,0.000000,0.000000,0.000000,0.000000,0.508886,0.538511,0.167239,0.183963,0.020905,426.000000,406.000000,20.000000,22.000000,0.000000,0.000000,0.000000,0.000000,0.000000;
#CREDIT:;
#NOTES:
00000000
00000000
00000000
00000000
,
00000000
00000000
00000000
00000000
,
00000000
00000000
00000000
00000000
,
00000000
00000000
00000000
00000000
,
00000000
00000000
00000000
00000000
,
00000001
00000010
00000001
00000010
00000001
00000100
00000001
00000000
,
00000100
00000010
00001000
00000100
,
00010000
00000100
00010000
00000100
00010000
00001000
00010000
00000000
,
00001000
01000000
00010000
00100000
,
01000000
10000000
01000000
10000000
01000000
00100000
01000000
00000000
,
00100000
00000000
00010000
00000000
01000000
00000000
00001000
00010000
,
00000000
00011000
00000000
00001000
00000000
00000010
00000100
00000000
,
00000010
00000001
00000000
00002002
00000000
00000000
00003003
00000000
,
00000010
00000001
00000100
00000000
00000010
00001000
00000100
00000000
,
00001000
00000100
00010000
00001000
00010000
00000000
00000000
00000000
,
00001000
00100000
00001000
00000000
01000000
00010000
01000000
00000000
,
00010000
00100000
01000000
10000000
00010000
00000000
00000000
00000000
,
20000000
00000000
00000000
00000000
00000000
00100000
00000000
00200000
,
00000000
00000000
00000000
30300000
,
01000000
00000000
00000000
01000000
00000000
00000000
00000000
02200000
,
00000000
00000000
00000000
03300000
,
00100000
10000000
00100000
00000000
01000000
00000000
00010000
00000000
,
00100000
01000000
00100000
00000000
00001000
00000000
00010000
00000000
,
00000100
00001000
00000100
00000000
00000010
00000000
00000001
00000000
,
00000100
00000010
00000100
00000000
00000001
00000000
00001000
00000000
,
00000001
00000000
00000010
00000100
00000000
00000010
00000100
00000000
,
00001000
00000000
00000100
00010000
00000000
00000100
00010000
00000000
,
00001000
00000000
00100000
00010000
00000000
00100000
00010000
00000000
,
01000000
00000000
00100000
10000000
00000000
00100000
10000000
00000000
,
01000000
00000000
00100000
01000000
00000000
00100000
01000000
00000000
,
10000000
00000000
00010000
01000000
00000000
00010000
01000000
00000000
,
00010000
00000000
00100000
00000000
00001000
00010000
00001000
00000000
,
00010000
00000000
00000010
00000000
00010000
00001000
00010000
00000000
,
00000100
00001000
00000010
00000000
00000100
00000001
00000010
00000000
,
00000001
00001000
00000001
00001000
00000001
00001000
00000000
00000000
,
00000010
00000100
00001000
00000100
,
00000010
00001000
00000100
00010000
00001000
00000000
00000000
00000000
,
00100000
00010000
01000000
00010000
,
00100000
00001000
00010000
00001000
00100000
00000000
00000000
00000000
,
00001000
01000000
10000000
01000000
,
00100000
01000000
00010000
00100000
00001000
00000000
00010000
00000100
,
00000000
00001000
00000010
00000100
00000000
00000001
00000010
00000000
,
00001000
00000010
00000000
00000220
00000000
00000000
00000330
00000000
,
00000100
00000010
00000001
00001000
,
00000100
00001000
00000010
00010000
00001000
00000000
00000000
00000000
,
01000000
00010000
00100000
00001000
,
01000000
00010000
00100000
00001000
01000000
00000000
00000000
00000000
,
00010000
00100000
01000000
10000000
,
01000000
00100000
00010000
01000000
00001000
00000000
00010000
00000010
,
00000000
00001000
00000100
00000010
00000000
00000001
00000100
00000000
,
00000001
00000000
00001000
00001001
00000000
00000000
00000001
00000100
,
00000020
00000000
00000000
00000030
,
00000100
00000000
00000000
00001000
00000000
00000000
00010000
00000000
00000000
00001000
00000000
00000000
00011000
00000000
00000000
00000000
,
00100000
00001000
00100000
00001000
01000000
00010000
01000000
00000000
,
00100000
00000000
00000000
00100000
00000000
00000000
00200000
00000000
00000000
00000000
01000000
00000000
01300000
00000000
00000000
00000000
,
00100000
10000000
00100000
00000000
01000000
00010000
01000000
00000000
,
00010000
00100000
00001000
00020000
00000000
00001000
00031000
00000000
,
00000010
00000100
00001000
00000000
00000010
00000100
00000001
00000000
,
00000011
00001000
00001010
00000100
,
00010100
00010000
00011000
00001000
,
01010000
00100000
10100000
10000000
,
00010000
10000000
00000000
00010000
10000000
00000000
00000000
00000000
00010000
00000000
10000000
00000000
00000000
00000000
00000000
00000000
,
01100000
00000000
00000000
00000000
00000000
00000000
00000000
00010000
,
00000000
00001000
00000000
00011000
00000000
00000000
00000000
00001010
,
00000000
00000000
00000000
00000100
00000001
00000100
00000000
00000101
,
00000000
00000001
00000000
00000022
00000000
00000000
00000033
00000000
,
00000001
00001000
00000001
00000000
00000100
00000010
00000100
00000000
,
00001000
00010000
00001000
00000000
00100000
00010000
00100000
00020000
,
00000000
00000000
02030000
00000000
,
03200000
00000000
00000000
00000000
10300000
00010000
10000000
00020000
,
00000000
00000000
00000000
00000000
00000000
00000000
00030000
20020000
,
00000000
00000000
30030000
00000000
,
00100000
00010000
00100000
00010000
01000000
00010000
01000000
00000000
,
00001000
00100000
00001000
00000000
00010000
00001000
00010000
00000000
,
00000010
00001000
00000010
00001000
00000100
00001000
00000100
00000000
,
00010000
00000010
00010000
00000000
00001000
00010000
00001000
00000000
,
00100000
00010000
01000000
00000000
00100000
00010000
00100000
00000000
,
01000000
00010000
00100000
00000000
00001000
00010000
00000100
00001000
,
00000000
00000010
00000001
00000010
00000000
00001000
00000100
00001000
,
00000000
00000001
00001000
00000002
00000000
00000000
00000003
00000000
,
00000010
00000100
00001000
00000000
00000010
00000100
00000001
00000000
,
00001000
00000100
00001000
00000100
00010000
00001000
00010000
00000000
,
00001000
00100000
00010000
00000000
01000000
00100000
10000000
00100000
,
00000000
01000000
00010000
01000000
00000000
00001000
00010000
00001000
,
00000000
00010000
00000010
00001000
00000010
00000100
00000010
00001000
,
00000000
00000001
00000100
00000010
00000000
00001000
00000100
00001000
,
00000000
00000100
00010000
00000000
00001000
01000000
00010000
00100000
,
00000000
01000000
00000000
10000000
00000000
00020000
00000000
00000000
,
00130000
00000000
00000000
00011000
00000000
00000000
00000010
00000000
,
00000000
00011000
00000000
00000000
00000100
00001000
00000001
00000020
,
00000000
00000000
00000000
00000000
,
00000000
00000000
00000000
00000000
,
00000030
00000000
00000000
00000000
,
00000000
00000000
00000000
00000000
;

//---------------dance-double - ----------------
#NOTEDATA:;
#CHARTNAME:;
#STEPSTYPE:dance-double;
#DESCRIPTION:;
#CHARTSTYLE:;
#DIFFICULTY:Hard;
#METER:15;
#RADARVALUES:0.678514,0.769302,0.142154,0.142154,0.137973,568.000000,551.000000,17.000000,17.000000,0.000000,0.000000,0.000000,0.000000,0.000000,0.678514,0.769302,0.142154,0.142154,0.137973,568.000000,551.000000,17.000000,17.000000,0.000000,0.000000,0.000000,0.000000,0.000000;
#CREDIT:;
#NOTES:
00000000
00000000
00000000
00000000
,
00000000
00000000
00000000
00000000
,
00000000
00000000
00000000
00000000
,
00000000
00000000
00000000
00000000
,
00000000
00000000
00000000
00000000
,
00000001
00000010
00000100
00001000
00000010
00000100
00001000
00010000
,
00100000
01000000
00010000
00100000
01000000
10000000
00010000
00000000
,
10000000
00100000
01000000
00010000
00100000
01000000
00010000
00001000
,
00000010
00000100
00001000
00000010
00000100
00000001
00001000
00000000
,
00000001
00000100
00001000
00010000
00000010
00000100
00001000
00010000
,
00000100
00000010
00000100
00001000
00000100
00010000
00001000
00000000
,
00100000
00001000
00010000
01000000
00100000
00001000
00010000
01000000
,
00100000
00010000
01000000
00010000
10000000
00100000
10000000
00000000
,
01000000
00100000
01000000
00000000
00010000
00000000
01000000
00000000
00100000
01000000
00100000
00000000
00010000
00000000
00100000
00000000
,
00001000
00010000
00001000
00000010
00000100
00000010
00000001
00000000
,
00000010
00000001
00000100
00000010
00001000
00000100
00010000
00001000
,
00022000
00000000
00000000
00033000
,
02000000
00000000
00000000
00000000
00000000
00100000
00000000
00200000
,
00000000
00000000
00000000
03300000
,
10000000
00000000
00000000
10100000
00000000
00000000
00000000
01100000
,
00000000
00000000
00000000
10000000
00100000
00010000
00100000
00000000
,
01000000
00100000
01000000
00100000
01000000
00010000
00100000
00000000
,
00001000
00010000
00001000
00010000
00000100
00001000
00000010
00000000
,
00000100
00000001
00000100
00000001
00000100
00000010
00000100
00000000
,
00000010
00010000
00000010
00010000
00000100
00010000
00001000
00000000
,
00100000
00000000
00000000
00000000
00010000
00000000
01000000
00000000
00000000
00000000
00000000
00000000
00100000
10000000
00100000
00000000
,
01000000
00000000
00000000
00000000
00010000
00000000
00100000
00000000
00000000
00000000
00000000
00000000
00001000
00010000
00001000
00000000
,
00010000
00000000
00000000
00000000
00000100
00000000
00001000
00000000
00000000
00000000
00000000
00000000
00000010
00000100
00000010
00000000
,
00000100
00000000
00000000
00000000
00000001
00000000
00001000
00000000
00000000
00000000
00000000
00000000
00000001
00000010
00000100
00000000
,
00001000
00000000
00000000
00000000
00000001
00000000
00000100
00000000
00000000
00000000
00000000
00000000
00001000
00010000
00001000
00000000
,
01000000
00000000
00000000
00000000
00010000
00000000
00100000
00000000
00000000
00000000
00000000
00000000
01000000
10000000
01000000
00000000
,
10000000
01000000
10000000
01000000
00100000
00010000
00100000
00010000
,
00001000
00000100
00001000
00000100
00000010
00000001
00000010
00000001
,
00000100
00001000
00010000
00001000
00000100
00000010
00010000
00001000
,
00100000
00001000
00010000
01000000
10000000
10000000
00000000
00000000
,
00100000
10000000
01000000
00010000
01000000
10000000
00100000
01000000
,
00001000
00010000
01000000
00100000
00001000
00100000
01000000
00010000
,
00001000
00100000
00001000
00010000
00000100
00010000
00001000
00000010
,
00000100
00001000
00000010
00010000
00000100
00001000
00000010
00000000
,
00000100
00000001
00000010
00001000
00000010
00000001
00000100
00000010
,
00010000
00001000
00000010
00000100
00010000
00000100
00000010
00001000
,
00010000
00000100
00010000
00001000
00100000
00001000
00010000
01000000
,
00100000
00010000
01000000
00001000
00100000
00010000
01000000
00000000
,
00100000
10000000
01000000
00100000
00010000
01000000
00100000
10000000
,
00100000
00010000
00001000
00100000
00010000
01000000
00010000
00100000
,
00001000
00010000
00000010
00000100
00001000
00010000
00000010
00000100
,
00001000
00010000
00001000
00000010
00000100
00001000
00000001
00000000
,
00000010
00000001
00000100
00000010
00001000
00000100
00000010
00000001
,
00000010
00001000
00010000
00000010
00001000
00000100
00001000
00000010
,
00010000
00001000
00100000
01000000
00010000
00001000
00100000
01000000
,
00010000
00001000
00010000
00100000
01000000
00010000
10000000
00000000
,
20020000
00000000
00000000
30030000
,
00100000
00000000
00000000
00100000
00000000
00000000
01000000
00000000
00000000
01000000
00000000
00000000
10010000
00000000
00000000
00000000
,
10000000
01000000
00100000
00010000
00100000
01000000
00010000
00001000
,
00010000
00001000
00000000
00010000
00001000
00000000
00020000
00000000
00000000
00000000
00001000
00000000
00031000
00000000
00000000
00000000
,
00010000
00000010
00000100
00001000
00000100
00000010
00001000
00000100
,
00000010
00000100
00000000
00000010
00000100
00000000
00000020
00000000
00000000
00000000
00000100
00000000
00000130
00000000
00000000
00000000
,
00000010
00000001
00000100
00000010
00001000
00000100
00000010
00000000
,
00000001
00000100
00000001
00000100
00000000
00000000
00000010
00001000
00000010
00001000
00000000
00000000
,
00010000
01000000
00010000
01000000
00000000
00000000
00100000
10000000
00100000
10000000
00000000
00000000
,
01000000
10000000
01000000
00000000
00100000
00000000
00010000
00000000
00100000
00001000
00100000
00000000
00001000
00000000
00010000
00000000
,
00001000
00010000
00000000
00001000
00010000
00000000
00001000
00000000
00010000
00000000
00010000
00000000
00000000
00000000
00000000
00000000
,
00011000
00000000
00000000
00000000
00000000
00000000
00000000
00000010
,
00000000
00000100
00000000
00001001
00000000
00001000
00000100
00000001
,
00000000
00000000
00000000
00000000
00000000
00000000
00000000
00001000
,
00000000
01000000
00000000
10010000
00000000
00010000
01000000
10000000
,
01000000
00100000
10000000
01000000
00100000
00010000
01000000
00100000
,
00010000
00001000
00000100
00000010
00001000
00000100
00000010
00000002
,
00000000
00000000
00000000
00000000
,
00000000
00000000
00000000
00000000
00000003
00000001
00001000
00002002
,
00000000
00000000
00000000
00000000
00000000
00003003
00000000
00022000
,
00000000
00000000
00000000
00033000
,
00010000
00001000
00100000
00010000
01000000
00100000
10000000
01000000
,
00010000
00000000
01000000
00000000
10000000
00000000
00010000
00000000
00100000
00000000
01000000
00000000
00100000
00010000
00100000
00000000
,
00001000
00010000
00000100
00001000
00000010
00000100
00001000
00000100
,
00000001
00000000
00001000
00000000
00000100
00000000
00000010
00000000
00000001
00000000
00001000
00000001
00001000
00000000
00000010
00000000
,
00000000
00000010
00000100
00001000
00010000
00000100
00010000
00001000
,
00100000
00010000
01000000
00010000
00100000
01000000
10000000
01000000
,
00000000
00010000
01000000
10000000
00000000
00010000
01000000
10000000
,
00000000
10000000
01000000
00020000
00000000
00000000
00130000
00000000
,
00100000
00001000
00010000
01000000
00100000
00001000
00010000
01000000
,
00100000
00001000
00010000
00000100
00001000
00000010
00000100
00001000
,
00010000
00000010
00000100
00001000
00010000
00001000
00000100
00000010
,
00000000
00000010
00001000
00000002
00000000
00000000
00000003
00001001
,
00000000
00000000
00000001
00000000
00000100
00000010
00000100
00000000
00000010
00000000
00001000
00000000
00000100
00000000
00010000
00000000
,
00000000
00000000
00010000
00000000
00001000
00000000
00010000
00000000
00000000
00000000
00100000
01000000
00100000
00000000
01000000
00000000
,
00000000
00000000
00100000
10000000
00100000
00000000
10000000
00000000
01000000
00100000
00010000
00000000
00100000
00000000
00001000
00000000
,
00000000
00000010
00000000
00000001
00000000
00001001
00000000
00000000
,
00001001
00000001
00000010
00000110
00000000
00000000
00000110
00001000
,
00010000
00000000
00011000
00000000
00000000
00000000
00001000
00010000
00100000
00000000
01000000
00000000
00100000
00000000
02200000
00000000
,
00000000
00000000
00000000
00000000
,
00000000
00000000
00000000
00000000
,
03300000
00000000
00000000
00000000
,
00000000
00000000
00000000
00000000
;

//---------------dance-single - ----------------
#NOTEDATA:;
#CHARTNAME:;
#STEPSTYPE:dance-single;
#DESCRIPTION:;
#CHARTSTYLE:;
#DIFFICULTY:Challenge;
#METER:17;
#RADARVALUES:0.931763,1.038557,0.326117,0.384651,0.740035,780.000000,741.000000,39.000000,46.000000,0.000000,0.000000,0.000000,0.000000,0.000000,0.931763,1.038557,0.326117,0.384651,0.740035,780.000000,741.000000,39.000000,46.000000,0.000000,0.000000,0.000000,0.000000,0.000000;
#CREDIT:;
#NOTES:
// measure 0
0000
0000
0000
0000
,  // measure 1
0000
0000
0000
0000
,  // measure 2
0000
0000
0000
0000
,  // measure 3
0000
0000
0000
0000
,  // measure 4
0000
0000
0000
0000
,  // measure 5
0001
0010
0100
1000
0100
0010
0001
1000
,  // measure 6
0010
0000
0100
0000
0010
0000
1000
0000
0001
0000
1000
0100
0010
0000
0100
0000
,  // measure 7
1000
0000
0100
0000
0001
0000
0100
0000
0010
0000
0001
0000
0010
0000
0100
0010
,  // measure 8
0001
0000
0100
0000
1000
0000
0100
0000
0001
0000
1000
0000
0100
0000
0010
0100
,  // measure 9
1000
0000
0010
0000
0100
0000
0001
0000
0100
0000
0010
0000
0001
0000
0010
0100
,  // measure 10
0001
0000
1000
0000
0100
0000
0010
0000
0100
0000
1000
0000
0010
0000
1000
0100
,  // measure 11
0001
0000
0100
0000
1000
0000
0001
0100
1000
0000
0100
0000
0001
0000
1000
0000
,  // measure 12
0010
0000
0100
0000
0010
0000
0010
0000
0100
0000
0001
1000
0001
1000
0001
0000
,  // measure 13
0100
0000
0010
0000
1000
0001
0100
0000
0001
0000
1000
0000
0001
1000
0010
0100
,  // measure 14
0010
0000
1000
0000
0001
0000
1000
0001
0100
0010
0100
0000
0001
0000
1000
0000
,  // measure 15
0001
0000
1000
0000
0100
0010
0001
0010
0100
0000
1000
0000
0001
0010
0100
0010
,  // measure 16
0001
0000
1000
0000
0001
0000
0100
0000
0010
0000
0100
0010
0100
0010
0100
0010
,  // measure 17
0200
0000
0000
0000
0000
0010
0000
0020
,  // measure 18
0000
0000
0000
0330
,  // measure 19
2200
0000
3300
2002
0000
0000
3003
0022
,  // measure 20
0000
0000
0033
0001
0202
0000
0000
0303
,  // measure 21
0001
0100
1000
0100
0010
1000
0010
0001
,  // measure 22
0010
0010
0100
0001
1000
0100
0010
0001
,  // measure 23
1000
0100
1000
0100
0001
0100
0001
0100
,  // measure 24
1000
0000
1000
0000
0100
0000
0010
0000
0100
0000
1000
0010
1000
0010
1000
0000
,  // measure 25
0001
0000
0010
0000
0100
0000
1100
0000
0000
0000
0001
0100
0001
0100
0001
0000
,  // measure 26
1000
0000
0100
0000
0010
0000
0011
0000
0000
0000
1000
0001
1000
0001
1000
0000
,  // measure 27
0001
0000
0100
0000
1000
0000
1100
0000
0000
0000
0100
0001
0100
0001
1000
0000
,  // measure 28
0010
0000
0001
0000
0010
0000
1010
0000
0000
0000
1000
0100
1000
0100
0010
0000
,  // measure 29
0001
0000
0100
0000
1000
0000
1100
0000
0100
0000
0001
0010
0001
0010
0100
0000
,  // measure 30
0010
0000
0001
0000
0100
0000
0110
0000
0010
0000
1000
0001
1000
0001
0100
0000
,  // measure 31
0001
0000
0010
0000
0100
0000
1000
0000
0010
1000
0010
1000
0001
1000
0001
0000
,  // measure 32
0010
0001
0010
0001
0100
0001
0100
0000
0001
1000
0001
1000
0001
0000
1000
0000
,  // measure 33
0010
1000
0010
0000
1000
0100
1000
0000
0100
0010
0100
0000
0010
0001
0010
0000
,  // measure 34
0001
0100
0001
0100
0001
0100
0001
0100
0010
0000
0020
0000
0000
0000
0000
0000
,  // measure 35
1030
0100
0010
0000
0100
0000
1000
0000
0001
0010
0100
0000
0010
0000
0001
0000
,  // measure 36
0100
0000
0010
0000
1000
0000
0001
0000
1000
0000
0100
0010
0001
0000
1000
0000
,  // measure 37
0001
0000
0010
0000
0100
0000
1000
0001
0100
0000
0001
1000
0100
0000
1000
0000
,  // measure 38
0001
0000
0010
0000
0001
0000
0100
0000
0010
0000
1000
0000
0001
0000
1000
0010
,  // measure 39
0100
0000
0100
0010
1000
0000
0001
0100
0010
0000
0010
0100
0001
0000
1000
0000
,  // measure 40
0100
0000
0010
0000
0001
0000
0100
0000
0001
0000
1000
0000
0010
0000
1000
0100
,  // measure 41
0001
0000
0100
0000
0010
0000
0001
0010
0100
0000
1000
0000
0001
0000
0100
0000
,  // measure 42
0001
0000
1000
0000
0001
0000
1000
0000
0001
0000
0100
0010
0100
0010
0100
0010
,  // measure 43
1000
0000
0001
0000
0000
0000
0001
0000
0100
0000
1000
0000
0100
0000
0010
1000
,  // measure 44
0010
0000
1000
0001
1000
0000
0001
0010
0001
0000
0100
0000
1000
0000
0100
0000
,  // measure 45
0001
0000
0010
0000
0100
0000
1000
0000
0010
0000
1000
0000
0001
0000
0010
0001
,  // measure 46
1000
0000
0001
1000
0100
0000
1000
0001
0010
0000
0001
0000
1000
0000
0001
0100
,  // measure 47
0010
0000
0010
0100
0001
0000
1000
0001
0100
0000
0100
0001
1000
0000
0001
0100
,  // measure 48
1000
0000
0100
0001
0010
0000
1000
0010
0001
0000
1000
0000
0001
0000
0100
0001
,  // measure 49
1000
0000
0010
0000
1000
0000
0001
0100
0010
0000
1000
0000
0100
0000
0010
0000
,  // measure 50
0001
0000
1000
0000
0001
0000
0100
0000
0010
0100
0010
0100
0010
0100
0010
0100
,  // measure 51
0020
0000
0000
0000
0000
0000
0000
0000
0130
0001
1000
0001
0100
0001
1000
0000
,  // measure 52
1100
0000
0000
0011
0000
0000
1100
0000
0000
0011
0000
0000
1000
0001
1000
0001
,  // measure 53
1000
0000
0001
0000
0100
1000
0100
0000
0001
0100
0000
1000
0100
0000
0010
1000
,  // measure 54
0000
0010
0001
0000
0010
0000
2000
0000
0000
0000
3001
0100
0001
0100
1000
0000
,  // measure 55
0100
0000
0010
1000
0010
1000
0001
0000
1000
0100
0000
0001
0100
0000
0010
0001
,  // measure 56
0100
0000
1000
0100
0000
0001
0200
0000
0000
0000
0310
1000
0001
1000
0020
0000
,  // measure 57
0000
0000
1030
0100
1000
0000
0001
0010
0001
0000
0100
0010
0100
0000
0001
1000
,  // measure 58
0001
0100
0001
0100
0000
0000
1000
0010
1000
0010
0000
0000
,  // measure 59
0001
1000
0001
1000
0000
0000
0100
1000
0100
1000
0000
0000
,  // measure 60
0001
0010
0100
0000
1000
0100
0010
0000
0001
0010
0100
0000
1000
0100
0010
0000
,  // measure 61
0011
0000
0000
1001
0000
0000
1000
0000
1010
0000
1100
0000
0000
0000
0000
0000
,  // measure 62
2002
0000
0000
0000
0000
0000
3003
0202
,  // measure 63
0000
0303
2200
0000
0000
3300
0202
0000
0000
0303
0001
0010
0100
1000
0002
0000
,  // measure 64
0000
0003
0000
1100
0101
1100
0000
0022
,  // measure 65
0000
0033
2020
0000
0000
3030
0022
0000
0000
0000
0000
0000
0000
0000
0033
0000
,  // measure 66
1000
0000
0100
0010
0100
0000
1000
0000
0001
0000
0010
0100
0010
0000
0001
0000
,  // measure 67
1000
0000
0010
0100
0010
0000
1000
0000
0001
0000
0100
0000
0010
0000
2002
0000
,  // measure 68
0000
0000
0000
0000
,  // measure 69
0000
0000
0000
0000
3003
0100
0010
0220
,  // measure 70
0000
0000
0000
0000
0000
0000
0000
0000
0000
0000
0000
0000
0330
0000
1000
0100
,  // measure 71
0010
0001
0100
0010
1000
0100
0010
0001
0100
0000
0100
0000
0001
0000
1000
0000
,  // measure 72
0001
1000
0100
0000
1000
0000
0001
0000
0100
0000
0001
0000
0010
0000
0100
1000
,  // measure 73
0010
0000
0100
0001
0010
0000
0100
1000
0010
0000
1000
0000
0001
0000
0100
0001
,  // measure 74
0010
0000
0001
0100
0010
0000
1000
0010
0100
0000
0010
0100
0001
0000
1000
0100
,  // measure 75
0010
0000
0010
0100
1000
0000
1000
0100
0001
0000
0100
0000
1000
0000
0001
0100
,  // measure 76
1000
0000
1000
0100
0001
0000
1000
0010
0001
0000
0001
0010
1000
0000
0001
0000
,  // measure 77
0100
0000
1000
0000
0100
0000
0001
0000
1000
0000
0001
0000
0100
0000
0010
1000
,  // measure 78
0001
0000
1000
0000
0010
0000
1000
0001
0100
0000
0001
0000
0010
0000
0001
0000
,  // measure 79
1000
0000
0100
0000
0001
0100
1000
0000
0001
0000
0100
0000
1000
0000
0100
0000
,  // measure 80
0001
0100
0000
1000
0100
0000
0001
0100
0000
1000
0100
0000
0010
0000
1000
0000
,  // measure 81
0010
0001
0000
0010
1000
0000
0010
0001
0000
0010
1000
0000
0010
0000
0002
0000
,  // measure 82
0000
0000
0013
0000
0100
0001
0100
0000
0001
1000
0001
0000
1000
0100
0020
0000
,  // measure 83
0000
0130
1000
0000
0000
1000
0002
0000
0000
0000
0000
0000
0003
0000
1001
0000
,  // measure 84
0000
0000
1000
0000
0001
0010
0100
1000
0010
0000
0100
0000
0010
0000
2000
0000
,  // measure 85
0000
0000
3001
0000
0100
0000
0002
0000
0000
0000
1003
0100
0010
0001
0200
0000
,  // measure 86
0000
0000
0310
1000
0010
1000
0001
1000
0001
1000
0100
1000
0100
1000
0010
0000
,  // measure 87
0000
0000
0110
0000
0000
0000
0101
0000
0000
0000
0001
1000
0001
1000
0001
0000
,  // measure 88
1001
1000
0010
0220
0000
0330
0101
0001
,  // measure 89
1000
0000
2200
0000
0000
3300
0001
0010
0100
0000
0010
0000
0011
0000
2002
0000
,  // measure 90
0000
0000
0000
0000
,  // measure 91
0000
0000
0000
0000
,  // measure 92
3003
0000
0000
0000
;
