#TITLE:glacia;
#SUBTITLE:;
#ARTIST:DJ TOTTO;
#TITLETRANSLIT:;
#SUBTITLETRANSLIT:;
#ARTISTTRANSLIT:;
#GENRE:;
#CREDIT:;
#BANNER:;
#BACKGROUND:glacia-bg.png;
#LYRICSPATH:;
#CDTITLE:;
#MUSIC:glacia.ogg;
#OFFSET:0.000000;
#SAMPLESTART:90.323997;
#SAMPLELENGTH:15.000000;
#SELECTABLE:YES;
#BPMS:0.000000=186.000000
;
#STOPS:
;
#BGCHANGES:;
#KEYSOUNDS:;
#ATTACKS:;

//---------------dance-single - ----------------
#NOTES:
     dance-single:
     :
     Beginner:
     4:
     0.209380,0.296080,0.058963,0.050540,0.000000,174.000000,167.000000,7.000000,6.000000,0.000000,0.000000,0.209380,0.296080,0.058963,0.050540,0.000000,174.000000,167.000000,7.000000,6.000000,0.000000,0.000000:
0000
0000
0000
0000
,
0000
0000
0000
0000
,
0000
0000
0000
0000
,
0000
0000
0000
0000
,
0000
0000
0000
0000
,
0000
0000
0000
0000
,
1000
0000
1000
0000
,
0001
0000
0001
0000
,
1000
0000
1000
0000
,
0001
0000
1001
0000
,
0010
0000
0010
0000
,
0100
0100
0100
0000
,
0100
0000
0100
0000
,
0010
0010
0010
0000
,
1000
0000
1000
0000
,
0001
0001
0001
0000
,
0001
0000
0001
0000
,
1000
1000
1000
0000
,
0002
0000
0000
0000
,
0000
0000
0003
0000
,
1000
0000
1000
0000
,
0010
1000
0010
0000
,
0100
0000
0100
0000
,
0001
0100
0001
0000
,
0010
0000
0010
0000
,
0010
0000
0010
0000
,
0100
0100
0100
0000
,
0010
0010
0010
0000
,
0001
0000
0001
0000
,
0100
0001
0100
0000
,
0010
0000
0010
0000
,
1000
0010
1000
0000
,
0100
0000
0100
0000
,
0100
0000
0100
0000
,
0010
0010
0010
0000
,
0100
0100
0100
0000
,
0110
0000
0000
0000
,
0100
0000
0010
0000
,
1001
0000
0000
0000
,
0001
0000
1000
0000
,
0110
0000
0000
0000
,
0100
0000
0010
0000
,
1001
0000
0000
0000
,
1000
0000
0100
0000
,
0200
0000
0000
0000
,
0300
0000
0000
0000
,
0020
0000
0000
0000
,
0030
0000
0000
0000
,
0002
0000
0000
0000
,
0003
0000
0000
0000
,
2000
0000
0000
0000
,
3000
0000
0000
0000
,
0001
0000
1000
0000
,
0001
1000
0001
0000
,
0010
0000
0100
0000
,
0010
0100
0010
0000
,
0001
0000
0010
0000
,
0001
0010
0001
0000
,
1000
0000
0100
0000
,
1001
0000
0000
0000
,
0001
0000
0001
0000
,
0010
0010
0010
0000
,
0100
0000
0100
0000
,
1000
1000
1000
0000
,
0010
0000
0010
0000
,
0100
0100
0100
0000
,
0001
0000
0001
0000
,
0010
0010
0010
0010
,
0010
0000
0000
0000
,
0000
0000
1001
0000
,
1000
0000
1000
0000
,
0010
1000
0010
0000
,
0100
0000
0100
0000
,
0001
0100
0001
0000
,
0010
0000
0010
0000
,
0010
0000
0010
0000
,
0100
0100
0100
0000
,
0010
0010
0010
0000
,
0001
0000
0001
0000
,
0100
0001
0100
0000
,
0010
0000
0010
0000
,
1000
0010
1000
0000
,
0100
0000
0100
0000
,
0100
0000
0100
0000
,
0010
0010
0010
0000
,
0100
0100
0100
0000
,
0020
0000
0000
0000
,
0000
0000
0000
0000
0000
0000
0000
0030
,
0000
0000
0000
0000
;

//---------------dance-single - ----------------
#NOTES:
     dance-single:
     :
     Easy:
     9:
     0.367016,0.481130,0.109503,0.117927,0.000000,305.000000,292.000000,13.000000,14.000000,0.000000,0.000000,0.367016,0.481130,0.109503,0.117927,0.000000,305.000000,292.000000,13.000000,14.000000,0.000000,0.000000:
0000
0000
0000
0000
,
0000
0000
0000
0000
,
0000
0000
0000
0000
,
0000
0000
0000
0000
,
0000
0000
0000
0000
,
0000
0000
0000
0000
,
1000
1000
0010
1000
,
0001
0010
0100
1000
,
0001
0001
0010
0001
,
1000
0010
0100
1001
,
0001
0010
0100
0010
,
0100
0100
0010
0100
,
1000
0010
0100
0010
,
0100
0100
0010
0100
,
0001
0010
0100
1000
,
0010
0100
0001
1000
,
0010
0010
0100
0001
,
1000
0010
0100
0001
,
2002
0000
3003
0000
,
0001
0000
1000
0000
0100
0100
0100
0000
,
1000
0100
1000
0100
,
0010
0001
0010
0000
,
0001
0100
0001
0100
,
0010
1000
0010
0000
,
1000
1000
0001
0001
,
1000
1000
0010
0100
,
0001
0000
0100
0000
0010
1000
0000
0001
,
0000
0010
0000
0100
0010
0000
1001
0000
,
0001
0010
0001
0010
,
0100
1000
0100
0000
,
1000
0000
0010
0000
1000
0000
0010
0100
,
0000
0001
0000
0100
0001
0000
1001
0000
,
1000
1000
0001
0001
,
1000
1000
0100
0010
,
0001
0010
0100
1000
,
0001
0100
0010
1000
,
1001
0000
0002
0000
,
0023
0000
0230
0000
,
2300
0000
0000
0000
,
0000
0000
0000
3000
,
1001
0000
2000
0000
,
3020
0000
0230
0000
,
0302
0000
0000
0000
,
0013
0010
0100
0000
,
1000
0010
1000
0010
0000
1000
0010
1000
,
0010
0000
1000
0000
0001
0000
0100
0001
,
0100
0001
0100
0000
0001
0100
0001
0100
,
0000
0001
1000
0001
,
0010
0100
0010
0100
0000
0010
0100
0010
,
0100
0000
1000
0000
0001
0000
0010
0001
,
0010
0001
0010
0000
0100
1000
0100
1000
,
0000
0001
1000
0010
,
0200
0000
0000
0000
,
0000
0000
0000
0000
,
0320
0000
0000
0000
,
0000
0000
0000
0000
,
0130
0100
0010
1000
,
0001
0001
0010
0100
,
1000
0000
0100
0000
1000
0000
0100
0010
,
0000
0001
0000
1000
0000
1001
0000
0000
,
0001
0010
0001
0010
,
0100
1000
0100
1000
,
0010
0000
0100
0000
0010
0000
0100
0010
,
0000
0100
0000
0000
0001
0000
1000
0000
,
0001
0010
0100
1000
,
0010
0100
0001
1000
,
0100
0100
0010
0001
,
1000
1000
0010
0100
,
2002
0000
0000
0000
,
3003
0000
0010
1001
,
1000
0100
1000
0100
,
0010
0001
0010
0000
,
0001
0100
0001
0100
,
0010
1000
0010
0000
,
1000
1000
0001
0001
,
1000
1000
0010
0100
,
0001
0000
0100
0000
0010
1000
0000
0001
,
0000
0010
0000
0100
0010
0000
1001
0000
,
0001
0010
0001
0010
,
0100
1000
0100
0000
,
1000
0000
0010
0000
1000
0000
0010
0100
,
0000
0001
0000
0100
0001
0000
1001
0000
,
1000
1000
0001
0001
,
1000
1000
0100
0010
,
0001
0010
0100
1000
,
0001
0100
0010
1000
,
1001
0000
0000
0000
,
0000
0000
0000
0000
0000
0000
0000
0110
,
0000
0000
0000
0000
;

//---------------dance-single - ----------------
#NOTES:
     dance-single:
     :
     Medium:
     14:
     0.664239,0.712192,0.336933,0.160043,0.071598,552.000000,512.000000,40.000000,19.000000,0.000000,0.000000,0.664239,0.712192,0.336933,0.160043,0.071598,552.000000,512.000000,40.000000,19.000000,0.000000,0.000000:
0000
0000
0000
0000
,
0000
0000
0000
0000
,
0000
0000
0000
0000
,
0000
0000
0000
0000
,
0000
0000
0000
0000
,
0000
0000
0000
0000
,
1000
0010
0000
0100
0000
0001
0000
0010
,
0000
0100
0000
1000
0010
0001
0010
1000
,
0100
0010
0000
0001
0010
0100
1000
0001
,
0000
1000
0000
0001
0100
0010
0110
0000
,
1000
0010
0100
0001
0000
0010
0001
0100
,
0000
0000
0010
0000
0000
0000
0100
0010
0100
0000
0010
0000
0100
0000
0001
0000
,
0000
1000
1000
0001
0000
0010
0010
0100
,
0000
0000
0110
0000
0000
0000
1000
0001
1000
0000
0010
0000
0100
0000
0001
0000
,
0000
0010
0010
0100
0000
1000
1000
0001
,
0000
0000
1001
0000
0000
0000
0001
1000
0001
0000
0100
0000
0010
0000
0100
0000
,
0000
0001
0010
0100
1000
0010
0100
0001
,
0000
0000
1000
0000
0000
0000
0010
0100
0010
0000
1000
0000
0001
0000
0010
0000
,
0200
0000
0000
0000
0000
0000
0000
0310
,
0010
0001
0100
0010
1000
0001
1001
0000
,
0001
0100
0010
1000
0001
1000
0100
0010
,
0000
0000
1001
0000
0000
0000
0001
0010
0100
0000
1000
0000
0001
0000
1000
0000
,
0000
0010
0010
0100
0001
0010
0100
0100
,
0000
0000
0110
0000
0000
0000
0100
0010
0100
0000
1000
0000
0001
0000
1001
0000
,
0000
0001
0001
0010
0001
0001
0100
0001
,
0001
0010
1000
0010
0001
1000
0010
0100
,
0000
0010
1000
0100
0010
0011
0000
1100
,
0000
0101
0001
0010
0100
1000
0001
1000
,
0000
0010
0100
0001
1000
0001
0010
0100
,
0000
0000
1001
0000
0000
0000
1000
0100
0010
0000
0001
0000
1000
0000
1001
0000
,
0000
0100
0100
0010
1000
0100
0010
0010
,
0000
0000
0110
0000
0000
0000
0010
0100
0010
0000
0001
0000
1000
0000
1001
0000
,
0000
1000
1000
0100
1000
1000
0010
1000
,
1000
0100
0001
0100
1000
0001
0100
0010
,
0000
0100
0001
0010
0100
0100
0010
0010
,
0000
0011
0010
1000
0001
0100
1000
0001
,
1000
0000
0002
0000
,
0023
0000
0230
0000
,
2300
0000
0000
0000
,
0000
0000
0000
3000
,
0110
0000
2000
0000
,
3020
0000
0230
0000
,
0302
0000
0000
0000
0000
0000
0000
0023
,
0000
0130
1000
0002
0000
0000
0000
0000
,
1003
1000
0001
0001
0000
0010
0010
0100
,
0100
0000
1000
0100
0010
0001
1000
0001
,
0001
1000
1000
0000
0100
0100
0010
0010
,
0000
0110
0000
0010
0001
1000
0010
0100
,
0010
0010
0100
0100
0000
0001
0001
1000
,
1000
0000
1001
0000
0001
0010
1000
0001
,
0001
0100
0100
0000
1000
1000
0010
0010
,
0000
0110
0000
0001
0100
0010
2000
0000
,
3001
0001
0010
0010
0000
0100
1000
0001
,
0000
1000
0010
0001
1000
0100
0001
1000
,
0010
0010
0100
0100
0000
0010
1000
0001
,
0000
0000
1001
0000
0000
0000
0001
0010
0100
0000
1000
0000
0001
0000
0100
0000
,
0010
0100
0100
0010
0000
1000
1000
0001
,
0000
1000
0010
0001
1000
0100
0010
0100
,
0010
0010
0001
1000
0100
0010
0001
0011
,
0000
1100
0000
0110
0000
2002
0000
3003
,
1000
0010
0100
0001
0010
0100
1000
0001
,
0010
1000
0010
0001
1000
0010
0001
1000
,
0100
0001
0100
0010
1000
0001
0010
0110
,
0000
0000
1100
0000
0000
0000
0100
1000
0100
0000
0010
0000
0001
0000
1000
0000
,
0001
0100
0010
1000
0100
0010
0001
0010
,
1000
0010
0001
1000
0100
0001
0100
1000
,
0010
0010
0100
0001
0100
0010
1000
1001
,
0000
0000
0110
0000
0000
0000
1002
0000
0000
0000
0013
0100
0010
0000
0001
0000
,
2002
0000
0000
0000
,
3003
0000
0000
0000
0000
0000
0000
0000
0001
1000
0001
1000
0001
0000
0000
0000
,
0001
0100
0010
1000
0001
1000
0100
0010
,
0000
0000
1001
0000
0000
0000
0001
0010
0100
0000
1000
0000
0001
0000
1000
0000
,
0000
0010
0010
0100
0001
0010
0100
0100
,
0000
0000
0110
0000
0000
0000
0100
0010
0100
0000
1000
0000
0001
0000
1001
0000
,
0000
1000
1000
0010
0001
0001
0010
1000
,
1000
0010
0001
1000
0100
0001
0010
0100
,
0000
0010
0001
1000
0010
0011
0000
1100
,
0000
0101
0100
0001
0010
0100
1000
0001
,
1000
0010
0100
0001
1000
0001
0010
0100
,
0000
0000
1001
0000
0000
0000
1000
0100
0010
0000
0001
0000
1000
0000
0001
0000
,
0000
0100
0100
0010
1000
0100
0010
0010
,
0000
0000
0110
0000
0000
0000
0010
0100
0010
0000
0001
0000
1000
0000
1001
0000
,
0000
0001
0001
0100
1000
1000
0100
0001
,
0001
0100
1000
0001
0010
1000
0100
0010
,
0000
0100
1000
0001
0100
0100
1000
0001
,
0000
0010
1000
0100
0010
0001
1000
0001
,
0100
0000
0000
0100
0001
0010
0100
1000
,
0000
0010
0000
0100
0000
0001
0010
0220
,
0000
0000
0000
0000
,
0330
0000
0000
0000
,
0000
0000
0000
0000
;

//---------------dance-single - ----------------
#NOTES:
     dance-single:
     :
     Hard:
     16:
     0.848349,1.124514,0.682289,0.151620,0.505399,705.000000,624.000000,81.000000,18.000000,0.000000,0.000000,0.848349,1.124514,0.682289,0.151620,0.505399,705.000000,624.000000,81.000000,18.000000,0.000000,0.000000:
// measure 0
0000
0000
0000
0000
,  // measure 1
0000
0000
0000
0000
,  // measure 2
0000
0000
0000
0000
,  // measure 3
0000
0000
0000
0000
,  // measure 4
0000
0000
0000
0000
,  // measure 5
0000
0000
0000
0000
,  // measure 6
0001
0100
0000
0010
0000
1000
0000
0001
,  // measure 7
0000
0000
0010
0000
0000
0000
0100
1000
0001
0000
0100
0000
0010
0000
1000
0000
,  // measure 8
0001
0010
0000
0100
1000
0100
0010
0001
,  // measure 9
0000
0000
1000
0000
0000
0000
0001
0010
0100
1000
0010
0100
0001
0000
0000
0000
,  // measure 10
0001
0010
1000
0001
0100
1000
0001
0100
,  // measure 11
0000
0000
0110
0000
0000
0000
0001
0100
0010
0000
1000
0000
0100
0000
0110
0000
,  // measure 12
0000
1000
0010
0001
1000
0100
0001
0010
,  // measure 13
0000
0000
0110
0000
0000
0000
0100
1000
0010
0000
0100
0000
0001
0000
0011
0000
,  // measure 14
0000
0000
0100
1000
0010
0000
0100
0000
0001
0000
1000
0000
0010
0000
0001
0000
,  // measure 15
0000
0000
0110
0000
0000
0000
0100
0010
1000
0000
0001
0000
0010
0000
0110
0000
,  // measure 16
0000
0000
1000
0001
1000
0000
0100
0000
0001
0000
0100
0000
1000
0000
0001
0000
,  // measure 17
0000
0000
1001
0000
0000
0000
0001
0010
0100
0000
1000
0000
0001
0000
0100
0000
,  // measure 18
0220
0000
0000
0000
0000
0000
0030
0310
,  // measure 19
0001
1000
0100
0001
0010
0100
1001
0000
,  // measure 20
0000
0000
1000
0100
1000
0000
1100
0000
0000
0000
0110
0000
0000
0000
0011
0000
,  // measure 21
0000
0000
0110
0000
0000
0000
0010
0100
0010
0000
0001
0000
1000
0000
1001
0000
,  // measure 22
0000
0000
0010
1000
0100
0000
0010
0000
0001
0000
0100
0000
0010
0000
1000
0000
,  // measure 23
0000
0000
0011
0000
0000
0000
0001
0010
0100
1000
0001
0000
1000
0000
1001
0000
,  // measure 24
0000
0000
0001
0100
0001
0100
0010
0000
1000
0100
1000
0100
0010
0000
0001
1000
,  // measure 25
0001
1000
0100
0010
0001
0000
1000
0000
0010
0000
0100
0010
0100
0000
0110
0000
,  // measure 26
0000
0000
1000
0000
0001
1000
0100
0000
0010
0000
0011
0000
0000
0000
0110
0000
,  // measure 27
0000
0000
1100
0000
1000
0100
0010
0001
1000
0000
1000
0000
0001
0000
0001
0000
,  // measure 28
0000
0000
0001
0100
0001
0000
0011
0000
0000
0000
0110
0000
0000
0000
1100
0000
,  // measure 29
0000
0000
1001
0000
0000
0000
0001
0010
0100
0000
1000
0000
0001
0000
1001
0000
,  // measure 30
0000
0000
1000
0010
0100
0000
0001
0000
0100
0000
1000
0000
0100
0000
0101
0000
,  // measure 31
0000
0000
1100
0000
0000
0000
0100
1000
0010
0100
0001
0000
0010
0000
0011
0000
,  // measure 32
0000
0000
1000
0010
1000
0010
0100
0000
0001
0010
0001
0010
0100
0000
1000
0001
,  // measure 33
1000
0001
0010
0100
1000
0000
0001
0000
1000
0000
0010
0100
0010
0000
0110
0000
,  // measure 34
0000
0000
0001
0100
0010
1000
0100
0010
0001
0000
1000
0000
0010
0000
0110
0000
,  // measure 35
0000
0000
1001
0000
1000
0010
0100
0001
0010
0100
0010
0100
1000
0001
1000
0001
,  // measure 36
1000
0000
0020
0000
,  // measure 37
2030
0000
3002
0000
,  // measure 38
0203
0000
0000
0000
,  // measure 39
0000
0000
0300
0000
,  // measure 40
1001
0000
2000
0000
,  // measure 41
3002
0000
0023
0000
,  // measure 42
0230
0000
0000
0000
0000
0000
0000
0310
,  // measure 43
0000
0001
0100
0020
0000
0000
0000
0000
,  // measure 44
1030
0010
0100
0101
0000
0001
0010
0100
,  // measure 45
1100
0000
1000
0100
0001
0100
1000
0010
,  // measure 46
0100
0010
0110
0000
0001
0100
0010
0110
,  // measure 47
0000
0010
0000
1000
0001
0010
0100
1000
,  // measure 48
0001
0001
1000
1001
0000
0100
0100
0010
,  // measure 49
0110
0000
1001
0000
0001
0010
0100
1000
,  // measure 50
1000
1000
1001
0000
0010
0010
0010
0110
,  // measure 51
0000
0000
1000
0000
0001
0000
1000
0100
0010
0001
1000
0000
0002
0000
0000
0000
,  // measure 52
1003
1000
0100
0010
0000
0001
0100
0001
,  // measure 53
0000
0000
1000
0100
0010
0001
1000
0100
0010
0001
1000
0000
0001
0000
0010
0000
,  // measure 54
0100
0100
0010
0001
0000
0100
0010
1000
,  // measure 55
0000
0000
1001
0000
0000
0000
0001
1000
0001
0000
0100
0000
0010
0000
1000
0000
,  // measure 56
0010
1000
0010
0000
0100
0000
0010
0000
1000
0010
1000
0000
0100
0000
0010
0000
,  // measure 57
0001
0000
1000
0010
0100
0001
1000
0100
0010
0000
0001
0000
1000
0000
0010
0000
,  // measure 58
0100
0010
1000
0000
0001
0000
0010
0000
1000
0000
0001
0000
0100
0000
0110
0000
,  // measure 59
0000
0011
0000
1100
0000
2002
0000
3003
,  // measure 60
1000
0000
0100
1000
0010
0000
0100
0000
0010
0000
0100
0001
0010
0000
0100
0000
,  // measure 61
1000
0000
0001
0100
0001
0100
0010
1000
0001
0000
0001
0000
0010
0000
0010
0000
,  // measure 62
0001
0000
0100
0001
0010
0000
0100
0000
0010
0000
0100
1000
0010
0000
0100
0000
,  // measure 63
0000
0000
0110
0000
0000
0000
0010
0100
0010
0000
1000
0000
0001
0000
0100
0000
,  // measure 64
0001
0000
1000
0100
1000
0100
0010
0000
0001
0000
1000
0000
0100
0000
0001
0000
,  // measure 65
0100
0000
1000
0010
0100
0001
0010
0100
1000
0000
1000
0000
0001
0000
0001
0000
,  // measure 66
0100
0000
0001
1000
0001
0000
0100
0000
0010
0000
1000
0000
0001
0000
1001
0000
,  // measure 67
0000
0000
0110
0000
0000
0000
2001
0000
0000
0000
3001
0100
0001
0000
0010
0000
,  // measure 68
0100
0100
0100
0100
0000
0011
0000
1100
,  // measure 69
0000
0000
0001
0000
1000
0000
1001
0000
0001
0100
0010
1000
0001
0000
0000
0000
,  // measure 70
0110
0000
0010
1000
0001
0000
0101
0000
0000
0000
0011
0000
0000
0000
1001
0000
,  // measure 71
0000
0000
1010
0000
0000
0000
1000
0010
1000
0000
0100
0000
0010
0000
0001
0000
,  // measure 72
0101
0000
0001
0100
0001
0100
0010
0000
1000
0000
0001
0000
0010
0000
0110
0000
,  // measure 73
0000
0000
0011
0000
0000
0000
0001
0010
0100
1000
0001
0000
0100
0000
0110
0000
,  // measure 74
0000
0000
1000
0010
1000
0000
1001
0000
0001
0010
0001
0000
1001
0000
1000
0010
,  // measure 75
1000
0100
0010
0000
0001
0000
1000
0000
1001
0000
0001
0100
1000
0100
0001
0000
,  // measure 76
1000
0000
0001
0100
0010
1000
0001
0000
1000
0000
1010
0000
0000
0000
0101
0000
,  // measure 77
0000
0000
0011
0000
1000
0100
1000
0100
0010
0000
0001
0000
1000
0000
0010
0000
,  // measure 78
0110
0000
0010
1000
0001
0000
0101
0000
0000
0000
1010
0000
0000
0000
0101
0000
,  // measure 79
0000
0000
1100
0000
0000
0000
0001
0100
0001
0000
0010
0000
0100
0000
1000
0000
,  // measure 80
1100
0000
0001
0100
0001
1000
0100
0000
0010
0000
0001
0000
1000
0000
1010
0000
,  // measure 81
0000
0000
0011
0000
0000
0000
1000
0010
0100
0000
0010
0000
1010
0000
0011
0000
,  // measure 82
0000
0000
1000
0100
1000
0001
0100
0000
0001
0100
0001
1000
0010
0000
0100
0010
,  // measure 83
1000
0001
0010
0100
1000
0100
1000
0010
0100
0000
0001
0010
1000
0010
0001
0000
,  // measure 84
0110
0000
0001
0100
0010
1000
0001
1000
0001
0000
0010
0000
0100
0000
1100
0000
,  // measure 85
0000
0000
1000
0100
0010
0001
0010
0100
0010
0001
1000
0010
0100
0001
1000
0001
,  // measure 86
2000
0000
0000
3100
0001
1000
0010
0001
,  // measure 87
0000
1000
0000
0010
0000
0100
0001
2002
,  // measure 88
0000
0000
0000
0000
,  // measure 89
3003
0000
0000
0000
;

//---------------dance-double - ----------------
#NOTES:
     dance-double:
     :
     Easy:
     9:
     0.367016,0.481130,0.109503,0.117927,0.000000,305.000000,292.000000,13.000000,14.000000,0.000000,0.000000,0.367016,0.481130,0.109503,0.117927,0.000000,305.000000,292.000000,13.000000,14.000000,0.000000,0.000000:
00000000
00000000
00000000
00000000
,
00000000
00000000
00000000
00000000
,
00000000
00000000
00000000
00000000
,
00000000
00000000
00000000
00000000
,
00000000
00000000
00000000
00000000
,
00000000
00000000
00000000
00000000
,
00010000
00010000
00001000
00100000
,
00010000
10000000
00100000
01000000
,
00010000
00010000
00100000
00001000
,
00010000
00000010
00000100
00001001
,
00000001
00000010
00000001
00000010
,
00000100
00000100
00001000
00000100
,
00010000
00010000
00001000
00100000
,
00010000
00100000
00010000
10000000
,
00100000
01000000
00100000
00010000
,
00001000
00000100
00000001
00000010
,
00000100
00000100
00000010
00000001
,
00000100
00001000
00010000
00001000
,
00022000
00000000
00033000
00000000
,
00010000
00000000
01000000
00000000
00100000
00100000
00100000
00000000
,
00010000
00100000
00010000
00100000
,
01000000
10000000
00100000
00000000
,
10000000
01000000
00010000
00001000
,
00000100
00000001
00000010
00000000
,
00000001
00000001
00000010
00000010
,
00000100
00000100
00001000
00000100
,
00010000
00000000
00001000
00000000
00010000
00001000
00000000
00010000
,
00000000
00000100
00000000
00000010
00000100
00000000
00001001
00000000
,
00001000
00000100
00001000
00000100
,
00000010
00000001
00000100
00000000
,
00000001
00000000
00000010
00000000
00001000
00000000
00010000
00100000
,
00000000
10000000
00000000
01000000
00100000
00000000
10010000
00000000
,
10000000
10000000
01000000
01000000
,
00100000
00100000
00010000
00100000
,
00001000
00010000
00001000
00000100
,
00000001
00000010
00000100
00001000
,
00011000
00000000
00002000
00000000
,
00203000
00000000
02300000
00000000
,
23000000
00000000
00000000
00000000
,
00000000
00000000
00000000
30000000
,
10010000
00000000
00020000
00000000
,
00230000
00000000
00302000
00000000
,
00003200
00000000
00000000
00000000
,
00000310
00001000
00000001
00000000
,
00000001
00000010
00000001
00000010
00000000
00000100
00001000
00000100
,
00001000
00000000
00000100
00000000
00010000
00000000
00001000
00010000
,
00001000
00010000
00001000
00000000
00100000
00010000
00100000
00010000
,
00000000
10000000
00010000
01000000
,
00100000
10000000
00100000
10000000
00000000
00010000
01000000
00010000
,
01000000
00000000
00001000
00000000
00010000
00000000
00001000
00010000
,
00001000
00010000
00001000
00000000
00010000
00000100
00010000
00000100
,
00000000
00000010
00000001
00001000
,
00000002
00000000
00000000
00000000
,
00000000
00000000
00000000
00000000
,
00002003
00000000
00000000
00000000
,
00000000
00000000
00000000
00000000
,
00003100
00000100
00010000
00001000
,
00100000
00100000
01000000
10000000
,
00010000
00000000
01000000
00000000
00100000
00000000
00010000
00001000
,
00000000
00000100
00000000
00000001
00000000
00001001
00000000
00000000
,
00000001
00000100
00000001
00000100
,
00001000
00010000
00001000
00010000
,
01000000
00000000
10000000
00000000
01000000
00000000
10000000
00100000
,
00000000
01000000
00000000
00000000
00100000
00000000
01000000
00000000
,
00010000
00100000
01000000
10000000
,
00100000
00010000
00001000
00000100
,
00000001
00000001
00000010
00000100
,
00010000
00010000
00001000
01000000
,
20020000
00000000
00000000
00000000
,
30030000
00000000
01000000
10010000
,
00010000
01000000
00010000
01000000
,
00100000
10000000
01000000
00000000
,
10000000
00100000
00010000
00001000
,
00000010
00000001
00000100
00000000
,
00000001
00000001
00000100
00000100
,
00000010
00000010
00001000
00000010
,
00010000
00000000
00001000
00000000
00010000
00001000
00000000
00010000
,
00000000
00000010
00000000
00000100
00000010
00000000
00001001
00000000
,
00001000
00000010
00001000
00000010
,
00000100
00000001
00000010
00000000
,
00000001
00000000
00000100
00000000
00001000
00000000
00010000
01000000
,
00000000
10000000
00000000
00100000
01000000
00000000
10010000
00000000
,
10000000
10000000
00100000
00100000
,
01000000
01000000
00010000
01000000
,
00001000
00010000
00001000
00000010
,
00000001
00000100
00000010
00001000
,
00011000
00000000
00000000
00000000
,
00000000
00000000
00000000
00000000
00000000
00000000
00000000
10010000
,
00000000
00000000
00000000
00000000
;

//---------------dance-double - ----------------
#NOTES:
     dance-double:
     :
     Medium:
     14:
     0.665442,0.712192,0.336933,0.160043,0.075810,553.000000,513.000000,40.000000,19.000000,0.000000,0.000000,0.665442,0.712192,0.336933,0.160043,0.075810,553.000000,513.000000,40.000000,19.000000,0.000000,0.000000:
00000000
00000000
00000000
00000000
,
00000000
00000000
00000000
00000000
,
00000000
00000000
00000000
00000000
,
00000000
00000000
00000000
00000000
,
00000000
00000000
00000000
00000000
,
00000000
00000000
00000000
00000000
,
00001000
00010000
00000000
00001000
00000000
00000100
00000000
00000001
,
00000000
00000010
00000000
00001000
00000010
00000001
00000100
00001000
,
00010000
00001000
00000000
00010000
00100000
01000000
00010000
10000000
,
00000000
00010000
00000000
10000000
01000000
00010000
00011000
00000000
,
00001000
00010000
01000000
10000000
00000000
00100000
10000000
01000000
,
00000000
00000000
00100000
00000000
00000000
00000000
00001000
00100000
00001000
00000000
00010000
00000000
00000100
00000000
00001000
00000000
,
00000000
00000010
00000010
00000100
00000000
00000001
00000001
00001000
,
00000000
00000000
00001001
00000000
00000000
00000000
00000001
00001000
00000001
00000000
00001000
00000000
00000100
00000000
00010000
00000000
,
00000000
00001000
00001000
00010000
00000000
01000000
01000000
10000000
,
00000000
00000000
10010000
00000000
00000000
00000000
10000000
00100000
10000000
00000000
01000000
00000000
00010000
00000000
00001000
00000000
,
00000000
00001000
00010000
00100000
00010000
00001000
00000100
00000001
,
00000000
00000000
00001000
00000000
00000000
00000000
00000001
00001000
00000001
00000000
00000100
00000000
00001000
00000000
00010000
00000000
,
00200000
00000000
00000000
00000000
00000000
00000000
00000000
10300000
,
10000000
00100000
01000000
00001000
00010000
00001000
00011000
00000000
,
00001000
00010000
00100000
10000000
00100000
00010000
10000000
01000000
,
00000000
00000000
01010000
00000000
00000000
00000000
00010000
00100000
00010000
00000000
01000000
00000000
00001000
00000000
00010000
00000000
,
00000000
00001000
00001000
00000010
00000001
00000100
00000010
00000010
,
00000000
00000000
00000110
00000000
00000000
00000000
00000010
00000100
00000010
00000000
00010000
00000000
00001000
00000000
00011000
00000000
,
00000000
00001000
00001000
00010000
01000000
01000000
10000000
00100000
,
00100000
00010000
00001000
00000100
00000001
00001000
00000010
00000001
,
00000000
00000010
00001000
00000001
00000100
00000110
00000000
00001010
,
00000000
00011000
00001000
00010000
00100000
00010000
00001000
00011000
,
00000000
00001000
00000010
00000001
00000010
00001000
00000001
00000100
,
00000000
00000000
00001100
00000000
00000000
00000000
00001000
00000010
00001000
00000000
00000100
00000000
00010000
00000000
00001000
00000000
,
00000000
00010000
00010000
00100000
10000000
01000000
00100000
00100000
,
00000000
00000000
01100000
00000000
00000000
00000000
00100000
01000000
00100000
00000000
00001000
00000000
00010000
00000000
00011000
00000000
,
00000000
00010000
00010000
00001000
00000100
00000100
00000001
00000010
,
00000010
00001000
00010000
01000000
10000000
00010000
00100000
10000000
,
00000000
00100000
00100000
01000000
01000000
10000000
00100000
00010000
,
00000000
00001000
00001000
00010000
00001000
00000010
00000001
00000100
,
00000001
00000000
00000200
00000000
,
00000320
00000000
00020030
00000000
,
00032000
00000000
00000000
00000000
,
00000000
00000000
00000000
00003000
,
00110000
00000000
00200000
00000000
,
00320000
00000000
20030000
00000000
,
32000000
00000000
00000000
00000000
00000000
00000000
00000000
03200000
,
00000000
00301000
00010000
00000200
00000000
00000000
00000000
00000000
,
00001300
00001000
00000010
00000010
00000000
00000100
00000100
00000001
,
00000001
00000000
00000100
00001000
00010000
01000000
10000000
00010000
,
00010000
10000000
10000000
00000000
00100000
00100000
00010000
00010000
,
00000000
00011000
00000000
00001000
00000100
00000001
00000010
00001000
,
00000010
00000010
00000100
00000100
00000000
00010000
00010000
00001000
,
00001000
00000000
00011000
00000000
00010000
01000000
10000000
00010000
,
00010000
00100000
00100000
00000000
00001000
00001000
00010000
00010000
,
00000000
00011000
00000000
00001000
00000100
00000001
00000020
00000000
,
00000031
00000001
00001000
00001000
00000000
00000001
00000100
00001000
,
00000000
00010000
00100000
10000000
01000000
00010000
00001000
00000100
,
00000010
00000010
00000100
00000100
00000000
00000001
00000010
00000001
,
00000000
00000000
00000011
00000000
00000000
00000000
00000001
00000010
00000100
00000000
00001000
00000000
00000100
00000000
00010000
00000000
,
00001000
01000000
01000000
00100000
00000000
10000000
00100000
00010000
,
00000000
00100000
00010000
10000000
01000000
00010000
00001000
00000010
,
00000100
00000100
00000010
00001000
00000100
00000010
00000001
00000011
,
00000000
00000110
00000000
00001100
00000000
00022000
00000000
00033000
,
00001000
00010000
01000000
00100000
00010000
10000000
00100000
00010000
,
00001000
00000100
00001000
00010000
00000100
00000010
00000001
00001000
,
00000010
00000001
00001000
00000100
00000001
00000010
00000100
00001100
,
00000000
00000000
00011000
00000000
00000000
00000000
00001000
00010000
00001000
00000000
00100000
00000000
00010000
00000000
10000000
00000000
,
01000000
00010000
00001000
00000100
00010000
00000100
00000001
00000010
,
00001000
00000001
00000100
00001000
00010000
00100000
00001000
00010000
,
00100000
00100000
01000000
00010000
00100000
10000000
00100000
01100000
,
00000000
00000000
10010000
00000000
00000000
00000000
00201000
00000000
00000000
00000000
00301000
00010000
00001000
00000000
00010000
00000000
,
00020200
00000000
00000000
00000000
,
00030300
00000000
00000000
00000000
00000000
00000000
00000000
00000000
00001000
00000001
00001000
00000001
00001000
00000000
00000000
00000000
,
00000001
00000100
00000010
00001000
00000100
00010000
00001000
00100000
,
00000000
00000000
00110000
00000000
00000000
00000000
10000000
00100000
01000000
00000000
00010000
00000000
10000000
00000000
00010000
00000000
,
00000000
10000000
10000000
00010000
00100000
10000000
00100000
00100000
,
00000000
00000000
01100000
00000000
00000000
00000000
00010000
10000000
00010000
00000000
00100000
00000000
00001000
00000000
00011000
00000000
,
00000000
00001000
00001000
00010000
00100000
00100000
01000000
00001000
,
00001000
00010000
00001000
00000010
00000001
00001000
00000010
00000100
,
00000000
00000001
00000010
00000100
00001000
00001100
00000000
00000011
,
00000000
00000101
00000001
00000100
00001000
00010000
01000000
10000000
,
10000000
01000000
00100000
00010000
01000000
00001000
00010000
00000010
,
00000000
00000000
00001010
00000000
00000000
00000000
00000001
00000010
00000100
00000000
00001000
00000000
00000001
00000000
00001000
00000000
,
00000000
00000001
00000001
00001000
00000010
00000001
00000010
00000010
,
00000000
00000000
00000110
00000000
00000000
00000000
00001000
00000001
00001000
00000000
00000010
00000000
00010000
00000000
00011000
00000000
,
00000000
00010000
00010000
00001000
00000010
00000010
00000100
00010000
,
00010000
00001000
00010000
00100000
10000000
00010000
00100000
01000000
,
00000000
00000000
00010000
00000000
01000000
00000000
10000000
00000000
00100000
00000000
01000000
00000000
00010000
10000000
00010000
00000000
,
00000000
11000000
10000000
01000000
00010000
00001000
00000100
00000001
,
00001000
00000000
00000000
00000001
00000100
00001000
00010000
00100000
,
00000000
10000000
00000000
01000000
00000000
00010000
00001000
00022000
,
00000000
00000000
00000000
00000000
,
00033000
00000000
00000000
00000000
,
00000000
00000000
00000000
00000000
;

//---------------dance-double - ----------------
#NOTES:
     dance-double:
     :
     Hard:
     16:
     0.806232,0.974578,0.530669,0.151620,0.438013,670.000000,607.000000,63.000000,18.000000,0.000000,0.000000,0.806232,0.974578,0.530669,0.151620,0.438013,670.000000,607.000000,63.000000,18.000000,0.000000,0.000000:
00000000
00000000
00000000
00000000
,
00000000
00000000
00000000
00000000
,
00000000
00000000
00000000
00000000
,
00000000
00000000
00000000
00000000
,
00000000
00000000
00000000
00000000
,
00000000
00000000
00000000
00000000
,
10000000
01000000
00000000
00100000
00000000
00001000
00000000
00010000
,
00000000
00000000
00000100
00000000
00000000
00000000
00000010
00000001
00001000
00000000
00000010
00000000
00000100
00000000
00001000
00000000
,
00010000
00100000
00000000
10000000
00100000
00010000
00100000
10000000
,
00000000
01000000
00000000
00010000
00001000
00000100
00000110
00000000
,
00000100
00000010
00001000
00000001
00000010
00001000
00010000
01000000
,
00000000
00000000
01100000
00000000
00000000
00000000
00100000
00010000
10000000
00000000
00010000
00000000
01000000
00000000
00100000
00000000
,
00000000
10000000
00100000
00010000
00001000
00100000
00010000
00001000
,
00000000
00000000
00001100
00000000
00000000
00000000
00000100
00001000
00000010
00000000
00001000
00000000
00000001
00000000
00000100
00000000
,
00000000
00000000
00000001
00000100
00001000
00000000
00010000
00000000
00001000
00000000
00100000
00000000
00010000
00000000
10000000
00000000
,
00000000
00000000
10010000
00000000
00000000
00000000
10000000
01000000
00100000
00000000
00010000
00000000
10000000
00000000
00100000
00000000
,
00000000
00000000
01000000
00100000
01000000
00000000
00100000
00000000
10000000
00000000
01000000
00000000
00010000
00000000
00001000
00000000
,
00000000
00000000
00011000
00000000
00000000
00000000
00001000
00000100
00000010
00000000
00001000
00000000
00000001
00000000
00000010
00000000
,
00000220
00000000
00000000
00000000
00000000
00000000
00000030
00000310
,
00000001
00000100
00001000
00010000
00100000
10000000
01100000
00000000
,
00000000
00000000
10000000
01000000
00010000
00000000
00011000
00000000
00000000
00000000
00001100
00000000
00000000
00000000
00000110
00000000
,
00000000
00000000
00000011
00000000
00000000
00000000
00000001
00000100
00000010
00000000
00001000
00000000
00000001
00000000
00000100
00000000
,
00000000
00000000
00001000
00010000
00100000
00000000
10000000
00000000
01000000
00000000
00100000
00000000
00001000
00000000
00010000
00000000
,
00000000
00000000
00011000
00000000
00000000
00000000
00010000
01000000
10000000
00010000
10000000
00000000
00010000
00000000
10000000
00000000
,
00000000
00000000
00010000
01000000
00010000
01000000
00001000
00000000
00010000
00000100
00010000
00000100
00001000
00000000
00000100
00001000
,
00000100
00000010
00000001
00001000
00000010
00000000
00000100
00000000
00000001
00000000
00001000
00000001
00001000
00000000
00001001
00000000
,
00000000
00000000
00000001
00000000
00001000
00000100
00000010
00000000
00000001
00000000
00000011
00000000
00000000
00000000
00001100
00000000
,
00000000
00000000
00011000
00000000
00010000
00001000
00010000
00000100
00001000
00000000
00001000
00000000
00000001
00000000
00000001
00000000
,
00000000
00000000
00000001
00000010
00001000
00000000
00011000
00000000
00000000
00000000
00110000
00000000
00000000
00000000
01100000
00000000
,
00000000
00000000
11000000
00000000
00000000
00000000
10000000
00100000
01000000
00000000
00010000
00000000
10000000
00000000
00100000
00000000
,
00000000
00000000
00010000
00001000
00000100
00000000
00000001
00000000
00000010
00000000
00000100
00000000
00010000
00000000
00001000
00000000
,
00000000
00000000
00011000
00000000
00000000
00000000
00001000
00000010
00000001
00001000
00000001
00000000
00001000
00000000
00000001
00000000
,
00000000
00000000
00001000
00000010
00001000
00000010
00010000
00000000
00001000
00100000
00001000
00100000
00010000
00000000
00100000
00010000
,
00100000
01000000
10000000
00010000
01000000
00000000
00100000
00000000
10000000
00000000
00010000
10000000
00010000
00000000
10010000
00000000
,
00000000
00000000
10000000
00010000
00100000
01000000
10000000
00010000
10000000
00000000
01000000
00000000
00010000
00000000
00001000
00000000
,
00000000
00010000
00001000
00100000
00010000
00001000
00000100
00000010
,
00001001
00000000
00000002
00000000
,
00000203
00000000
00002300
00000000
,
00023000
00000000
00000000
00000000
,
00000000
00000000
00030000
00000000
,
00011000
00000000
00020000
00000000
,
02030000
00000000
23000000
00000000
,
30200000
00000000
00000000
00000000
00000000
00000000
00000000
01300000
,
00000000
00001000
00100000
00020000
00000000
00000000
00000000
00000000
,
10030000
00100000
00010000
00001000
00000000
00010000
00001000
00000010
,
00000001
00000000
00000001
00000010
00001000
00000001
00000100
00001000
,
00010000
00100000
10000000
00000000
00100000
00010000
00001000
00000100
,
00000000
00010000
00000000
00001000
00000010
00000001
00000010
00001000
,
00010000
01000000
10000000
00100000
00000000
00010000
00001000
00000010
,
00000001
00000000
00001001
00000000
00000001
00000100
00001000
00000100
,
00000100
00000100
00000110
00000000
00001000
00001000
00001000
00011000
,
00000000
00000000
00001000
00000000
00010000
00000000
01000000
10000000
00100000
01000000
00010000
00000000
20000000
00000000
00000000
00000000
,
30010000
00010000
01000000
00100000
00000000
10000000
01000000
00010000
,
00000000
00001000
00010000
00100000
00010000
00001000
00000100
00000010
,
00000100
00000100
00000010
00001000
00000000
00000001
00000100
00001000
,
00000000
00000000
00011000
00000000
00000000
00000000
00010000
00001000
00010000
00000000
01000000
00000000
00100000
00000000
00010000
00000000
,
10000000
00100000
10000000
00000000
01000000
00000000
00100000
00000000
00010000
00100000
00010000
00000000
01000000
00000000
00001000
00000000
,
00010000
00000000
00001000
00010000
00001000
00010000
00001000
00010000
00000010
00000000
00001000
00000000
00000010
00000000
00000001
00000000
,
00000010
00000100
00000001
00000000
00000010
00000000
00000001
00000000
00000100
00000000
00001000
00000000
00010000
00000000
00010100
00000000
,
00000000
00001100
00000000
00000011
00000000
00000220
00000000
00000330
,
00000001
00000000
00000100
00001000
00000100
00000000
00010000
00000000
00001000
00000000
00000010
00001000
00000010
00000000
00001000
00000000
,
00000100
00000000
00001000
00000100
00001000
00000100
00010000
00001000
01000000
00000000
01000000
00000000
00100000
00000000
00100000
00000000
,
10000000
00000000
01000000
00010000
01000000
00000000
00001000
00000000
00010000
00000000
00100000
00010000
00100000
00000000
00001000
00000000
,
00000000
00000000
00011000
00000000
00000000
00000000
00001000
00010000
00001000
00000000
00010000
00000000
00001000
00000000
00000100
00000000
,
00000001
00000000
00001000
00000100
00001000
00000001
00000100
00000000
00000010
00000000
00001000
00000000
00000100
00000000
00010000
00000000
,
00001000
00000000
00100000
00010000
00100000
00010000
10000000
00100000
10000000
00000000
10000000
00000000
00010000
00000000
00010000
00000000
,
00100000
00000000
00010000
10000000
00010000
00000000
01000000
00000000
00001000
00000000
00010000
00000000
00001000
00000000
00011000
00000000
,
00000000
00000000
00001100
00000000
00000000
00000000
00001002
00000000
00000000
00000000
00001003
00000010
00001000
00000000
00000100
00000000
,
00000010
00000010
00000010
00000010
00000000
00000110
00000000
00001100
,
00000000
00000000
00010000
00000000
00001000
00000000
00011000
00000000
00010000
00001000
00100000
01000000
10000000
00000000
00000000
00000000
,
10010000
00000000
00010000
01000000
00100000
00000000
10100000
00000000
00000000
00000000
01010000
00000000
00000000
00000000
00011000
00000000
,
00000000
00000000
00001010
00000000
00000000
00000000
00000010
00000100
00000010
00000000
00001000
00000000
00000001
00000000
00000010
00000000
,
00000110
00000000
00000010
00000100
00000010
00000100
00001000
00000000
00000001
00000000
00000100
00000000
00001000
00000000
00011000
00000000
,
00000000
00000000
00110000
00000000
00000000
00000000
10000000
01000000
00100000
00010000
10000000
00000000
00010000
00000000
10010000
00000000
,
00000000
00000000
10000000
01000000
00100000
00000000
01100000
00000000
00100000
00001000
00010000
00000000
00011000
00000000
00001000
00000100
,
00000001
00001000
00000001
00000000
00001000
00000000
00000001
00000000
00001000
00000000
00000001
00000100
00000010
00001000
00000001
00000000
,
00000010
00000000
00000100
00001000
00000100
00010000
00001000
00000000
00010000
00000000
00011000
00000000
00000000
00000000
00110000
00000000
,
00000000
00000000
01100000
00000000
00000000
00000000
00100000
00001000
00010000
00000000
00001000
00000000
00000100
00000000
00000010
00000000
,
00001001
00000000
00001000
00000010
00000100
00000000
00000101
00000000
00000000
00000000
00001010
00000000
00000000
00000000
00011000
00000000
,
00000000
00000000
01010000
00000000
00000000
00000000
01000000
00100000
01000000
00000000
00010000
00000000
10000000
00000000
01000000
00000000
,
01100000
00000000
01000000
00100000
01000000
00100000
00010000
00000000
10000000
00000000
00100000
00000000
00010000
00000000
00011000
00000000
,
00000000
00000000
00001100
00000000
00000000
00000000
00000001
00000010
00000100
00001000
00000001
00000000
00001000
00000000
00001001
00000000
,
00000000
00000000
00000001
00000010
00000100
00001000
00000100
00000000
00001000
00000100
00010000
00001000
00100000
00000000
00010000
00100000
,
10000000
00100000
00010000
10000000
00100000
00000000
10000000
00000000
00010000
00000000
10000000
00100000
01000000
00010000
10000000
00000000
,
01000000
00000000
00100000
00010000
00100000
00001000
00010000
00000000
00001000
00000000
00001000
00000000
00010000
00000000
00010000
00000000
,
00000000
00000000
00001000
00010000
00000100
00001000
00000100
00000010
00000001
00001000
00000010
00000100
00000001
00000100
00001000
00010000
,
00002000
00000000
00000000
00013000
00001000
00100000
00010000
01000000
,
00000000
00100000
00000000
00010000
00000000
00001000
00010000
00022000
,
00000000
00000000
00000000
00000000
,
00033000
00000000
00000000
00000000
,
00000000
00000000
00000000
00000000
;
