#VERSION:0.83;
#TITLE:GRADIUS REMIX(↑↑↓↓←→←→BA Ver.);
#SUBTITLE:;
#ARTIST:TOKYO MACHINE;
#TITLETRANSLIT:GRADIUS REMIX (UUDDLRLRBA Ver.);
#SUBTITLETRANSLIT:;
#ARTISTTRANSLIT:;
#GENRE:;
#ORIGIN:;
#CREDIT:;
#BANNER:GRADIUS REMIX (UUDDLRLRBA Ver.).png;
#BACKGROUND:;
#PREVIEWVID:;
#JACKET:GRADIUS REMIX (UUDDLRLRBA Ver.)-jacket.png;
#CDIMAGE:;
#DISCIMAGE:;
#LYRICSPATH:;
#CDTITLE:;
#MUSIC:GRADIUS REMIX (UUDDLRLRBA Ver.).ogg;
#OFFSET:0.000000;
#SAMPLESTART:63.750000;
#SAMPLELENGTH:15.000000;
#SELECTABLE:YES;
#BPMS:0.000=128.000;
#STOPS:;
#DELAYS:;
#WARPS:;
#TIMESIGNATURES:0.000=4=4;
#TICKCOUNTS:0.000=4;
#COMBOS:0.000=1;
#SPEEDS:0.000=1.000=0.000=0;
#SCROLLS:0.000=1.000;
#FAKES:;
#LABELS:0.000=Song Start;
#BGCHANGES:;
#KEYSOUNDS:;
#ATTACKS:
;

//---------------dance-single - ----------------
#NOTEDATA:;
#CHARTNAME:;
#STEPSTYPE:dance-single;
#DESCRIPTION:;
#CHARTSTYLE:;
#DIFFICULTY:Beginner;
#METER:2;
#RADARVALUES:0.074941,0.126776,0.000000,0.017486,0.000000,60.000000,60.000000,0.000000,2.000000,0.000000,0.000000,0.000000,0.000000,0.000000,0.074941,0.126776,0.000000,0.017486,0.000000,60.000000,60.000000,0.000000,2.000000,0.000000,0.000000,0.000000,0.000000,0.000000;
#CREDIT:;
#NOTES:
0000
0000
0000
0000
,
0000
0000
0000
0000
,
0000
0000
0000
0000
,
0000
0000
0000
0000
,
0000
0000
0000
0000
,
0000
0000
0000
0000
,
0001
0000
1000
0000
,
0001
0000
0000
0000
,
0100
0000
0000
0000
,
0010
0000
0000
0000
,
1000
0000
0000
0000
,
0001
0000
0000
0000
,
0100
0000
0000
0000
,
0010
0000
0000
0000
,
0100
0000
0000
0000
,
0000
0000
0000
0000
,
0000
0000
0000
0000
,
0000
0000
0000
0000
,
0010
0000
0000
0000
,
0010
0000
0000
0000
,
0010
0000
0000
0000
,
0100
0000
0100
0000
,
0001
0000
0000
0000
,
0001
0000
0000
0000
,
1000
0000
0000
0000
,
1000
0000
0000
0000
,
0200
0000
0000
0300
,
0020
0000
0000
0030
,
0001
0000
1000
0000
,
0001
0000
1000
0000
,
0010
0000
0000
0000
,
0000
0000
0000
0000
,
0000
0000
0000
0000
,
0000
0000
0000
0000
,
0100
0000
0100
0000
,
0100
0000
0100
0000
,
0001
0000
0000
0000
,
1000
0000
0000
0000
,
0010
0000
0010
0000
,
0010
0000
0010
0000
,
1000
0000
0000
0000
,
0001
0000
0000
0000
,
1000
0000
1000
0000
,
1000
0000
1000
0000
,
0010
0000
0000
0000
,
0100
0000
0000
0000
,
0001
0000
0001
0000
,
0001
0000
0001
0000
,
0010
0000
0000
0000
,
0100
0000
0000
0000
,
0010
0000
0000
0000
,
0010
0000
0000
0000
,
0100
0000
0000
0000
,
0100
0000
0000
0000
,
1000
0000
0000
0000
,
0001
0000
0000
0000
,
1000
0000
0000
0000
,
0001
0000
0000
0100
,
0010
0000
0000
0000
;

//---------------dance-single - ----------------
#NOTEDATA:;
#CHARTNAME:;
#STEPSTYPE:dance-single;
#DESCRIPTION:;
#CHARTSTYLE:;
#DIFFICULTY:Easy;
#METER:6;
#RADARVALUES:0.231069,0.278907,0.157377,0.096175,0.000000,185.000000,167.000000,18.000000,11.000000,0.000000,0.000000,0.000000,0.000000,0.000000,0.231069,0.278907,0.157377,0.096175,0.000000,185.000000,167.000000,18.000000,11.000000,0.000000,0.000000,0.000000,0.000000,0.000000;
#CREDIT:;
#NOTES:
0000
0000
0000
0000
,
0000
0000
0000
0000
,
0000
0000
0000
0000
,
0000
0000
0000
0000
,
0000
0000
0000
0000
,
0000
0000
0000
0000
,
0010
0000
1000
0000
,
0001
1001
0000
0000
,
0001
0100
0010
1000
,
0010
0010
0000
0000
,
2000
0000
0000
0000
,
3002
0000
0000
0000
,
0103
0100
0010
0010
,
1000
0000
1000
0000
0002
0000
0000
2000
,
0000
0000
0000
3003
,
1000
0010
1000
0010
,
0100
0001
0100
0001
,
1000
0100
0010
0001
,
0110
1000
0010
0100
,
1001
0000
0000
0010
,
0110
0001
1000
0000
,
0011
0000
1001
0000
,
0110
0001
0010
0100
,
1001
0000
0000
0100
,
0110
1000
0001
1000
,
1001
0000
0000
0000
,
0001
0001
0001
0000
,
1000
1000
1000
0000
,
0200
0000
2300
0000
,
3002
0000
0000
0000
0203
0000
0000
0302
,
0000
0000
0000
0000
,
2003
0010
0010
0010
,
3020
0100
0100
0100
,
1030
0100
0010
0001
,
1001
1000
0100
1000
,
1001
0001
0100
0001
,
1000
0010
0100
0010
,
1000
0000
0001
0000
,
1001
0001
0010
0001
,
1001
1000
0010
1000
,
0001
0010
0100
0010
,
0001
0000
1000
0000
,
1001
0001
0010
0100
,
1100
1000
0010
0100
,
0001
0100
1000
0100
,
0001
0000
1000
0000
,
1001
1000
0010
0100
,
0101
0001
0010
0100
,
1000
0100
0001
0100
,
1000
0000
0001
1000
,
0010
0010
0100
0100
,
0001
1000
0001
1000
,
0100
0001
0100
1000
,
0100
0001
0100
1000
,
0001
0001
1000
1000
,
0010
0100
0010
0100
,
0001
0100
1000
0100
,
0001
1000
0100
0001
,
0100
0000
0000
0000
;

//---------------dance-single - ----------------
#NOTEDATA:;
#CHARTNAME:;
#STEPSTYPE:dance-single;
#DESCRIPTION:;
#CHARTSTYLE:;
#DIFFICULTY:Medium;
#METER:8;
#RADARVALUES:0.294770,0.354973,0.113661,0.253552,0.039344,236.000000,223.000000,13.000000,29.000000,0.000000,0.000000,0.000000,0.000000,0.000000,0.294770,0.354973,0.113661,0.253552,0.039344,236.000000,223.000000,13.000000,29.000000,0.000000,0.000000,0.000000,0.000000,0.000000;
#CREDIT:;
#NOTES:
0000
0000
0000
0000
,
0000
0000
0000
0000
,
0000
0000
0000
0000
,
0000
0000
0000
0000
,
0000
0000
0000
0000
,
0000
0000
0000
0000
,
0001
0010
0100
1000
,
0001
2000
0000
3001
,
0010
0100
0010
0000
0100
0010
0100
0000
,
1000
0002
0000
0003
,
2000
0000
0000
3002
0000
0000
0203
0000
0000
0000
0000
0000
0300
0000
0000
0000
,
0002
0000
0000
2003
0000
0000
3200
0000
0000
0000
0000
0000
0300
0000
0000
0000
,
0010
0001
0010
0000
0100
1000
0100
0000
,
0010
0100
0010
0000
0001
1000
0001
2000
,
0000
0000
0000
0000
,
3002
0000
0000
0000
,
2003
3020
0230
0302
,
1003
0010
0110
1001
,
1100
0000
0100
0010
0001
0000
0100
0000
,
0101
0002
0000
1003
,
0010
0000
0000
0100
0000
0000
0010
0000
0000
0000
0000
0000
1000
0000
0000
0000
,
1001
0010
0110
0001
,
0101
0000
0100
0010
1000
0000
0100
0000
,
1100
2000
0000
3001
,
0010
0001
0010
0000
0100
1000
0100
0000
,
0110
0020
0000
0030
,
0002
0000
0000
0203
0000
0000
0320
0000
0000
0000
0000
0000
0030
0000
0000
0000
,
2000
0000
0000
3200
0000
0000
0320
0000
0000
0000
0000
0000
0030
0000
0000
0000
,
0001
0100
0001
0000
1000
0100
1000
0000
,
0010
1000
0010
0000
0100
0001
0100
0020
,
0000
0000
0000
0000
,
0230
0000
0000
0000
,
0302
2003
3200
0320
,
0031
1000
0110
1001
,
0001
0000
0001
0000
1000
0100
1000
0000
,
0010
0000
0010
0000
0100
0001
0100
0000
,
0001
0000
0000
0001
0000
0000
0001
0000
0000
0000
0000
0000
1000
0000
0000
0000
,
0010
0110
0001
1001
,
1000
0000
1000
0000
0001
0100
0001
0000
,
0010
0000
0010
0000
0100
1000
0100
0000
,
1000
0000
0000
1000
0000
0000
1000
0000
0000
0000
0000
0000
0001
0000
0000
0000
,
0010
0001
0100
0000
0001
1000
0100
0000
,
0010
0000
0010
0000
0001
0100
0001
0000
,
1000
0000
1000
0000
0100
0010
0100
0000
,
0010
0000
0000
0010
0000
0000
0010
0000
0000
0000
0000
0000
0001
0000
0000
0000
,
1000
0010
1000
0000
0010
1000
0100
0000
,
1000
0000
1000
0000
0001
0100
0001
0000
,
0010
0000
0010
0000
0100
1000
0100
0000
,
1000
0000
0000
1000
0000
0000
1000
0000
0000
0000
0000
0000
0001
0000
0000
0000
,
0010
0100
0010
0000
0001
1000
0100
0000
,
1000
1000
0001
0001
,
0100
0010
0100
0010
0100
0000
0100
0000
,
0001
0001
1000
1000
,
0100
0010
0100
0010
0100
0000
0100
0000
,
0010
0010
0001
0001
,
1000
0010
1000
0010
1000
0000
1000
0000
,
0001
0010
0001
0000
1000
0010
1000
0000
,
0001
0000
1000
0100
0010
0000
0001
0000
,
1000
0000
0000
0000
;

//---------------dance-single - ----------------
#NOTEDATA:;
#CHARTNAME:;
#STEPSTYPE:dance-single;
#DESCRIPTION:;
#CHARTSTYLE:;
#DIFFICULTY:Hard;
#METER:12;
#RADARVALUES:0.449649,0.557814,0.148634,0.279781,0.358470,360.000000,343.000000,17.000000,32.000000,0.000000,0.000000,0.000000,0.000000,0.000000,0.449649,0.557814,0.148634,0.279781,0.358470,360.000000,343.000000,17.000000,32.000000,0.000000,0.000000,0.000000,0.000000,0.000000;
#CREDIT:;
#NOTES:
// measure 0
0000
0000
0000
0000
,  // measure 1
0000
0000
0000
0000
,  // measure 2
0000
0000
0000
0000
,  // measure 3
0000
0000
0000
0000
,  // measure 4
0000
0000
0000
0000
,  // measure 5
0000
0000
0000
0000
,  // measure 6
1000
0000
0000
0000
0100
0000
0000
1000
0001
0000
0100
0000
0000
0000
0010
0000
,  // measure 7
0100
0000
0000
0001
2000
0000
0000
0000
3000
0000
0001
0000
0100
0000
1000
0000
,  // measure 8
0100
0000
0001
1000
0000
0000
0010
0000
1000
0000
0100
0000
0000
0000
0010
0000
,  // measure 9
0100
0000
0000
2000
0000
0000
0000
0000
0000
0000
0000
0000
3000
0000
0000
0000
,  // measure 10
0102
0000
0000
2003
0000
0000
0020
0000
0000
0000
0000
0000
3030
0000
0000
0000
,  // measure 11
2100
0000
0000
3002
0000
0000
0200
0000
0000
0000
0000
0000
0303
0000
0000
0000
,  // measure 12
1000
0100
1000
0100
0000
0000
0000
0000
0001
0100
0001
0100
0000
0000
0000
0000
,  // measure 13
1000
0010
1000
0010
0000
0000
0000
0000
0001
0010
0001
0010
0000
0000
2000
0000
,  // measure 14
0000
0000
0000
0000
,  // measure 15
0000
0000
0000
0000
,  // measure 16
3020
0230
0302
1003
,  // measure 17
0110
0000
0001
1000
0010
0000
1001
0000
,  // measure 18
0101
0000
0000
0000
0001
0000
1000
0000
0100
0000
0000
0010
0000
0000
0001
0000
,  // measure 19
1001
0000
0000
0000
0200
0000
0000
0000
0300
0000
0001
1000
0001
0000
1000
0000
,  // measure 20
1010
0000
0000
1000
0000
0000
0100
0000
0000
0000
1000
0000
0001
0100
0001
0100
,  // measure 21
0001
0000
1000
0100
0000
1000
0000
0001
0100
0000
0001
1000
0000
0100
1000
0000
,  // measure 22
1100
0000
0000
0000
1000
0000
0001
0000
0100
0000
0000
0010
0000
0000
1000
0000
,  // measure 23
1001
0000
0000
0000
0020
0000
0000
0000
0030
0000
1000
0001
1000
0000
0001
0000
,  // measure 24
0010
0000
0100
1000
0000
0000
0001
0000
0100
0000
0020
0000
0000
0000
1030
0000
,  // measure 25
0002
0000
0000
2003
0000
0000
0000
0000
0000
0000
0000
0000
3000
0000
0000
0000
,  // measure 26
0102
0000
0000
2003
0000
0000
0020
0000
0000
0000
0000
0000
3030
0000
0000
0000
,  // measure 27
2100
0000
0000
3002
0000
0000
0200
0000
0000
0000
0303
0000
0000
0000
0000
0000
,  // measure 28
1000
0100
1000
0200
0000
0000
0000
0000
0310
0001
0010
0002
0000
0000
0000
0000
,  // measure 29
1003
0010
1000
0020
0000
0000
0000
0000
0130
0001
0100
0002
0000
0000
2000
0000
,  // measure 30
0000
0000
0000
0000
,  // measure 31
3003
0000
0000
0000
,  // measure 32
1000
0010
0100
0010
0001
0010
1000
0100
,  // measure 33
0110
0000
0100
1000
0001
0000
1001
0000
,  // measure 34
0001
0010
0100
0010
0001
0010
1000
0020
,  // measure 35
0031
0100
0010
0100
1000
0100
0001
0100
,  // measure 36
0010
0000
0000
0100
0000
0000
0010
0000
0000
0000
1000
0000
0001
1000
0001
1000
,  // measure 37
0001
0000
0100
0010
0000
0010
0000
1000
0010
0000
0010
0100
0000
0100
0001
0000
,  // measure 38
1000
0100
0010
0100
1000
0100
0001
0200
,  // measure 39
1300
0010
0100
0010
0001
0010
1000
0010
,  // measure 40
0100
0000
0000
0010
0000
0000
0100
0000
0000
0000
0001
0000
1000
0001
1000
0001
,  // measure 41
1000
0000
0010
0100
0000
0100
0000
0001
0100
0000
0100
0010
0000
0010
1000
0000
,  // measure 42
0001
0100
0100
0100
0100
0100
0100
0020
,  // measure 43
1030
0100
0100
0100
0100
0100
0100
1000
,  // measure 44
0001
0000
0000
0100
0000
0000
1000
0000
0000
0000
0100
0000
0010
0100
0010
0100
,  // measure 45
0010
0000
1000
0001
0000
0001
0000
1000
0100
0000
0100
0010
0000
0010
0001
0000
,  // measure 46
1000
0010
0010
0010
0010
0010
0010
0200
,  // measure 47
0301
0010
0010
0010
0010
0010
0010
0001
,  // measure 48
1000
0000
0000
0100
0000
0000
0001
0000
0000
0000
0100
0000
0010
0100
0010
0100
,  // measure 49
0010
0000
0001
1000
0000
1000
0000
0001
0100
0000
0100
0010
0000
0010
1000
0000
,  // measure 50
0001
0000
0100
0000
0001
0100
0000
0100
0001
0000
1000
0000
0100
1000
0000
1000
,  // measure 51
0100
0010
0010
0001
0010
1000
0010
0001
,  // measure 52
1000
0000
0010
0000
1000
0010
0000
0010
1000
0000
0001
0000
0010
0001
0000
0001
,  // measure 53
0010
0100
0100
1000
0100
0001
0100
1000
,  // measure 54
0001
0000
1000
0000
0010
0100
0000
0100
0001
0000
1000
0000
0100
0010
0000
0010
,  // measure 55
0001
0001
0010
1000
0001
0100
1000
0001
,  // measure 56
0010
0010
0100
0100
1000
0001
1000
0001
,  // measure 57
1001
0110
0101
1010
,  // measure 58
0100
0000
0000
0000
;

//---------------dance-double - ----------------
#NOTEDATA:;
#CHARTNAME:;
#STEPSTYPE:dance-double;
#DESCRIPTION:;
#CHARTSTYLE:;
#DIFFICULTY:Easy;
#METER:6;
#RADARVALUES:0.221077,0.278907,0.148634,0.104918,0.000000,177.000000,160.000000,17.000000,12.000000,0.000000,0.000000,0.000000,0.000000,0.000000,0.221077,0.278907,0.148634,0.104918,0.000000,177.000000,160.000000,17.000000,12.000000,0.000000,0.000000,0.000000,0.000000,0.000000;
#CREDIT:;
#NOTES:
00000000
00000000
00000000
00000000
,
00000000
00000000
00000000
00000000
,
00000000
00000000
00000000
00000000
,
00000000
00000000
00000000
00000000
,
00000000
00000000
00000000
00000000
,
00000000
00000000
00000000
00000000
,
00001000
00000000
00010000
00000000
,
00001000
00011000
00000000
00000000
,
00010000
00000100
00001000
00000001
,
00000100
00000100
00000000
00000000
,
00000020
00000000
00000000
00000000
,
00020030
00000000
00000000
00000000
,
00031000
00001000
00100000
00100000
,
00010000
00000000
00010000
00000000
20000000
00000000
00000000
00020000
,
00000000
00000000
00000000
30030000
,
10000000
00100000
10000000
00010000
,
00100000
00001000
00010000
00001000
,
00011000
00000000
00001100
00000000
,
00000001
00001000
00000100
00010000
,
00011000
00000000
00000000
00001000
,
00100000
00010000
10000000
00000000
,
10010000
00000000
00110000
00000000
,
00100000
00001000
00010000
00001000
,
00011000
00000000
00000000
00010000
,
00000010
00001000
00000100
00000010
,
00000110
00000000
00000000
00000000
,
00000001
00000001
00000001
00000000
,
00001000
00001000
00001000
00000000
,
00000200
00000000
00020300
00000000
,
00032000
00000000
00000000
00000000
02003000
00000000
00000000
03020000
,
00000000
00000000
00000000
00000000
,
00230000
00000000
00000000
00000000
,
02300000
00000000
23000000
00000000
,
30010000
10000000
00100000
01000000
,
01100000
00100000
10000000
00010000
,
10010000
10000000
01000000
00100000
,
00001000
00010000
00000100
00001000
,
00000010
00000000
00000100
00000000
,
00000110
00000010
00001000
00000001
,
00001001
00001000
00000100
00000010
,
00000001
00000100
00000010
00010000
,
00001000
00000000
00010000
00000000
,
00011000
00001000
00100000
01000000
,
01100000
00100000
00010000
10000000
,
00010000
01000000
10000000
01000000
,
00010000
00000000
10000000
00000000
,
10010000
00010000
00100000
00001000
,
00011000
00010000
00000100
00001000
,
00000010
00000100
00000001
00001000
,
00000100
00000000
00010000
00001000
,
00100000
00100000
01000000
01000000
,
10000000
00010000
10000000
00010000
,
00100000
00001000
00010000
00000100
,
00001000
00000001
00000100
00000001
,
00000010
00000010
00000100
00000100
,
00001000
00000001
00001000
00000001
,
00000100
00000010
00001000
00000100
,
00010000
00001000
00100000
01000000
,
01100000
00000000
00000000
00000000
;

//---------------dance-double - ----------------
#NOTEDATA:;
#CHARTNAME:;
#STEPSTYPE:dance-double;
#DESCRIPTION:;
#CHARTSTYLE:;
#DIFFICULTY:Medium;
#METER:8;
#RADARVALUES:0.294770,0.354973,0.113661,0.253552,0.039344,236.000000,223.000000,13.000000,29.000000,0.000000,0.000000,0.000000,0.000000,0.000000,0.294770,0.354973,0.113661,0.253552,0.039344,236.000000,223.000000,13.000000,29.000000,0.000000,0.000000,0.000000,0.000000,0.000000;
#CREDIT:;
#NOTES:
00000000
00000000
00000000
00000000
,
00000000
00000000
00000000
00000000
,
00000000
00000000
00000000
00000000
,
00000000
00000000
00000000
00000000
,
00000000
00000000
00000000
00000000
,
00000000
00000000
00000000
00000000
,
00000001
00001000
00000100
00010000
,
00001000
00200000
00000000
00310000
,
10000000
01000000
10000000
00000000
00010000
01000000
00010000
00000000
,
00100000
00002000
00000000
00003000
,
00020000
00000000
00000000
00030200
00000000
00000000
00002300
00000000
00000000
00000000
00000000
00000000
00003000
00000000
00000000
00000000
,
00000020
00000000
00000000
00000230
00000000
00000000
00000302
00000000
00000000
00000000
00000000
00000000
00000003
00000000
00000000
00000000
,
00000010
00000001
00000010
00000000
00000001
00000100
00000001
00000000
,
00001000
00000010
00001000
00000000
00000010
00010000
00001000
00020000
,
00000000
00000000
00000000
00000000
,
00032000
00000000
00000000
00000000
,
00023000
00032000
00203000
00320000
,
00130000
01000000
10010000
10100000
,
01100000
00000000
01000000
00010000
00100000
00000000
01000000
00000000
,
01100000
00200000
00000000
00301000
,
00010000
00000000
00000000
00000100
00000000
00000000
00001000
00000000
00000000
00000000
00000000
00000000
00000001
00000000
00000000
00000000
,
00000011
00001000
00001010
00000001
,
00000101
00000000
00000100
00000010
00001000
00000000
00000100
00000000
,
00010100
00020000
00000000
00031000
,
00100000
00010000
00100000
00000000
00010000
10000000
00010000
00000000
,
10100000
20000000
00000000
30000000
,
00020000
00000000
00000000
00230000
00000000
00000000
00302000
00000000
00000000
00000000
00000000
00000000
00003000
00000000
00000000
00000000
,
00020000
00000000
00000000
00030020
00000000
00000000
00002030
00000000
00000000
00000000
00000000
00000000
00003000
00000000
00000000
00000000
,
00000001
00000100
00000010
00000000
00001000
00000100
00010000
00000000
,
00001000
01000000
00010000
00000000
10000000
00100000
01000000
00020000
,
00000000
00000000
00000000
00000000
,
00032000
00000000
00000000
00000000
,
00003002
00000203
00002300
00023000
,
00130000
10000000
10010000
01100000
,
10000000
00000000
10000000
00000000
00010000
01000000
00010000
00000000
,
00100000
00000000
00100000
00000000
00001000
00010000
00001000
00000000
,
00010000
00000000
00000000
00001000
00000000
00000000
00010000
00000000
00000000
00000000
00000000
00000000
00000100
00000000
00000000
00000000
,
00001000
00001100
00000001
00000101
,
00001000
00000000
00001000
00000000
00000010
00010000
00000010
00000000
,
00010000
00000000
00010000
00000000
00001000
00100000
00001000
00000000
,
01000000
00000000
00000000
00010000
00000000
00000000
01000000
00000000
00000000
00000000
00000000
00000000
00100000
00000000
00000000
00000000
,
10000000
01000000
00100000
00000000
00010000
01000000
00001000
00000000
,
00010000
00000000
00010000
00000000
00000100
00010000
00000100
00000000
,
00001000
00000000
00001000
00000000
00000001
00000010
00000001
00000000
,
00001000
00000000
00000000
00000100
00000000
00000000
00001000
00000000
00000000
00000000
00000000
00000000
00000100
00000000
00000000
00000000
,
00010000
00001000
00010000
00000000
00001000
00100000
00010000
00000000
,
10000000
00000000
10000000
00000000
00100000
01000000
00010000
00000000
,
01000000
00000000
01000000
00000000
00001000
00010000
00000010
00000000
,
00001000
00000000
00000000
00000001
00000000
00000000
00001000
00000000
00000000
00000000
00000000
00000000
00000100
00000000
00000000
00000000
,
00010000
00000100
00010000
00000000
00001000
01000000
00001000
00000000
,
00010000
00010000
00001000
00001000
,
01000000
00010000
01000000
00010000
10000000
00000000
01000000
00000000
,
00100000
00100000
00001000
00001000
,
00010000
00000100
00010000
00000100
00001000
00000000
00000001
00000000
,
00000100
00000100
00001000
00001000
,
00010000
00001000
00010000
00001000
00100000
00000000
00010000
00000000
,
10000000
00100000
10000000
00000000
00010000
00100000
00010000
00000000
,
00100000
00000000
00001000
00010000
00001000
00000000
00000100
00000000
,
00000001
00000000
00000000
00000000
;

//---------------dance-double - ----------------
#NOTEDATA:;
#CHARTNAME:;
#STEPSTYPE:dance-double;
#DESCRIPTION:;
#CHARTSTYLE:;
#DIFFICULTY:Hard;
#METER:12;
#RADARVALUES:0.430913,0.532459,0.122404,0.244809,0.227322,345.000000,331.000000,14.000000,28.000000,0.000000,0.000000,0.000000,0.000000,0.000000,0.430913,0.532459,0.122404,0.244809,0.227322,345.000000,331.000000,14.000000,28.000000,0.000000,0.000000,0.000000,0.000000,0.000000;
#CREDIT:;
#NOTES:
00000000
00000000
00000000
00000000
,
00000000
00000000
00000000
00000000
,
00000000
00000000
00000000
00000000
,
00000000
00000000
00000000
00000000
,
00000000
00000000
00000000
00000000
,
00000000
00000000
00000000
00000000
,
00010000
00000000
00000000
00000000
00001000
00000000
00000000
00010000
00001000
00000000
00100000
00000000
00000000
00000000
01000000
00000000
,
00100000
00000000
00000000
00010000
20000000
00000000
00000000
00000000
00000000
00000000
30010000
00000000
00100000
00000000
01000000
00000000
,
10000000
00000000
00010000
10000000
00000000
00000000
00100000
00000000
01000000
00000000
00020000
00000000
00000000
00000000
00130000
00000000
,
01000000
00000000
00000000
00200000
00000000
00000000
00000000
00000000
00000000
00000000
00000000
00000000
00300000
00000000
00000000
00000000
,
00002000
00000000
00000000
00023000
00000000
00000000
00000200
00000000
00000000
00000000
00000000
00000000
00030300
00000000
00000000
00000000
,
00002000
00000000
00000000
00003002
00000000
00000000
00000200
00000000
00000000
00000000
00000000
00000000
00000303
00000000
00000000
00000000
,
00001000
00000001
00001000
00000001
00000000
00000000
00000000
00000000
00000100
00000010
00000100
00000010
00000000
00000000
00000000
00000000
,
00010000
00001000
00010000
00001000
00000000
00000000
00000000
00000000
00100000
01000000
00100000
01000000
00000000
00000000
20000000
00000000
,
00000000
00000000
00000000
00000000
,
00000000
00000000
00000000
00000000
,
30010000
10000000
00100000
01000000
,
01010000
00000000
00010000
10000000
01000000
00000000
01100000
00000000
,
11000000
00000000
00000000
00000000
10000000
00000000
01000000
00000000
00100000
00000000
00000000
00001000
00000000
00000000
00010000
00000000
,
00011000
00000000
00002000
00000000
00003000
00010000
00000100
00000010
,
00000110
00000000
00000000
00000100
00000000
00000000
00001000
00000000
00000000
00000000
00000001
00000000
00000100
00000001
00000100
00000001
,
00000100
00000000
00000001
00001000
00000000
00000100
00000000
00000010
00000100
00000000
00001000
00000001
00000000
00000100
00000010
00000000
,
00000110
00000000
00000000
00000000
00000100
00000000
00001000
00000000
00010000
00000000
00000000
00001000
00000000
00000000
00100000
00000000
,
00110000
00000000
00020000
00000000
00030000
10000000
00100000
01000000
,
00100000
00000000
01000000
00010000
00000000
00000000
10000000
00000000
00010000
00000000
00200000
00000000
00000000
00000000
01300000
00000000
,
20000000
00000000
00000000
30020000
00000000
00000000
00000000
00000000
00000000
00000000
00000000
00000000
00030000
00000000
00000000
00000000
,
00200000
00000000
00000000
00302000
00000000
00000000
00020000
00000000
00000000
00000000
00000000
00000000
00033000
00000000
00000000
00000000
,
00000200
00000000
00000000
00002300
00000000
00000000
00000002
00000000
00000000
00000000
00000000
00000000
00003003
00000000
00000000
00000000
,
00001000
00000001
00001000
00000002
00000000
00000000
00000000
00000000
00000103
00000010
00000100
00000020
00000000
00000000
00000000
00000000
,
00010030
00001000
00010000
00002000
00000000
00000000
00000000
00000000
01003000
00010000
01000000
00200000
00000000
00000000
02000000
00000000
,
00000000
00000000
00000000
00000000
,
03300000
00000000
00000000
00000000
,
10000000
01000000
00100000
01000000
00100000
00010000
00001000
00000100
,
00000110
00000000
00000010
00000001
00001000
00000000
00001001
00000000
,
00000001
00000010
00000100
00001000
00010000
00100000
01000000
10000000
,
10000000
01000000
00100000
00010000
00001000
00000100
00000010
00000001
,
00000100
00000000
00000000
00000100
00000000
00000000
00000100
00000000
00000000
00000000
00000010
00000000
00001000
00000001
00001000
00000001
,
00001000
00000100
00000001
00000100
00001000
00000001
00000100
00000010
,
00000001
00000010
00000100
00001000
00010000
00100000
01000000
10000000
,
10000000
01000000
00100000
00010000
00001000
00000100
00000010
00000001
,
00000010
00000000
00000000
00000010
00000000
00000000
00000010
00000000
00000000
00000000
00000100
00000000
00000001
00001000
00000001
00001000
,
00000001
00001000
00000100
00010000
00001000
00100000
00010000
10000000
,
00100000
01000000
01000000
01000000
01000000
01000000
01000000
00200000
,
10300000
01000000
01000000
01000000
01000000
01000000
01000000
10000000
,
00010000
00000000
00000000
00100000
00000000
00000000
00001000
00000000
00000000
00000000
00010000
00000000
00001000
00010000
00001000
00010000
,
00001000
00010000
00000100
00001000
00000100
00000001
00000100
00001000
,
00000100
00000010
00000010
00000010
00000010
00000010
00000010
00000200
,
00001300
00000010
00000010
00000010
00000010
00000010
00000010
00000100
,
00000001
00000000
00000000
00000010
00000000
00000000
00000100
00000000
00000000
00000000
00010000
00000000
00001000
00010000
00001000
00010000
,
00001000
00010000
00001000
00100000
01000000
00010000
01000000
10000000
,
00010000
00000000
10000000
00000000
00010000
01000000
00010000
00000000
10000000
00000000
00010000
00000000
10000000
01000000
10000000
00000000
,
00100000
01000000
00010000
00100000
00001000
00010000
00000010
00000100
,
00000001
00000000
00001000
00000000
00000001
00000010
00000001
00000000
00001000
00000000
00000001
00000000
00001000
00000010
00001000
00000000
,
00000100
00000010
00000100
00001000
00000010
00000100
00001000
00010000
,
00100000
10000000
00010000
01000000
10000000
00010000
00100000
01000000
,
00100000
00010000
00001000
00000100
00000010
00001000
00001000
00000001
,
00000010
00000010
00000100
00000100
00001000
00000001
00001000
00000001
,
00001001
00000110
00001010
00011000
,
01010000
00000000
00000000
00000000
;

//---------------dance-single - ----------------
#NOTEDATA:;
#CHARTNAME:;
#STEPSTYPE:dance-single;
#DESCRIPTION:;
#CHARTSTYLE:;
#DIFFICULTY:Challenge;
#METER:15;
#RADARVALUES:0.711944,0.814863,0.961749,0.620765,0.655738,570.000000,460.000000,110.000000,71.000000,8.000000,47.000000,0.000000,0.000000,0.000000,0.711944,0.814863,0.961749,0.620765,0.655738,570.000000,460.000000,110.000000,71.000000,8.000000,47.000000,0.000000,0.000000,0.000000;
#CREDIT:;
#OFFSET:0.000000;
#BPMS:0.000000=128.000000
,132.000000=64.000000
,133.000000=128.000000
;
#STOPS:68.000000=0.937502
;
#DELAYS:;
#WARPS:;
#TIMESIGNATURES:0.000000=4=4
;
#TICKCOUNTS:0.000000=4
;
#COMBOS:0.000000=1
;
#SPEEDS:0.000000=1.000000=0.000000=0
;
#SCROLLS:0.000000=1.000000
;
#FAKES:;
#LABELS:0.000000=Song Start
;
#NOTES:
// measure 0
0000
0000
0000
0000
,  // measure 1
0000
0000
0000
0000
,  // measure 2
0000
0000
0000
0000
,  // measure 3
0000
0000
0000
0000
,  // measure 4
0000
0000
0000
0000
,  // measure 5
0000
0000
0000
0000
,  // measure 6
2001
0000
0000
0000
3002
0000
0000
0103
0001
0000
2000
0000
0000
0000
3010
0000
,  // measure 7
0200
0000
0000
0310
2000
0000
0000
0000
3000
0000
0001
0010
0100
1000
0100
0010
,  // measure 8
0001
0000
0001
1000
0100
0000
1000
0000
0001
0000
0202
0000
0000
0303
1001
0000
,  // measure 9
1100
0000
0000
2020
0000
0000
0000
0000
0000
0000
3030
0000
0000
0000
0000
0000
,  // measure 10
1001
0000
0000
0101
0000
0000
0012
0000
0000
0000
0013
0000
0100
1000
0100
0000
,  // measure 11
1100
0000
0000
1010
0000
0000
2002
0000
0000
0000
0000
0000
0000
0000
3003
0000
,  // measure 12
0001
0010
0100
1000
0000
0010
0100
0000
0001
0010
0100
1000
0000
1000
0100
0000
,  // measure 13
1000
0100
0010
0001
0000
0010
0001
0000
1000
0100
0010
0001
0000
1000
0002
0000
,  // measure 14
0000
0000
0000
0000
,  // measure 15
0000
0000
0000
0000
,  // measure 16
1003
0100
0001
0000
1000
0010
0001
0000
,  // measure 17
1001
0000
0101
0000
1001
0000
1100
1000
,  // measure 18
1010
0000
0000
0110
0000
0000
0101
0000
0011
0000
0000
0000
2002
0000
0000
0000
,  // measure 19
3003
0000
1000
0100
0010
0001
0010
0100
1000
0000
0000
1001
0000
0000
0202
0000
,  // measure 20
0303
0000
0011
0000
0001
1000
0100
1000
0001
0000
0001
0100
0000
1100
0000
1000
,  // measure 21
0100
0000
0100
0001
0000
0001
0010
0000
1010
0000
0000
0000
1200
0000
0001
0000
,  // measure 22
1300
0000
0011
0000
0101
0000
0021
1000
,  // measure 23
0031
0000
0100
0010
1000
0010
0100
0010
1000
0000
0001
1000
0100
0000
1100
0000
,  // measure 24
1001
0000
0202
0000
0000
0303
0011
0000
2002
0000
3003
2200
0000
3300
0000
1000
,  // measure 25
0100
0010
0001
0000
1000
0000
1000
0000
0101
0000
0000
1100
0000
0000
0101
0000
,  // measure 26
0001
0010
0100
1000
0010
0000
1000
0000
1010
0000
0000
0011
0000
0000
1010
0000
,  // measure 27
1000
0100
0010
0001
0100
0000
0110
0000
0100
0010
0001
0010
0000
1000
0010
0000
,  // measure 28
0100
0001
0010
0100
0000
0001
0100
0000
1000
0100
0010
0001
0000
0100
0010
0000
,  // measure 29
0001
0010
0100
1000
0000
0100
0010
0000
0100
0000
0000
0100
0001
0000
1000
0000
,  // measure 30
1001
0000
0000
0000
1100
0000
0000
0000
1001
0000
0000
0001
0100
0000
0001
0000
,  // measure 31
0011
0000
0010
0000
0011
0000
0001
0000
1000
0100
1000
0100
0010
0001
0010
0001
,  // measure 32
0100
0010
0100
0010
1000
0001
1000
0001
1000
0100
0010
0001
1000
0100
0010
0001
,  // measure 33
2000
3200
0302
0023
2030
0000
0001
0000
0101
0000
0101
0000
0101
0000
0101
0000
,  // measure 34
0101
0101
3102
1000
1010
1010
1010
1010
,  // measure 35
1010
0000
1010
0000
1003
0010
0000
0010
0001
0000
0001
0100
0000
0100
1000
0000
,  // measure 36
0001
0010
1000
0010
0001
0000
0001
0100
0000
1100
0000
1000
0010
0000
0010
0001
,  // measure 37
0000
0001
0010
0000
2010
0000
0001
0000
0101
0000
0101
0000
0101
0000
0101
0000
,  // measure 38
0101
3101
0102
1000
1100
1100
1100
1100
,  // measure 39
1103
0000
MMMM
0000
1001
0000
0000
0101
0000
0000
0110
0000
0000
1010
0000
0000
,  // measure 40
1000
0100
0001
0010
0000
0010
1000
0000
1001
0000
0001
0100
0000
0100
1000
0100
,  // measure 41
0001
0100
1000
0100
0002
0000
0100
0000
1100
0000
1100
0000
0110
0000
0110
0000
,  // measure 42
1100
1103
2010
0100
0011
0011
0101
0101
,  // measure 43
0011
0000
3011
0000
1000
0100
0000
0100
0001
0000
0001
0010
0000
0010
1000
0000
,  // measure 44
1000
0100
0010
0001
0000
0100
0010
0000
0100
0000
0010
0100
0000
0001
0010
0100
,  // measure 45
1000
0001
1000
0000
1020
0000
0100
0000
1100
0000
1100
0000
0101
0000
0101
0000
,  // measure 46
1100
1130
0201
0010
0011
0011
1010
1010
,  // measure 47
0311
0000
MMMM
0000
1001
0000
0000
0110
0000
0000
1001
0000
0000
0000
0101
0000
,  // measure 48
0001
0100
1000
0100
0010
0000
0010
1000
0000
1001
0000
1000
0001
0010
1000
0010
,  // measure 49
0001
1000
0100
0010
0002
0000
0100
0000
0103
0000
0010
0000
1000
0001
0200
0000
,  // measure 50
0301
1000
0200
0000
1300
0010
0200
0000
0301
0100
0020
0000
1030
0100
0001
0000
,  // measure 51
0001
0100
2000
0000
3001
0100
1000
0000
1000
0100
0002
0000
1003
0100
0020
0000
,  // measure 52
0130
0010
0002
0000
1003
0010
0200
0000
0310
0001
0020
0000
0130
0001
0200
0000
,  // measure 53
1300
0000
0100
0000
0020
1000
0230
0000
0320
0001
0230
0000
0320
1000
0230
0000
,  // measure 54
0320
0001
0230
0000
0302
0100
1003
0000
2000
0100
3002
0000
2003
0010
3001
0000
,  // measure 55
0002
0010
1003
0000
2000
0100
3020
0000
0032
0010
0203
0000
2300
0001
3200
0000
,  // measure 56
0302
1000
0203
0000
1300
0100
0010
0001
1000
0100
0001
0100
1000
0100
0010
0001
,  // measure 57
1000
0010
0001
0010
2000
0000
0000
0000
0000
0000
0000
0000
0000
0000
0000
0000
,  // measure 58
0000
3000
0000
0000
;
