#VERSION:0.83;
#TITLE:GERBERA;
#SUBTITLE:;
#ARTIST:BEMANI Sound Team "TAG";
#TITLETRANSLIT:;
#SUBTITLETRANSLIT:;
#ARTISTTRANSLIT:;
#GENRE:;
#ORIGIN:;
#CREDIT:;
#BANNER:;
#BACKGROUND:GERBERA-bg.png;
#PREVIEWVID:;
#JACKET:GERBERA-jacket.png;
#CDIMAGE:;
#DISCIMAGE:;
#LYRICSPATH:;
#CDTITLE:;
#MUSIC:GERBERA.ogg;
#OFFSET:0.000000;
#SAMPLESTART:10.537000;
#SAMPLELENGTH:15.000000;
#SELECTABLE:YES;
#DISPLAYBPM:102.000000:205.000000;
#BPMS:0.000=205.000,
212.000=102.500,
228.000=205.000;
#STOPS:;
#DELAYS:;
#WARPS:;
#TIMESIGNATURES:0.000=4=4;
#TICKCOUNTS:0.000=4;
#COMBOS:0.000=1;
#SPEEDS:0.000=1.000=0.000=0;
#SCROLLS:0.000=1.000;
#FAKES:;
#LABELS:0.000=Song Start;
#BGCHANGES:;
#KEYSOUNDS:;
#ATTACKS:
;

//---------------dance-single - ----------------
#NOTEDATA:;
#CHARTNAME:;
#STEPSTYPE:dance-single;
#DESCRIPTION:;
#CHARTSTYLE:;
#DIFFICULTY:Beginner;
#METER:4;
#RADARVALUES:0.198841,0.278180,0.079085,0.181894,0.000000,176.000000,166.000000,10.000000,23.000000,0.000000,0.000000,0.000000,0.000000,0.000000,0.198841,0.278180,0.079085,0.181894,0.000000,176.000000,166.000000,10.000000,23.000000,0.000000,0.000000,0.000000,0.000000,0.000000;
#CREDIT:;
#DISPLAYBPM:102.000000:205.000000;
#NOTES:
0000
0000
0000
0000
,
0000
0000
0000
0000
,
0000
0000
0000
0000
,
0000
0000
0000
0000
,
0000
0000
0000
0000
,
1000
0000
0000
0000
,
0001
0000
0000
0000
,
0010
0000
0000
0000
,
2002
0000
3003
0000
,
1000
0000
1000
0000
,
1000
0000
0000
0000
,
0001
0000
0001
0000
,
0001
0000
0000
0000
,
0010
0000
0010
0000
,
0010
0000
0000
0000
,
0100
0000
0100
0000
,
0100
0000
0000
0000
,
1000
0000
0100
0000
,
1000
0000
0100
0000
,
0010
0000
0001
0000
,
0010
0000
0001
0000
,
1000
0000
1000
0000
,
0001
0000
0001
0000
,
1000
0000
1000
0000
,
0001
0000
0001
0000
,
0100
0000
0100
0000
,
0010
0000
0010
0000
,
0100
0000
0100
0000
,
0010
0000
0010
0000
,
1000
0000
0010
0000
,
1000
0000
0010
0000
,
0100
0000
0001
0000
,
0100
0000
0001
0000
,
0010
0000
0001
0000
,
0010
0000
0001
0000
,
1000
0000
0100
0000
,
1000
0000
0100
0000
,
2000
0000
3000
0000
,
0002
0000
0003
0000
,
0020
0000
0030
0000
,
0200
0000
0300
0000
,
2002
0000
3003
0000
,
2002
0000
3003
0000
,
0001
0000
1000
0000
,
0010
0010
0010
0000
,
0002
0000
0003
0000
,
2000
0000
3000
0000
,
0200
0000
0300
0000
,
0020
0000
0030
0000
,
2002
0000
3003
0000
,
2002
0000
3003
0000
,
1000
0000
0001
0000
,
0100
0100
0100
0000
,
0001
0000
0010
0000
,
0100
0000
1000
0000
,
0010
0000
0100
0000
,
0001
0000
0010
0000
,
0100
0000
0100
0000
,
1000
0000
1000
0000
,
0010
0000
0010
0000
,
0100
0000
0100
0000
,
0001
0000
0001
0000
,
0010
0000
0010
0000
,
0100
0000
0100
0000
,
2002
0000
3003
0000
,
0001
0000
0001
0000
,
0001
0000
0000
0000
,
1000
0000
1000
0000
,
1000
0000
0000
0000
,
0100
0000
0100
0000
,
0100
0000
0000
0000
,
0010
0000
0010
0000
,
0010
0000
0000
0000
,
0001
0000
0010
0000
,
0001
0000
0010
0000
,
0100
0000
1000
0000
,
0100
0000
1000
0000
,
0001
0000
0001
0000
,
1000
0000
1000
0000
,
0001
0000
0001
0000
,
1000
0000
1000
0000
,
2002
0000
0000
0000
,
0000
0000
3003
0000
,
0001
0000
0001
0000
,
1000
0000
1000
0000
,
0010
0000
0100
0000
,
0001
0000
0010
0000
,
0100
0000
1000
0000
,
1001
0000
0000
0000
,
0001
0000
1000
0000
,
0001
0001
0001
0000
,
1000
0000
0001
0000
,
1000
1000
1000
0000
,
0010
0000
1001
0000
,
0100
0000
1001
0000
,
0001
0000
0010
0000
,
0200
0000
0300
0000
,
1000
0000
1000
0000
,
0001
0000
0001
0000
,
0010
0000
0010
0000
,
0100
0000
0100
0000
,
0000
0000
0000
0000
;

//---------------dance-single - ----------------
#NOTEDATA:;
#CHARTNAME:;
#STEPSTYPE:dance-single;
#DESCRIPTION:;
#CHARTSTYLE:;
#DIFFICULTY:Easy;
#METER:9;
#RADARVALUES:0.444003,0.558436,0.268887,0.094901,0.000000,393.000000,359.000000,34.000000,12.000000,0.000000,0.000000,0.000000,0.000000,0.000000,0.444003,0.558436,0.268887,0.094901,0.000000,393.000000,359.000000,34.000000,12.000000,0.000000,0.000000,0.000000,0.000000,0.000000;
#CREDIT:;
#DISPLAYBPM:102.000000:205.000000;
#NOTES:
0000
0000
0000
0000
,
0000
0000
0000
0000
,
0000
0000
0000
0000
,
0000
0000
0000
0000
,
0000
0000
0000
0000
,
1000
0100
1001
0000
,
0001
0100
1001
0000
,
0001
0100
0010
1000
,
0001
1000
0001
0000
2002
0000
3003
0000
,
1000
0000
0100
0000
1000
0100
0010
0000
,
0001
0000
0100
0000
0001
0100
0010
0000
,
1000
1000
0100
0100
,
0010
0000
0001
0000
0100
0010
0100
0000
,
0001
0000
0100
0000
0001
0100
0010
0000
,
1000
0000
0100
0000
1000
0100
0010
0000
,
0001
0001
1000
1000
,
0010
0000
0100
0000
0010
0100
0010
0000
,
1000
1000
1000
1000
,
0100
0100
0100
0100
,
0010
0010
0010
0010
,
0001
0001
2002
3003
,
0001
0000
0000
0100
0000
0000
0001
0000
,
0010
0100
1000
0001
,
0100
0000
0000
0010
0000
0000
0100
0000
,
0010
1000
0100
0010
,
0001
0000
0000
1000
0000
0000
0001
0000
,
0100
0010
1000
0001
,
0010
0000
0000
0100
0000
0000
0010
0000
,
0001
0001
1000
1000
,
0001
0000
0000
0010
0000
0000
0001
0000
,
0100
0010
1000
0001
,
0010
0000
0000
0100
0000
0000
0010
0000
,
0100
1000
0010
0100
,
0001
0000
0000
1000
0000
0000
0001
0000
,
0010
0100
1000
0001
,
0100
0000
0000
0010
0000
0000
0100
0000
,
0001
0001
1000
1000
,
1001
0000
0110
0000
,
1000
0100
0110
0000
,
0010
0001
0100
0010
,
1000
1000
1001
0000
,
1001
0000
0110
0000
,
0001
0100
0110
0000
,
0010
1000
0100
0010
,
0001
0001
1000
1000
,
1000
1010
0010
1010
,
0100
0001
0010
0100
,
0010
0011
0001
0011
,
1000
0010
0100
0001
,
0100
1100
1000
1100
,
1000
0010
0100
0001
,
0100
0101
0001
0101
,
0001
0010
0200
0300
,
0010
0001
0010
0000
0100
1000
0100
0000
,
1000
0010
1000
0000
0001
0100
0001
0000
,
0010
0010
0010
0000
0100
0100
0100
0000
,
1000
0001
1000
0000
0010
0100
0010
0000
,
0200
0000
0000
0000
,
0000
0000
0000
0000
,
0302
0000
0000
0000
,
0000
0000
0000
0000
,
2003
0000
0000
0000
,
0000
0000
0000
0000
,
3001
0100
0010
1000
,
0001
1000
0001
0000
2002
0000
3003
0000
,
0001
0000
0010
0000
0001
0010
0100
0000
,
1000
0000
0010
0000
1000
0010
0100
0000
,
0001
0001
0010
0010
,
0100
0000
1000
0000
0010
0100
0010
0000
,
1000
0000
0010
0000
1000
0010
0100
0000
,
0001
0000
0010
0000
0001
0010
0100
0000
,
1000
1000
0001
0001
,
0100
0000
0010
0100
0010
0100
0010
0000
,
0100
0000
0010
0010
0000
0100
0000
0110
,
0000
1000
0100
0010
,
0100
0010
0001
0100
,
0010
0000
0100
0100
0000
0000
0000
0000
,
0001
0010
0011
0000
,
1000
0010
1010
0000
,
0001
0010
0100
1000
,
0010
0100
0001
1000
,
0002
0000
0000
0000
0000
0000
1000
1003
,
0000
0000
0000
1001
,
0001
0100
0010
1000
,
0100
0010
0100
1000
,
0001
0000
0001
0000
1000
0001
1000
0000
,
0010
0000
0010
0000
0100
0010
0100
0000
,
0010
1001
0100
1001
,
0001
0000
0010
0000
0100
0010
0100
0000
,
1000
0000
0100
0100
0000
0010
0000
1001
,
0000
1000
0010
0100
,
0001
0000
0010
0100
0010
0000
0001
0000
,
1001
0110
1001
0110
,
1000
0100
1100
0000
,
0001
0100
0101
0000
,
0001
0100
1000
0100
,
0002
0000
0003
1001
,
0001
1000
0001
1000
,
0010
0100
0010
0100
,
0001
0010
1000
0001
,
0100
0000
1000
0000
0001
0000
1000
0001
,
0000
0000
0000
0000
;

//---------------dance-single - ----------------
#NOTEDATA:;
#CHARTNAME:;
#STEPSTYPE:dance-single;
#DESCRIPTION:;
#CHARTSTYLE:;
#DIFFICULTY:Medium;
#METER:14;
#RADARVALUES:0.775028,1.156759,0.482416,0.324247,0.260979,686.000000,625.000000,61.000000,41.000000,0.000000,0.000000,0.000000,0.000000,0.000000,0.775028,1.156759,0.482416,0.324247,0.260979,686.000000,625.000000,61.000000,41.000000,0.000000,0.000000,0.000000,0.000000,0.000000;
#CREDIT:;
#DISPLAYBPM:102.000000:205.000000;
#NOTES:
0000
0000
0000
0000
,
0000
0000
0000
0000
,
0000
0000
0000
0000
,
0000
0000
0000
0000
,
0000
0000
0000
0000
,
1000
0100
1000
0100
0010
0000
0011
0000
,
0001
0100
0001
0100
0010
0000
0110
0000
,
1000
0001
0100
0010
1000
0000
1001
0000
,
0001
0001
1000
0010
0220
0330
0100
0100
,
0001
0100
0010
1000
0100
0001
0100
2000
,
0000
3001
0100
0010
1000
0010
0001
0010
,
0200
0000
0301
0010
0200
0000
0310
2001
,
0000
3001
0100
1000
0100
0001
0010
0100
,
1000
0010
0100
0001
1000
1000
0001
0002
,
0000
0013
0100
1000
0010
0100
0002
0000
,
0023
0000
0130
1000
0020
0000
0130
1002
,
0000
1003
1000
1000
0010
0010
0100
0100
,
0001
0010
0100
0000
1000
0010
0100
0000
,
0001
1000
0100
0000
1000
0001
0010
0000
,
0100
0010
0001
0000
1000
0010
0100
0000
,
0001
0001
0100
0010
0220
0330
0100
0100
,
0001
0000
0010
0001
0000
0100
0010
0000
,
1000
0100
0001
0100
1000
0010
0110
0000
,
1000
0000
0010
1000
0000
0100
0010
0000
,
0001
0100
1000
0100
0001
0010
0110
0000
,
1000
0000
0001
0010
0000
0010
0100
0000
,
1000
0100
1100
0000
0001
0100
0101
0000
,
0001
0000
1000
0010
0000
0010
0100
0000
,
0100
0001
0000
0001
0010
0000
1100
0000
,
1000
0000
0100
1000
0000
0010
0100
0000
,
0001
0010
1000
0010
0001
0100
0110
0000
,
0001
0000
0100
0001
0000
0010
0100
0000
,
1000
0010
0001
0010
1000
0100
0110
0000
,
0001
0000
1000
0100
0000
0100
0010
0000
,
0001
0010
0011
0000
1000
0010
1010
0000
,
1000
0000
0001
0100
0000
0100
0010
0000
,
1010
1100
0011
0101
,
2002
0000
0000
0000
3003
0000
0001
1000
0002
0000
0000
0000
0000
0000
1003
0001
,
1000
0000
0000
0010
0000
0000
0100
0000
0001
0000
0000
0000
0011
0000
0000
0000
,
2100
0000
0000
0000
0000
0000
3010
0100
0010
0000
1000
0000
0001
0000
0010
0000
,
1000
0000
0000
0010
0000
0000
0001
0000
1000
0000
0000
0000
1001
0000
0000
0000
,
2002
0000
0000
0000
3003
0000
1000
0001
1000
0000
0001
0000
0100
0000
0010
0000
,
1000
0000
0000
0100
0000
0000
0010
0000
0001
0000
0000
0000
1100
0000
0000
0000
,
0012
0000
0000
0000
0000
0000
0103
0010
2000
0000
0000
0000
0000
0000
0000
0000
,
3001
0000
0000
0100
0000
0000
0010
0000
1000
0000
0100
0000
0010
0000
0001
0000
,
0010
0011
1000
1100
,
0001
0000
0000
0100
0000
0000
1000
0000
1100
0000
0000
0000
0101
0000
0000
0000
,
0010
0101
0010
1100
,
0001
0000
0000
0010
0000
0000
1000
0000
1010
0000
0000
0000
0011
0000
0000
0000
,
0100
0000
0000
0000
0001
0000
1000
0001
1000
0000
0010
0000
0100
0000
0001
0000
,
0010
0000
0000
0100
0000
0000
0010
0000
0110
0000
0000
0000
1001
0000
0000
0000
,
1100
0000
0000
0000
1000
0000
0100
0010
0001
0000
0000
0000
0011
0000
0000
0000
,
1000
0000
0000
0001
0000
0000
0100
0000
0010
0000
0000
0000
0110
0000
0000
0000
,
0010
0000
1000
0000
0010
0000
1000
0000
0010
0000
0000
0010
0000
0000
0010
0000
0100
0000
0001
0000
0100
0000
0001
0000
0100
0000
0000
0100
0000
0000
0100
0000
,
0001
0000
1000
0000
0010
0000
0100
0000
0001
0000
0000
0001
0000
0000
0001
0000
1000
0000
0010
0000
0100
0000
0001
0000
1000
0000
0000
1000
0000
0000
1000
0000
,
0001
0000
0010
0000
1000
0000
0010
0000
0001
0000
0000
1000
0000
0000
0001
0000
1000
0000
0010
0000
0001
0000
0010
0000
1000
0000
0000
0001
0000
0000
1000
0000
,
0001
0000
0100
0000
0010
0000
1000
0000
0100
0000
0000
0010
0000
0000
0100
0000
1000
0000
0100
0000
0010
0000
0001
0000
0100
0000
0000
0010
0000
0000
0100
0000
,
0002
0100
0100
0100
,
0103
0010
1000
0000
1001
0000
1000
0100
,
0020
0100
0100
0100
,
0130
1000
0010
0000
0110
0000
0100
0001
,
0020
0100
0100
0100
,
0130
1000
0001
0000
1001
0000
0001
0100
,
0010
0001
1000
0100
0010
1000
0100
0010
,
0001
0001
1000
0100
2200
3300
1000
1000
,
0001
0010
0100
1000
0010
0001
0010
2000
,
0000
3001
0010
0100
1000
0100
0001
0100
,
0020
0000
0031
0100
0020
0000
0130
2001
,
0000
3001
0010
1000
0010
0001
0100
0010
,
1000
0100
0010
0001
1000
1000
0001
0002
,
0000
0103
0010
1000
0100
0010
0002
0000
,
0203
0000
0310
1000
0200
0000
0310
1002
,
0000
1003
1000
1000
1000
1000
2000
0000
,
3001
0000
0010
0001
0000
0011
0000
1100
,
0000
1000
0100
0001
1000
0010
0001
0000
,
1001
0000
0000
0000
0001
1000
0001
0000
1000
0000
0000
0100
0000
0000
0010
0000
,
0001
0000
0100
0200
0000
0000
0300
0000
,
0001
0000
0000
0100
0000
0000
0010
0000
1000
0000
0010
0000
1000
0010
1000
0000
,
0100
0000
0000
0010
0000
0000
0001
0000
0010
0000
0001
0000
0010
0001
0010
0000
,
0100
0000
0010
0000
0001
1000
0001
1000
0001
0000
0000
0100
0000
0000
0010
0000
,
1000
1010
0101
0011
,
1001
0000
0001
0100
1000
0100
0001
0010
,
0000
0100
0010
0001
1000
0001
1001
0000
,
0001
0100
1000
0000
1000
0100
0001
0020
,
0000
0130
1000
0010
0100
0001
1000
0002
,
0000
1003
0010
0001
0010
1000
0100
0100
,
0000
0010
0001
0100
0010
1000
0100
0100
,
0010
0000
0011
0000
1000
0000
0010
0200
,
0000
1300
0100
0001
1000
0010
0002
0000
,
0013
0000
0100
0100
0000
1010
0000
0101
,
0000
0001
0100
1000
0100
0001
0010
0100
,
1000
0000
0010
0000
0001
0000
0010
0000
1000
0000
0000
0100
0000
0000
0001
0000
,
0101
1100
1010
1001
,
0001
0000
0000
0010
0000
0000
1000
0000
0010
0000
0001
0000
0100
0000
0010
0000
,
1000
0000
0000
0010
0000
0000
0001
0000
0010
0000
1000
0000
0010
0000
0100
0000
,
0001
0000
0010
0000
1000
0000
0010
0000
0001
0000
0000
0100
0000
0000
0010
0000
,
1000
0001
1000
0001
1000
0001
1000
0001
1000
0001
0000
0000
,
1000
0100
0010
0001
0010
1000
0010
0001
,
1000
0100
0001
1000
0010
0001
1000
0010
,
0100
0001
0010
0100
1000
0001
0100
0010
,
0100
0100
0010
0010
1000
1000
0001
0001
;

//---------------dance-single - ----------------
#NOTEDATA:;
#CHARTNAME:;
#STEPSTYPE:dance-single;
#DESCRIPTION:;
#CHARTSTYLE:;
#DIFFICULTY:Hard;
#METER:17;
#RADARVALUES:0.945625,1.516693,0.838296,0.316338,0.569409,837.000000,731.000000,106.000000,40.000000,0.000000,0.000000,0.000000,0.000000,0.000000,0.945625,1.516693,0.838296,0.316338,0.569409,837.000000,731.000000,106.000000,40.000000,0.000000,0.000000,0.000000,0.000000,0.000000;
#CREDIT:;
#DISPLAYBPM:102.000000:205.000000;
#NOTES:
// measure 0
0000
0000
0000
0000
,  // measure 1
0000
0000
0000
0000
,  // measure 2
0000
0000
0000
0000
,  // measure 3
0000
0000
0000
0000
,  // measure 4
0000
0000
0000
0000
,  // measure 5
0001
0000
0010
0000
0100
0000
0010
0000
0001
0000
0000
1000
0000
0000
0100
0000
,  // measure 6
1000
0000
0010
0000
0100
0000
0010
0000
1000
0000
0000
0001
0000
0000
0100
0000
,  // measure 7
0001
0100
0010
0000
1000
0100
0010
0000
0001
1000
0001
0000
1000
0000
0100
0000
,  // measure 8
0010
0010
0001
1000
2002
3003
1000
1000
,  // measure 9
0001
0010
1000
0010
0001
1000
0100
1200
,  // measure 10
0000
0000
1300
0000
0010
0000
0001
0000
0010
0100
0010
0100
0001
0000
0100
0000
,  // measure 11
0010
0000
1000
0001
1000
0001
1000
0000
0001
0000
0100
0010
0100
0000
0220
0000
,  // measure 12
0330
0000
0010
0000
1000
0100
0010
0000
0001
0000
0100
0000
0010
0000
1000
0000
,  // measure 13
0001
0000
0010
0001
0010
0001
1000
0000
0100
0000
1000
0000
0010
0000
1020
0000
,  // measure 14
0000
1030
0100
1000
0001
0010
0012
0000
,  // measure 15
1003
0000
0100
0000
0010
0001
0010
0000
0001
0000
1000
0010
1000
0000
0002
0000
,  // measure 16
0000
1003
1000
0010
0100
0100
0001
0001
,  // measure 17
1000
1000
0011
0011
,  // measure 18
0100
0100
0110
0110
,  // measure 19
0001
0001
1010
1010
,  // measure 20
0010
0010
0100
0001
2002
3003
0001
1000
,  // measure 21
1001
0000
1000
0100
0000
0010
0011
0000
,  // measure 22
1000
0010
0001
1000
0001
0010
1000
0100
,  // measure 23
0010
0000
0001
0010
0000
0100
1100
0000
,  // measure 24
0010
0100
0000
0100
0110
0000
1010
0000
,  // measure 25
0101
0000
0001
0010
0000
0100
1100
0000
,  // measure 26
0001
0100
1000
0001
1000
0100
0001
0010
,  // measure 27
0100
0000
1000
0100
0000
0010
0011
0000
,  // measure 28
0001
0100
0010
0001
1000
0100
0001
0010
,  // measure 29
0110
0000
0001
0100
0000
0010
1000
0100
,  // measure 30
0000
0000
0001
0000
0100
0000
1000
0000
0010
1000
0010
0000
1000
0000
0100
0000
,  // measure 31
0001
0000
0100
0010
0000
0001
0100
0010
,  // measure 32
0000
0000
0001
0000
0010
0000
1000
0000
0100
1000
0100
0000
1000
0000
0010
0000
,  // measure 33
0001
0000
0010
0100
0000
0001
0010
1000
,  // measure 34
0000
0000
0001
0000
0100
0000
1000
0000
0100
0010
0100
0000
1000
0000
0100
0000
,  // measure 35
0001
0000
0100
0010
0000
0001
1001
0000
,  // measure 36
1010
0101
0011
1100
,  // measure 37
2002
0000
0000
0000
3003
0000
0001
0100
2000
0000
0000
0000
0000
0000
3001
0010
,  // measure 38
1000
0000
0000
0100
0000
0000
0010
0000
0001
0000
0000
0000
0110
0000
0000
0000
,  // measure 39
2200
0000
0000
0000
3300
0000
1000
0100
0001
0000
0100
0000
1000
0000
0001
0000
,  // measure 40
0100
0000
0000
0001
0000
0000
0100
0000
0010
0000
0000
0000
0110
0000
0000
0000
,  // measure 41
2002
0000
0000
0000
3003
0000
0001
0010
1000
0000
0010
0000
0001
0000
1000
0000
,  // measure 42
0010
0000
0000
0100
0000
0000
0001
0000
1000
0000
0000
0000
1001
0000
0000
0000
,  // measure 43
0220
0000
0000
0000
0330
0000
0001
0100
0020
0000
0000
0000
0000
0000
0000
0000
,  // measure 44
1030
0000
0000
0010
0000
0000
0001
0000
0010
0000
0100
0000
0001
0000
0010
0000
,  // measure 45
0100
0000
0000
0000
1100
0000
1000
0100
0010
0000
0000
0000
0011
0000
0001
0010
,  // measure 46
0100
0000
0000
1000
0000
0000
0001
0000
0101
0000
0000
0000
1100
0000
0000
0000
,  // measure 47
0011
0000
0000
0000
1010
0000
0010
1000
0100
0000
0010
0000
0001
0000
1000
0000
,  // measure 48
0010
0000
0000
0100
0000
0000
0001
0000
1001
0000
0000
0000
0011
0000
0000
0000
,  // measure 49
1100
0000
0000
0000
0101
0000
0100
0001
0010
0000
0100
0000
1000
0000
0001
0000
,  // measure 50
0100
0000
0000
0001
0000
0000
1000
0000
1001
0000
0000
0000
1010
0000
0000
0000
,  // measure 51
0101
0000
0000
0000
0110
0000
0010
1000
0100
0000
0000
0000
0110
0000
0000
0000
,  // measure 52
0011
0000
0000
1100
0000
0000
0101
0000
0001
0000
1000
0000
0010
0000
0100
0000
,  // measure 53
0001
0000
0010
0000
0001
0000
0010
0000
0100
0000
0000
1100
0000
0000
0101
0000
1000
0000
0010
0000
1000
0000
0010
0000
0100
0000
0000
0101
0000
0000
1100
0000
,  // measure 54
0001
0000
0010
0000
1000
0000
0010
0000
0001
0000
0000
1010
0000
0000
0101
0000
1000
0000
0100
0000
0001
0000
0100
0000
1000
0000
0000
0011
0000
0000
1100
0000
,  // measure 55
0001
0000
0010
0000
0100
0000
1000
0000
0010
0000
0100
0010
0000
1000
0100
0000
1000
0000
0010
0000
0100
0000
0001
0000
0010
0000
0100
0010
0000
0001
0100
0000
,  // measure 56
0001
0000
0010
0000
1000
0000
0010
0000
0001
0000
1000
0010
0000
0100
0001
0000
1000
0000
0100
0000
0001
0000
0100
0000
1000
0000
0001
0100
0000
0010
1000
0000
,  // measure 57
2001
0010
0001
0100
,  // measure 58
3001
0100
0020
0000
0100
0000
1030
0010
,  // measure 59
0002
1000
0010
1000
,  // measure 60
0013
1000
0200
0000
1000
0000
0301
0100
,  // measure 61
0020
1000
0100
1000
,  // measure 62
0031
0100
2000
0000
0100
0000
3001
0010
,  // measure 63
2000
0000
0001
0000
0010
0000
3001
1000
,  // measure 64
0100
0100
1000
0010
2002
3003
0001
0001
,  // measure 65
1000
0100
0001
0100
1000
0001
0010
0021
,  // measure 66
0000
0000
0031
0000
0100
0000
1000
0000
0100
0010
0100
0010
1000
0000
0010
0000
,  // measure 67
0100
0000
0001
1000
0001
1000
0001
0000
1000
0000
0010
0100
0010
0000
0220
0000
,  // measure 68
0330
0000
0100
0000
0001
0010
0100
0000
1000
0000
0010
0000
0100
0000
0001
0000
,  // measure 69
1000
0000
0100
1000
0100
1000
0001
0000
0010
0000
0001
0000
0100
0000
0201
0000
,  // measure 70
0000
0301
0010
0001
1000
0100
2100
0000
,  // measure 71
3001
0000
0010
0000
0100
1000
0100
0000
1000
0000
0001
0100
0001
0000
1002
0000
,  // measure 72
0000
0000
1003
0010
1000
0010
0100
0001
0100
0001
0010
0000
0100
0000
1000
0000
,  // measure 73
0002
0000
0103
1100
0000
0011
0000
1200
,  // measure 74
0000
0000
0301
0100
1000
0000
0001
1000
0001
0000
1000
0100
0020
0000
0000
0000
,  // measure 75
0031
0000
0100
0010
1000
0001
0010
0100
1000
0000
0000
0001
0000
0000
1000
0000
,  // measure 76
0010
0000
0100
0100
0000
0000
1001
0000
,  // measure 77
1100
0000
0000
0101
0000
0000
0011
0000
0011
0000
0001
0100
0010
0100
0001
0000
,  // measure 78
0101
0000
0000
1010
0000
0000
1100
0000
1100
0000
1000
0100
0010
0100
1000
0100
,  // measure 79
0010
0000
0100
0000
1000
0000
0010
0000
0100
0000
0000
0101
0000
0000
1100
0000
,  // measure 80
0001
0001
0100
0100
0010
0010
1001
0000
,  // measure 81
0110
0000
0000
0000
1000
0100
0010
0001
1000
0000
0001
0000
1000
0000
0010
0000
,  // measure 82
0000
0000
1000
0010
1000
0010
0100
0001
0100
0001
0010
0001
0010
0000
0000
0000
,  // measure 83
0011
0001
0100
0010
0110
0100
0010
2010
,  // measure 84
0000
3010
1000
0010
0001
1000
0100
0110
,  // measure 85
0000
0000
1000
0100
0010
0000
0001
0000
1000
0000
0010
0000
0100
0000
0110
0000
,  // measure 86
0000
0000
0010
1000
0100
0000
0010
0000
0001
0000
1000
0000
1001
0000
0000
0000
,  // measure 87
1010
0010
0100
0001
0011
0010
0100
1200
,  // measure 88
0000
0000
1300
0100
0010
0001
1000
0000
0001
0000
0001
0000
1000
0000
0000
0000
,  // measure 89
1010
0000
0100
0110
0000
1010
0000
0101
,  // measure 90
0000
0000
0001
0100
0001
0100
0010
1000
0010
1000
0001
0000
1000
0000
0000
0000
,  // measure 91
1001
0000
1000
0100
0010
0001
0100
0010
1000
0000
0000
0001
0000
0000
0010
0000
,  // measure 92
0110
0000
0100
1000
0010
0000
0100
0001
0010
0000
0100
1000
0010
0000
1000
0000
,  // measure 93
1010
0000
0000
0110
0000
0000
1001
0000
1001
0000
0001
0100
0010
1000
0001
0000
,  // measure 94
1010
0000
0000
0110
0000
0000
1001
0000
1001
0000
1000
0010
0100
0001
1000
0000
,  // measure 95
0001
0000
0100
0010
1000
0001
0010
0000
0100
0000
0000
1000
0000
0000
0001
0000
,  // measure 96
1000
0010
0100
0001
0010
0100
1000
0010
0100
1001
0000
0000
,  // measure 97
0001
0100
1000
0001
0010
0001
1000
0100
,  // measure 98
0001
0010
1000
0001
1000
0010
0001
1000
,  // measure 99
0100
0001
1000
0010
0001
0010
0100
1000
,  // measure 100
0001
0000
0001
0000
0100
0000
0100
0000
0010
0000
0010
0000
1000
0010
0100
0001
;

//---------------dance-double - ----------------
#NOTEDATA:;
#CHARTNAME:;
#STEPSTYPE:dance-double;
#DESCRIPTION:;
#CHARTSTYLE:;
#DIFFICULTY:Easy;
#METER:9;
#RADARVALUES:0.446263,0.558436,0.292613,0.102810,0.000000,395.000000,358.000000,37.000000,13.000000,0.000000,0.000000,0.000000,0.000000,0.000000,0.446263,0.558436,0.292613,0.102810,0.000000,395.000000,358.000000,37.000000,13.000000,0.000000,0.000000,0.000000,0.000000,0.000000;
#CREDIT:;
#DISPLAYBPM:102.000000:205.000000;
#NOTES:
00000000
00000000
00000000
00000000
,
00000000
00000000
00000000
00000000
,
00000000
00000000
00000000
00000000
,
00000000
00000000
00000000
00000000
,
00000000
00000000
00000000
00000000
,
10000000
00100000
01100000
00000000
,
00001000
00010000
00011000
00000000
,
00001000
00000100
00000001
00000010
,
00000100
00000010
00000100
00000000
00000220
00000000
00000330
00000000
,
00000001
00000000
00000010
00000000
00000001
00000100
00000010
00000000
,
00001000
00000000
00000100
00000000
00010000
00001000
00010000
00000000
,
00001000
00001000
01000000
01000000
,
00100000
00000000
10000000
00000000
00010000
10000000
00010000
00000000
,
10000000
00000000
01000000
00000000
10000000
00100000
01000000
00000000
,
00010000
00000000
00100000
00000000
00001000
00010000
00001000
00000000
,
00010000
00010000
00000010
00000010
,
00000100
00000000
00000001
00000000
00001000
00000001
00001000
00000000
,
00000001
00000001
00000001
00000001
,
00000100
00000100
00000100
00000100
,
00001000
00001000
00001000
00001000
,
00010000
00010000
00022000
00033000
,
00010000
00000000
00000000
00100000
00000000
00000000
10000000
00000000
,
00100000
01000000
00010000
00100000
,
00001000
00000000
00000000
00010000
00000000
00000000
00001000
00000000
,
00000100
00000001
00000010
00000100
,
00001000
00000000
00000000
00000100
00000000
00000000
00010000
00000000
,
00001000
01000000
00010000
10000000
,
00100000
00000000
00000000
01000000
00000000
00000000
00100000
00000000
,
00000000
10000000
00000000
00000000
01000000
00000000
00010000
00000000
,
00001000
00000000
00000000
00000100
00000000
00000000
00000001
00000000
,
00000100
00000010
00001000
00000100
,
00010000
00000000
00000000
00001000
00000000
00000000
00010000
00000000
,
00100000
10000000
01000000
00100000
,
00010000
00000000
00000000
00100000
00000000
00000000
00001000
00000000
,
00010000
00000010
00001000
00000001
,
00000100
00000000
00000000
00000010
00000000
00000000
00000100
00000000
,
00000001
00000001
00001000
00001000
,
00001001
00000000
00011000
00000000
,
00001000
01000000
01100000
00000000
,
10000000
01000000
00010000
00001000
,
00010000
00010000
00011000
00000000
,
00001001
00000000
00000110
00000000
,
00000001
00000100
00000110
00000000
,
00000010
00001000
00000100
00010000
,
00001000
00001000
00010000
00010000
,
00100000
01100000
01000000
01100000
,
00010000
00100000
00001000
00010000
,
00001000
00011000
00010000
00011000
,
00001000
00000100
00000001
00000010
,
00000001
00000011
00000010
00000011
,
00000001
00000100
00001000
00010000
,
00001000
00011000
00010000
00011000
,
00100000
01000000
02200000
03300000
,
00100000
10000000
01000000
00000000
00100000
00010000
01000000
00000000
,
00001000
00100000
00010000
00000000
00100000
00001000
00010000
00000000
,
00001000
00000100
00000001
00000000
00000001
00000010
00001000
00000000
,
00010000
00100000
10000000
00000000
10000000
01000000
01000000
00000000
,
20000000
00000000
00000000
00000000
,
00000000
00000000
00000000
00000000
,
30020000
00000000
00000000
00000000
,
00000000
00000000
00000000
00000000
,
00230000
00000000
00000000
00000000
,
00000000
00000000
00000000
00000000
,
00301000
00010000
00000100
00001000
,
00000010
00000100
00000010
00000000
00000220
00000000
00000330
00000000
,
00000001
00000000
00000100
00000000
00000001
00000010
00000100
00000000
,
00001000
00000000
00000010
00000000
00010000
00001000
00010000
00000000
,
00001000
00001000
00100000
00100000
,
01000000
00000000
10000000
00000000
00010000
10000000
00010000
00000000
,
10000000
00000000
00100000
00000000
10000000
01000000
00100000
00000000
,
00010000
00000000
01000000
00000000
00001000
00010000
00001000
00000000
,
00010000
00011000
00000100
00000110
,
00000010
00000000
00000001
00001000
00000001
00001000
00000001
00000000
,
00000100
00000000
00000010
00000010
00000000
00001000
00000000
00001001
,
00000000
00000001
00000100
00001000
,
00010000
00001000
00100000
01000000
,
10000000
00000000
00010000
00010000
00000000
00000000
00000000
00000000
,
10000000
01000000
11000000
00000000
,
00010000
00100000
00110000
00000000
,
00001000
00010000
00001000
00000010
,
00000001
00000100
00000010
00000100
,
00000002
00000000
00000000
00000000
00000000
00000000
00001000
00001003
,
00000000
00000000
00000000
00001001
,
00000001
00000100
00001000
00010000
,
00000100
00000010
00000001
00001000
,
00000001
00000000
00000001
00000000
00001000
00000100
00001000
00000000
,
00000100
00000000
00000100
00000000
00010000
00001000
00010000
00000000
,
00001000
00101000
00010000
10010000
,
10000000
00000000
00100000
00000000
01000000
00100000
01000000
00000000
,
10000000
00000000
01000000
01000000
00000000
00010000
00000000
00011000
,
00000000
00001000
00000100
00000001
,
00000010
00000000
00000100
00000010
00000100
00000000
00001000
00000000
,
00001001
00000110
00001001
00000110
,
00001000
00000100
00011000
00000000
,
00010000
01000000
01100000
00000000
,
00010000
01000000
10000000
01000000
,
00020000
00000000
00030000
00011000
,
00001000
00010000
01000000
10000000
,
00100000
00010000
00001000
00000100
,
00000001
00000010
00000100
00001000
,
00000100
00000000
00010000
00000000
00001000
00000000
00100000
00010000
,
00000000
00000000
00000000
00000000
;

//---------------dance-double - ----------------
#NOTEDATA:;
#CHARTNAME:;
#STEPSTYPE:dance-double;
#DESCRIPTION:;
#CHARTSTYLE:;
#DIFFICULTY:Medium;
#METER:14;
#RADARVALUES:0.773899,1.156759,0.482416,0.340063,0.264933,685.000000,624.000000,61.000000,43.000000,0.000000,0.000000,0.000000,0.000000,0.000000,0.773899,1.156759,0.482416,0.340063,0.264933,685.000000,624.000000,61.000000,43.000000,0.000000,0.000000,0.000000,0.000000,0.000000;
#CREDIT:;
#DISPLAYBPM:102.000000:205.000000;
#NOTES:
00000000
00000000
00000000
00000000
,
00000000
00000000
00000000
00000000
,
00000000
00000000
00000000
00000000
,
00000000
00000000
00000000
00000000
,
00000000
00000000
00000000
00000000
,
00010000
01000000
00100000
10000000
01000000
00000000
11000000
00000000
,
10000000
01000000
00010000
00001000
00010000
00000000
00011000
00000000
,
00001000
00000100
00000010
00001000
00000001
00000000
00001001
00000000
,
00000001
00000001
00000010
00000100
00000220
00000330
00000010
00000010
,
00000001
00000100
00001000
00000100
00000001
00000100
00001000
00020000
,
00000000
01030000
10000000
00100000
00010000
00100000
10000000
01000000
,
20000000
00000000
30100000
00010000
00002000
00000000
00013000
00021000
,
00000000
00031000
00000100
00000010
00001000
00000100
00000010
00001000
,
00010000
00001000
00000100
00000001
00001000
00001000
00000001
00000002
,
00000000
00000013
00000100
00001000
00000010
00000001
00000020
00000000
,
00000230
00000000
00000301
00000010
00002000
00000000
00013000
00021000
,
00000000
00031000
00001000
00001000
00010000
00010000
01000000
01000000
,
10000000
00100000
00010000
00000000
00100000
10000000
01000000
00000000
,
10000000
01000000
00010000
00000000
00001000
00000100
00000001
00000000
,
00001000
00000010
00000100
00000000
00000001
00000010
00000100
00000000
,
00001000
00001000
00000100
00010000
00022000
00033000
00010000
00010000
,
00001000
00000000
01000000
00100000
00000000
10000000
01000000
00000000
,
10000000
01000000
00010000
00001000
00000100
00000001
00000101
00000000
,
00000100
00000000
00000010
00001000
00000000
00000001
00000010
00000000
,
00000001
00000010
00001000
00010000
00100000
10000000
10100000
00000000
,
00100000
00000000
01000000
00100000
00000000
00100000
01000000
00000000
,
00100000
01000000
01010000
00000000
00001000
00010000
00011000
00000000
,
00001000
00000000
00000100
00000010
00000000
00000010
00001000
00000000
,
00000001
00000010
00000000
00000010
00000100
00000000
00000110
00000000
,
00001000
00000000
00000010
00000100
00000000
00000001
00000010
00000000
,
00000001
00000010
00001000
00010000
00100000
10000000
10100000
00000000
,
00100000
00000000
01000000
00010000
00000000
10000000
01000000
00000000
,
10000000
01000000
00010000
00001000
00000100
00000001
00000101
00000000
,
00000100
00000000
00000010
00000100
00000000
00000100
00000010
00000000
,
00000100
00000010
00001010
00000000
00010000
00001000
00011000
00000000
,
00010000
00000000
00100000
01000000
00000000
01000000
00010000
00000000
,
11000000
01100000
00110000
01100000
,
22000000
00000000
00000000
00000000
33000000
00000000
01000000
00100000
02000000
00000000
00000000
00000000
00000000
00000000
03100000
00010000
,
00100000
00000000
00000000
00010000
00000000
00000000
00100000
00000000
00001000
00000000
00000000
00000000
00011000
00000000
00000000
00000000
,
00021000
00000000
00000000
00000000
00000000
00000000
00031000
00010000
00001000
00000000
00010000
00000000
00000100
00000000
00001000
00000000
,
00000010
00000000
00000000
00000001
00000000
00000000
00000010
00000000
00001000
00000000
00000000
00000000
00001001
00000000
00000000
00000000
,
00000022
00000000
00000000
00000000
00000033
00000000
00000001
00000010
00000001
00000000
00000100
00000000
00000010
00000000
00001000
00000000
,
00000100
00000000
00000000
00000010
00000000
00000000
00000001
00000000
00001000
00000000
00000000
00000000
00001100
00000000
00000000
00000000
,
00021000
00000000
00000000
00000000
00000000
00000000
00031000
00100000
00020000
00000000
00000000
00000000
00000000
00000000
00000000
00000000
,
00130000
00000000
00000000
00001000
00000000
00000000
00010000
00000000
00001000
00000000
00000100
00000000
00000001
00000000
00000010
00000000
,
00000001
00000011
00001000
00001100
,
00000001
00000000
00000000
00000100
00000000
00000000
00001000
00000000
00011000
00000000
00000000
00000000
00110000
00000000
00000000
00000000
,
00010000
10100000
10000000
01010000
,
10000000
00000000
00000000
01000000
00000000
00000000
00010000
00000000
00011000
00000000
00000000
00000000
00001010
00000000
00000000
00000000
,
00000010
00000000
00000000
00000000
00001000
00000000
00000001
00001000
00000001
00000000
00000100
00000000
00000001
00000000
00000010
00000000
,
00000100
00000000
00000000
00010000
00000000
00000000
00001000
00000000
00011000
00000000
00000000
00000000
00110000
00000000
00000000
00000000
,
10010000
00000000
00000000
00000000
10000000
00000000
00010000
01000000
00100000
00000000
00000000
00000000
10100000
00000000
00000000
00000000
,
10000000
00000000
00000000
00100000
00000000
00000000
00010000
00000000
00001000
00000000
00000000
00000000
00011000
00000000
00000000
00000000
,
00001000
00000000
00010000
00000000
01000000
00000000
00010000
00000000
00001000
00000000
00000000
00001000
00000000
00000000
00001000
00000000
00010000
00000000
00001000
00000000
00000100
00000000
00001000
00000000
00010000
00000000
00000000
00010000
00000000
00000000
00010000
00000000
,
00001000
00000000
00010000
00000000
00100000
00000000
00010000
00000000
00001000
00000000
00000000
00001000
00000000
00000000
00001000
00000000
00010000
00000000
00001000
00000000
00000010
00000000
00001000
00000000
00010000
00000000
00000000
00010000
00000000
00000000
00010000
00000000
,
00001000
00000000
00000100
00000000
00000001
00000000
00000010
00000000
00001000
00000000
00000000
00010000
00000000
00000000
00001000
00000000
00010000
00000000
00100000
00000000
10000000
00000000
01000000
00000000
00010000
00000000
00000000
00001000
00000000
00000000
00010000
00000000
,
00001000
00000000
00000010
00000000
00000001
00000000
00000100
00000000
00001000
00000000
00000000
00010000
00000000
00000000
00001000
00000000
00010000
00000000
01000000
00000000
10000000
00000000
00100000
00000000
00010000
00000000
00000000
00001000
00000000
00000000
00010000
00000000
,
00002000
00010000
00010000
00010000
,
00013000
00001000
00000100
00000000
00000110
00000000
00000100
00000010
,
00002000
00000001
00000001
00000001
,
00003001
00000100
00001000
00000000
00011000
00000000
00010000
01000000
,
00200000
01000000
01000000
01000000
,
01300000
00100000
00010000
00000000
10010000
00000000
10000000
00100000
,
10000000
01000000
00010000
00001000
00100000
00010000
00001000
00000100
,
00001000
00001000
00000100
00000010
00000220
00000330
00001000
00001000
,
00000001
00000010
00001000
00000010
00000001
00000010
00001000
00020000
,
00000000
00130000
10000000
01000000
00010000
01000000
10000000
00100000
,
20000000
00000000
31000000
00010000
00002000
00000000
00013000
00021000
,
00000000
00031000
00000010
00000100
00001000
00000010
00000100
00001000
,
00010000
00001000
00000010
00000001
00001000
00001000
00000001
00000002
,
00000000
00000103
00000010
00001000
00000100
00000001
00000200
00000000
,
00000320
00000000
00000031
00000100
00002000
00000000
00013000
00021000
,
00000000
00031000
00001000
00001000
00001000
00001000
00002000
00000000
,
00013000
00000000
00001000
00010000
00000000
00110000
00000000
11000000
,
00000000
10000000
00100000
00010000
00001000
00010000
00100000
00000000
,
01100000
00000000
00000000
00000000
00100000
01000000
00100000
00000000
10000000
00000000
00000000
01000000
00000000
00000000
00010000
00000000
,
00001000
00000000
00010000
00020000
00000000
00000000
00030000
00000000
,
00001000
00000000
00000000
00010000
00000000
00000000
00001000
00000000
00000100
00000000
00000001
00000000
00000010
00000001
00000010
00000000
,
00000100
00000000
00000000
00001000
00000000
00000000
00000001
00000000
00000100
00000000
00001000
00000000
00010000
00001000
00010000
00000000
,
01000000
00000000
00100000
00000000
00010000
10000000
00010000
10000000
00010000
00000000
00000000
00100000
00000000
00000000
01000000
00000000
,
10000000
10100000
01100000
00110000
,
00022000
00000000
00033000
00000000
00010000
00001000
00010000
00001000
,
00000000
00000000
00010000
00001000
00010000
00000000
00001000
00000000
00000100
00000000
00000010
00000000
00000110
00000000
00000000
00000000
,
00000001
00000100
00001000
00000000
00000100
00001000
00010000
02000000
,
00000000
03100000
00010000
01000000
00100000
10000000
01000000
00020000
,
00000000
00031000
00000100
00000001
00000010
00001000
00000010
00000010
,
00000000
00000001
00000100
00000010
00001000
00000100
00010000
00010000
,
00001000
00000000
00011000
00000000
00010000
00000000
01000000
00200000
,
00000000
00310000
01000000
10000000
00010000
00100000
20000000
00000000
,
31000000
00000000
00100000
00100000
00000000
00110000
00000000
00011000
,
00000000
00001000
00000010
00000001
00000010
00001000
00010000
01000000
,
10000000
00000000
00100000
00000000
00010000
00000000
10000000
00000000
01000000
00000000
00000000
00010000
00000000
00000000
00100000
00000000
,
00110000
00011000
00001010
00000011
,
00001000
00000000
00000000
00000010
00000000
00000000
00000100
00000000
00000001
00000000
00000010
00000000
00000100
00000000
00001000
00000000
,
00000100
00000000
00000000
00010000
00000000
00000000
00001000
00000000
00100000
00000000
00010000
00000000
01000000
00000000
00100000
00000000
,
10000000
00000000
01000000
00000000
00010000
00000000
01000000
00000000
00000000
10000000
00000000
00000000
00010000
00000000
10000000
00000000
,
00010000
10000000
00010000
10000000
00010000
10000000
00010000
10000000
00010000
01000000
00000000
00000000
,
00100000
10000000
01000000
00100000
00010000
10000000
00100000
01000000
,
00010000
00100000
00001000
00010000
00000100
00001000
00000010
00000001
,
00001000
00000100
00000001
00000010
00001000
00000001
00000100
00001000
,
00010000
00100000
10000000
00010000
01000000
10000000
00010000
00010000
,
00000000
00000000
00000000
00000000
;

//---------------dance-double - ----------------
#NOTEDATA:;
#CHARTNAME:;
#STEPSTYPE:dance-double;
#DESCRIPTION:;
#CHARTSTYLE:;
#DIFFICULTY:Hard;
#METER:16;
#RADARVALUES:0.915121,1.516693,0.648493,0.316338,0.569409,810.000000,728.000000,82.000000,40.000000,0.000000,0.000000,0.000000,0.000000,0.000000,0.915121,1.516693,0.648493,0.316338,0.569409,810.000000,728.000000,82.000000,40.000000,0.000000,0.000000,0.000000,0.000000,0.000000;
#CREDIT:;
#DISPLAYBPM:102.000000:205.000000;
#NOTES:
00000000
00000000
00000000
00000000
,
00000000
00000000
00000000
00000000
,
00000000
00000000
00000000
00000000
,
00000000
00000000
00000000
00000000
,
00000000
00000000
00000000
00000000
,
10000000
00000000
00100000
00000000
00010000
00000000
00100000
00000000
10000000
00000000
00000000
01000000
00000000
00000000
00010000
00000000
,
00001000
00000000
00000010
00000000
00000001
00000000
00000100
00000000
00001000
00000000
00000000
00000100
00000000
00000000
00000001
00000000
,
00001000
00000100
00000010
00000000
00000100
00000010
00000001
00000000
00001000
00000001
00001000
00000000
00000100
00000000
00010000
00000000
,
00001000
00001000
00100000
00010000
20020000
30030000
10000000
10000000
,
00100000
10000000
01000000
00100000
00001000
00010000
00001000
00012000
,
00000000
00000000
00003100
00000000
00000001
00000000
00000010
00000000
00000001
00000010
00000001
00000010
00000100
00000000
00001000
00000000
,
00000100
00000000
00010000
00001000
00010000
00001000
00010000
00000000
00001000
00000000
00100000
00010000
00100000
00000000
02000000
00000000
,
03000000
00000000
00100000
00000000
00010000
01000000
00100000
00000000
10000000
00000000
01000000
00000000
00010000
00000000
01000000
00000000
,
10000000
00000000
00010000
01000000
00010000
01000000
00100000
00000000
10000000
00000000
01000000
00000000
00010000
00000000
00012000
00000000
,
00000000
00013000
00001000
00000100
00000001
00000010
00000012
00000000
,
00001003
00000000
00000010
00000000
00000100
00000010
00000100
00000000
00001000
00000000
00010000
00001000
00010000
00000000
00200000
00000000
,
00000000
10300000
10000000
00100000
00010000
00010000
00001000
00001000
,
00010000
00010000
00001010
00001010
,
00000001
00000001
00001100
00001100
,
00100000
00100000
01100000
01100000
,
00010000
00010000
00100000
00001000
00022000
00033000
00010000
00010000
,
00011000
00000000
00001000
00000100
00000000
00000001
00000011
00000000
,
00000001
00000100
00001000
00010000
00100000
10000000
01000000
00010000
,
10000000
00000000
00100000
00010000
00000000
10000000
10100000
00000000
,
01000000
00100000
00000000
00010000
00011000
00000000
00001100
00000000
,
00000011
00000000
00000001
00000100
00000000
00001000
00011000
00000000
,
00001000
00000010
00000001
00001000
00000010
00000001
00000010
00001000
,
00010000
00000000
01000000
00100000
00000000
10000000
11000000
00000000
,
10000000
01000000
00010000
00001000
00000010
00001000
00010000
00001000
,
00011000
00000000
00010000
00100000
00000000
10000000
01000000
10000000
,
00000000
00000000
00100000
00000000
00010000
00000000
00001000
00000000
00000100
00000010
00000100
00000000
00000001
00000000
00000010
00000000
,
00000100
00000000
00001000
00000010
00000000
00000100
00000001
00000100
,
00000000
00000000
00000010
00000000
00001000
00000000
00010000
00000000
01000000
00100000
01000000
00000000
00010000
00000000
00100000
00000000
,
01000000
00000000
10000000
01000000
00000000
00010000
01000000
10000000
,
00000000
00000000
01000000
00000000
10000000
00000000
00010000
00000000
00100000
00001000
00010000
00000000
00001000
00000000
00000100
00000000
,
00000001
00000000
00000010
00000100
00000000
00001000
00001100
00000000
,
00011000
00110000
11000000
01010000
,
20020000
00000000
00000000
00000000
30030000
00000000
10000000
01000000
00020000
00000000
00000000
00000000
00000000
00000000
00031000
00000100
,
00000001
00000000
00000000
00000010
00000000
00000000
00000100
00000000
00000010
00000000
00000000
00000000
00000011
00000000
00000000
00000000
,
00002200
00000000
00000000
00000000
00003300
00000000
00000001
00000010
00001000
00000000
00010000
00000000
00001000
00000000
00000100
00000000
,
00001000
00000000
00000000
00010000
00000000
00000000
00100000
00000000
01000000
00000000
00000000
00000000
01100000
00000000
00000000
00000000
,
20020000
00000000
00000000
00000000
30030000
00000000
10000000
01000000
00010000
00000000
00001000
00000000
00010000
00000000
00100000
00000000
,
00010000
00000000
00000000
00001000
00000000
00000000
00000100
00000000
00000001
00000000
00000000
00000000
00000110
00000000
00000000
00000000
,
00002002
00000000
00000000
00000000
00003003
00000000
00000001
00000100
00002000
00000000
00000000
00000000
00000000
00000000
00000000
00000000
,
00013000
00000000
00000000
01000000
00000000
00000000
00010000
00000000
00001000
00000000
00010000
00000000
01000000
00000000
10000000
00000000
,
00010000
00000000
00000000
00000000
10010000
00000000
10000000
00010000
00100000
00000000
00000000
00000000
00110000
00000000
00010000
00100000
,
00001000
00000000
00000000
00010000
00000000
00000000
00001000
00000000
00011000
00000000
00000000
00000000
00001100
00000000
00000000
00000000
,
00000011
00000000
00000000
00000000
00000101
00000000
00000001
00001000
00000010
00000000
00000100
00000000
00001000
00000000
00010000
00000000
,
00001000
00000000
00000000
00000100
00000000
00000000
00000010
00000000
00000110
00000000
00000000
00000000
00001010
00000000
00000000
00000000
,
00011000
00000000
00000000
00000000
00110000
00000000
00010000
00100000
01000000
00000000
10000000
00000000
00100000
00000000
00010000
00000000
,
00100000
00000000
00000000
01000000
00000000
00000000
00010000
00000000
10010000
00000000
00000000
00000000
10100000
00000000
00000000
00000000
,
01010000
00000000
00000000
00000000
00011000
00000000
00001000
00010000
00001000
00000000
00000000
00000000
00001100
00000000
00000000
00000000
,
00000011
00000000
00000000
00000101
00000000
00000000
00001010
00000000
00002020
00000000
00000000
00000000
00000000
00003030
00000000
00000000
,
00000001
00000000
00000100
00000000
00001000
00000000
00000100
00000000
00000001
00000000
00000000
00000010
00000000
00000000
00000100
00000000
00001000
00000000
00010000
00000000
00100000
00000000
00010000
00000000
01000000
00000000
00000000
00010000
00000000
00000000
10000000
00000000
,
00010000
00000000
00100000
00000000
10000000
00000000
00100000
00000000
00010000
00000000
00000000
01000000
00000000
00000000
00100000
00000000
00010000
00000000
00001000
00000000
00000100
00000000
00000001
00000000
00000010
00000000
00000000
00000100
00000000
00000000
00001000
00000000
,
00000001
00000000
00000010
00000000
00000100
00000000
00000010
00000000
00000001
00000000
00001000
00000100
00000000
00010000
00001000
00000000
00010000
00000000
01000000
00000000
00100000
00000000
00010000
00000000
10000000
00000000
00010000
01000000
00000000
00100000
10000000
00000000
,
00010000
00000000
00100000
00000000
10000000
00000000
00100000
00000000
00010000
00000000
10000000
00100000
00000000
01000000
00010000
00000000
00100000
00000000
00001000
00000000
00010000
00000000
00001000
00000000
00000100
00000000
00000001
00000010
00000000
00000100
00001000
00000000
,
00001002
00000010
00001000
00000010
,
00001003
00000100
00020000
00000000
00001000
00000000
01030000
00100000
,
00002000
00010000
00000100
00010000
,
00013000
00001000
00000020
00000000
00000100
00000000
00000031
00000100
,
00002000
00010000
00000100
00010000
,
00003100
00001000
00020000
00000000
01000000
00000000
00031000
00010000
,
00200000
00000000
10000000
00000000
01000000
00000000
00310000
00100000
,
01000000
01000000
00010000
10000000
20020000
30030000
10000000
10000000
,
01000000
10000000
00100000
01000000
00001000
00010000
00001000
00012000
,
00000000
00000000
00003010
00000000
00000001
00000000
00000100
00000000
00000001
00000100
00000001
00000100
00000010
00000000
00001000
00000000
,
00000010
00000000
00010000
00001000
00010000
00001000
00010000
00000000
00001000
00000000
01000000
00010000
01000000
00000000
00200000
00000000
,
00300000
00000000
01000000
00000000
00010000
00100000
01000000
00000000
10000000
00000000
00100000
00000000
00010000
00000000
00100000
00000000
,
10000000
00000000
00010000
00100000
00010000
00100000
01000000
00000000
10000000
00000000
00100000
00000000
00010000
00000000
00012000
00000000
,
00000000
00013000
00001000
00000010
00000001
00000100
00000102
00000000
,
00001003
00000000
00000100
00000000
00000010
00000100
00000010
00000000
00001000
00000000
00010000
00001000
00010000
00000000
02000000
00000000
,
00000000
00000000
13000000
01000000
10000000
01000000
10000000
01000000
10000000
01000000
10000000
00000000
01000000
00000000
00010000
00000000
,
00002000
00000000
00013000
00011000
00000000
00001100
00000000
00000021
,
00000000
00000000
00000031
00000010
00000100
00000000
00001000
00000100
00010000
00000000
00001000
00100000
00020000
00000000
00000000
00000000
,
01030000
00000000
00010000
01000000
00010000
01000000
00100000
10000000
00100000
00000000
00000000
10000000
00000000
00000000
00010000
00000000
,
00100000
00000000
01000000
01000000
00000000
00000000
11000000
00000000
,
01010000
00000000
00000000
00110000
00000000
00000000
00001000
00000000
00010000
00000000
00001000
00010000
00001000
00010000
00000100
00000000
,
00001100
00000000
00000000
00001010
00000000
00000000
00010000
00000000
00001000
00000000
00010000
00001000
00010000
00001000
00100000
00010000
,
00100000
00000000
01000000
00000000
10000000
00000000
00010000
00000000
01000000
00000000
00000000
01010000
00000000
00000000
11000000
00000000
,
10000000
10000000
01000000
01000000
00010000
00010000
00011000
00000000
,
00001100
00000000
00000000
00000000
00001000
00000100
00000010
00000001
00001000
00000000
00000010
00000000
00000100
00000000
00000001
00000000
,
00000000
00000000
00001000
00000100
00001000
00000100
00000010
00000001
00000010
00000001
00001000
00000001
00001000
00000000
00000000
00000000
,
00000011
00000001
00000100
00001000
00011000
00010000
00100000
02100000
,
00000000
03100000
10000000
00100000
00010000
10000000
01000000
01100000
,
00000000
00000000
00010000
01000000
00100000
00000000
10000000
00000000
01000000
00000000
00100000
00000000
01000000
00000000
01100000
00000000
,
00000000
00000000
10000000
01000000
00100000
00000000
00010000
00000000
00100000
00000000
00001000
00000000
00011000
00000000
00000000
00000000
,
00001100
00000100
00001000
00000010
00000110
00000100
00000001
00000102
,
00000000
00000000
00000103
00000010
00001000
00000001
00000010
00000000
00000100
00000000
00000100
00000000
00001000
00000000
00000000
00000000
,
00011000
00000000
00100000
00110000
00000000
11000000
00000000
00110000
,
00000000
00000000
10000000
00100000
10000000
00100000
01000000
00010000
01000000
00010000
10000000
00000000
00100000
00000000
00000000
00000000
,
01100000
00000000
00100000
10000000
00100000
10000000
00010000
00100000
00010000
00000000
00000000
00100000
00000000
00000000
00001000
00000000
,
00010000
00000000
00001000
00010000
00001000
00000000
00010000
00000100
00001000
00000000
00000100
00000010
00000001
00000000
00001000
00000000
,
00000001
00000000
00000000
00000100
00000000
00000000
00001000
00000000
00010000
00000000
00001000
00100000
00010000
01000000
00100000
00000000
,
10000000
00000000
00000000
01000000
00000000
00000000
00010000
00000000
00001000
00000000
00010000
00000100
00001000
00000010
00000100
00000000
,
00000001
00000000
00000010
00000100
00001000
00000001
00000010
00000000
00000100
00000000
00000000
00001000
00000000
00000000
00000001
00000000
,
00001000
00000010
00000001
00000010
00000100
00001000
00010000
00001000
00100000
00010000
00000000
00000000
,
00100000
00010000
01000000
00100000
10000000
01000000
00100000
00001000
,
00010000
01000000
00010000
00001000
00000010
00000001
00001000
00000010
,
00000100
00010000
00001000
00000010
00010000
00001000
00100000
00010000
,
10000000
00000000
10000000
00000000
00100000
00000000
00100000
00000000
01000000
00000000
01000000
00000000
00010000
00100000
00001000
00010000
,
00000000
00000000
00000000
00000000
;

//---------------dance-single - ----------------
#NOTEDATA:;
#CHARTNAME:;
#STEPSTYPE:dance-single;
#DESCRIPTION:;
#CHARTSTYLE:;
#DIFFICULTY:Challenge;
#METER:18;
#RADARVALUES:1.085717,1.290659,0.703852,0.814571,0.952968,961.000000,872.000000,89.000000,103.000000,4.000000,0.000000,0.000000,0.000000,0.000000,1.085717,1.290659,0.703852,0.814571,0.952968,961.000000,872.000000,89.000000,103.000000,4.000000,0.000000,0.000000,0.000000,0.000000;
#CREDIT:;
#DISPLAYBPM:102.000000:205.000000;
#NOTES:
// measure 0
0000
0000
0000
0000
,  // measure 1
0000
0000
0000
0000
,  // measure 2
0000
0000
0000
0000
,  // measure 3
0000
0000
0000
0000
,  // measure 4
0000
0000
0000
0000
,  // measure 5
1000
0000
0001
0000
0000
0000
0001
0000
0100
0000
0001
1000
0001
0000
1000
0000
,  // measure 6
0100
0000
0010
0000
0001
1000
0001
1000
0001
1000
0001
1000
0001
1000
0001
1000
,  // measure 7
0001
1000
0001
1000
0001
1000
0001
1000
0001
1000
0001
1000
0001
0000
2002
0000
,  // measure 8
0000
0000
0000
3003
,  // measure 9
0001
0000
0100
0000
0010
0000
0100
0010
1000
0010
0100
0000
0010
0000
0120
0000
,  // measure 10
0000
0000
0130
0001
1000
0100
0010
0001
0010
0100
1000
0001
0100
0000
0220
0000
,  // measure 11
0330
0000
0010
1000
0001
1000
0010
0000
0110
0000
0100
0000
0001
0000
2002
0000
,  // measure 12
3003
0000
0001
0010
0100
1000
0001
0000
1000
0000
0001
0100
0010
0000
0100
0000
,  // measure 13
0001
0000
0100
0010
1000
0010
0100
0000
0001
0000
0010
0000
0100
0000
1200
0000
,  // measure 14
0000
0000
1300
0001
0010
0100
1000
0100
0010
0001
1000
0000
1010
0000
0000
0000
,  // measure 15
1001
0000
0001
0010
0100
0010
0001
0000
1001
0000
1000
0100
0010
0000
0220
0000
,  // measure 16
0330
0000
1100
0000
1000
0000
1001
0000
0001
0010
0100
1000
0100
0010
0001
0000
,  // measure 17
2001
0000
0001
0000
0010
0010
3010
0000
,  // measure 18
0102
0000
0010
0000
0100
0100
0103
0000
,  // measure 19
1020
0000
0100
0000
1000
1000
1030
0000
,  // measure 20
1000
0000
0100
0000
0010
0000
0001
0000
0100
0010
0100
0010
1000
0000
0001
0000
,  // measure 21
1000
0000
0010
0000
0100
0000
0010
0000
1000
0100
1000
0100
0001
0000
0100
0000
,  // measure 22
1000
0000
0001
0000
0010
0000
0001
0000
0100
0010
0100
0010
0001
0000
0010
0000
,  // measure 23
1000
0000
0100
0000
0001
0000
0100
0000
1000
0010
1000
0010
0001
0000
0010
0000
,  // measure 24
1000
0000
0001
0000
0100
0000
0010
0000
0100
0001
0100
0001
0010
0000
1000
0000
,  // measure 25
0010
0000
0100
0000
0010
0000
0001
0000
1000
0001
1000
0001
0100
0000
1000
0000
,  // measure 26
0100
0000
0001
0000
0100
0000
0010
0000
1000
0010
1000
0010
0001
0000
0010
0000
,  // measure 27
0100
0000
0001
0000
0010
0000
0100
0000
1000
0100
1000
0100
0001
0000
0100
0000
,  // measure 28
1000
0000
0001
0000
0010
0000
0100
0000
0010
0001
0010
0001
1000
0000
0100
0000
,  // measure 29
0020
0000
0000
0000
0130
0000
0010
0000
0001
0100
0001
0100
1000
0000
0100
0000
,  // measure 30
0020
0000
1000
0000
1030
0000
0100
0000
0001
0100
0001
0100
1000
0000
0010
0000
,  // measure 31
0200
0000
0001
0000
0301
0000
1000
0000
0010
1000
0010
1000
0001
0000
0100
0000
,  // measure 32
M002
0000
0010
0000
0013
0000
1000
0000
0001
0010
0100
0010
0001
0000
1000
0000
,  // measure 33
M002
0000
0100
0000
0103
0000
1000
0000
0010
1000
0100
1000
0001
0000
0010
0000
,  // measure 34
M200
0000
0010
0000
0310
0000
1000
0000
0001
0100
0010
0100
0001
0000
1000
0000
,  // measure 35
002M
0000
0100
0000
0130
0000
1000
0000
0001
0100
0010
0100
0001
0000
0000
0000
,  // measure 36
1001
0101
1001
1010
,  // measure 37
2001
0000
0000
0000
0000
0000
3002
0100
1003
0000
0100
0000
0010
0000
2000
0100
,  // measure 38
3010
0000
0200
1000
0300
1000
0200
0000
1300
0000
0001
0000
0010
0000
0100
0000
,  // measure 39
0020
0001
0130
0000
0010
0000
2000
0100
3001
0000
0100
0000
0010
0000
0001
0000
,  // measure 40
0200
0010
0300
0010
0200
0000
0301
0000
2000
0010
3001
0000
0010
0000
2000
0000
,  // measure 41
3100
0001
0100
0000
1000
0000
0002
0100
1003
0000
0100
0000
0001
0000
0010
0000
,  // measure 42
0200
0010
0300
0010
0200
0000
0310
0000
0001
0000
1000
0000
2020
0000
3030
0000
,  // measure 43
2000
0100
3002
0000
0103
0000
0020
0100
2030
0000
0000
0000
3001
0000
0000
0000
,  // measure 44
0101
0000
0000
1001
0000
0000
1010
0000
1001
0000
0001
0000
0100
0000
1000
0000
,  // measure 45
0100
0001
0020
0000
1030
0000
0010
0001
0200
0000
0010
0000
1300
0000
0100
0000
,  // measure 46
0020
0100
0030
0001
0200
0000
1300
0000
0020
0000
0100
0000
0130
0000
0001
0000
,  // measure 47
2000
0010
3001
0000
0010
0000
2000
0100
3001
0000
0102
0000
0103
0000
1000
0000
,  // measure 48
1010
0000
0000
1001
0000
0000
0101
0000
0110
0000
0000
0000
0010
1000
0200
0000
,  // measure 49
0310
0001
0200
0000
0000
0000
0301
1000
0020
0000
1030
0000
0002
1000
0103
0000
,  // measure 50
2000
0100
3000
0001
0200
0000
2300
0010
3200
0000
0000
0000
0302
0000
0100
0000
,  // measure 51
0103
0010
2000
0000
0000
0000
3001
0100
0020
0000
0000
0000
1030
0000
0000
0000
,  // measure 52
1001
0000
0000
0101
0000
0000
1001
0000
1010
0000
0000
0000
0110
0000
0000
0000
,  // measure 53
0220
0000
0300
0200
0000
0300
0002
0000
0003
0200
0000
0300
2000
3000
0200
0300
,  // measure 54
0230
0000
0000
0002
0000
0003
0020
0000
0030
2000
0000
3000
0020
0030
0001
0001
,  // measure 55
0302
0000
0000
2000
0000
3000
0200
0000
0300
0020
0000
0030
0200
0300
2000
3000
,  // measure 56
0023
0000
0000
0200
0000
0300
0002
0000
0003
0200
0000
0300
2000
3000
2000
3000
,  // measure 57
1030
0000
0100
0000
0010
0000
0001
0000
0100
0010
0100
0000
0001
0000
0010
0000
,  // measure 58
0200
0000
1000
0000
1300
0000
0000
0000
1001
0000
0000
0001
0100
0000
0010
0000
,  // measure 59
0210
0010
0000
1000
1000
0000
0010
0010
,  // measure 60
0000
0001
0001
0000
0010
0000
0310
0000
,  // measure 61
2001
0001
0000
0100
0100
0000
3001
0001
,  // measure 62
1000
0001
1000
0001
1000
0001
1000
0001
1000
0001
1000
0001
1000
0001
1000
0001
,  // measure 63
1000
0100
0010
0001
0010
0100
1000
0100
0010
0001
0010
0100
1000
0000
2002
0000
,  // measure 64
0000
0000
0000
3003
,  // measure 65
1001
0000
0000
0000
0001
0010
0100
1000
0010
0000
1000
0000
0001
0000
1001
0000
,  // measure 66
0000
0000
1000
0100
0010
0001
0100
0010
1000
0010
0100
0000
0010
0000
1010
0000
,  // measure 67
1000
0000
0001
0000
0010
0100
1000
0100
0010
0000
0010
0000
0001
0000
0101
0000
,  // measure 68
0000
0000
0001
0010
0100
1000
0100
0010
0001
0000
0001
0000
1000
0000
1000
0100
,  // measure 69
0010
0000
0001
0010
0100
1000
0100
0010
0001
0000
1000
0000
0001
0000
1002
0000
,  // measure 70
0000
0000
1003
0100
0010
0001
1000
0001
0010
0100
1000
0000
1002
0000
0000
0000
,  // measure 71
0103
0000
0101
0000
0001
0010
0001
0010
0100
0000
1100
0000
1000
0000
1001
0000
,  // measure 72
0000
0000
0001
0100
0001
0100
0010
1000
0010
1000
0001
1000
0001
1000
0100
1000
,  // measure 73
0200
0000
0001
0001
0000
1000
0000
0010
,  // measure 74
0000
0000
1000
0000
0301
1000
0001
1000
0010
1000
0010
1000
0001
0000
0000
0000
,  // measure 75
0101
0000
0100
0001
0100
0001
0010
0000
0011
0000
0000
1001
0000
0000
1100
0000
,  // measure 76
1010
0000
0110
0220
0000
0330
0101
0000
,  // measure 77
1001
0000
0000
1010
0000
0000
1001
0000
0101
0000
0000
0100
0010
1000
0001
1000
,  // measure 78
0010
0000
0000
0110
0000
0000
0101
0000
1001
0000
1000
0001
0100
0001
1000
0000
,  // measure 79
1001
0000
0001
0000
0100
0001
0010
0001
0100
0000
0000
0110
0000
0000
1010
0000
,  // measure 80
1000
0000
0100
0000
0010
0000
0001
0000
1000
0100
0010
0001
1000
0100
0010
0001
,  // measure 81
0200
0000
0000
0000
0310
1000
0001
1000
0010
0000
0010
0000
0010
0000
0020
0000
,  // measure 82
0000
0000
0130
0001
1000
0001
0100
0001
1000
0001
0100
0000
0110
0000
0010
0000
,  // measure 83
2000
0000
0000
0000
3001
0010
0001
0010
1000
0000
0010
0000
0001
0100
0020
0000
,  // measure 84
0000
0000
1030
0100
1000
0100
0010
0001
0010
0000
0001
0000
0100
0000
0110
0000
,  // measure 85
0010
0000
1000
0100
0010
0001
0100
0000
0010
0000
0010
0000
0010
0000
0020
0000
,  // measure 86
0000
0000
1030
0001
0100
0001
1000
0001
0100
0001
1000
0001
0100
0000
0000
0000
,  // measure 87
0110
0000
0000
0000
0010
1000
0100
1000
0010
0000
0010
0000
0100
0000
0200
0000
,  // measure 88
0000
0000
0301
0010
0001
0010
0100
1000
0100
1000
0010
0100
0010
0100
0010
0000
,  // measure 89
0110
0000
0101
1001
0000
1100
0000
0110
,  // measure 90
0000
0000
0010
0001
0010
0001
0100
0010
0100
0010
1000
0000
0100
0000
0000
0000
,  // measure 91
1100
0000
1000
0100
0010
0001
0100
0000
0101
0000
0000
0011
0000
0000
1001
0000
,  // measure 92
1100
0000
1000
0100
0010
0000
0001
0010
0100
0000
1000
0100
0010
0000
0001
0000
,  // measure 93
1001
0000
0000
1100
0000
0000
1010
0000
0010
0100
0001
0100
0010
0100
0001
0000
,  // measure 94
1001
0000
0000
0101
0000
0000
0110
0000
0010
1000
0001
1000
0010
1000
0001
0000
,  // measure 95
0101
0000
0000
0001
0010
0100
1000
0010
1000
0000
0000
1010
0000
0000
1001
0000
,  // measure 96
1000
0100
0001
1000
0010
0001
0001
0100
1000
0001
0010
1000
,  // measure 97
0002
0100
1000
0100
1000
0100
1000
0100
,  // measure 98
2003
0001
0010
0001
0010
0001
0010
0001
,  // measure 99
3020
0100
0001
0100
0001
0100
0001
1000
,  // measure 100
0031
0100
0010
1000
0001
0100
0010
1000
0001
0100
0010
1000
0001
0100
0010
1000
,  // measure 101
0002
0000
0000
0000
,  // measure 102
0003
0000
0000
0000
;
