
//----- song ID: deet -----//
#TITLE:Deep tenDon Reflex;
#ARTIST:BEMANI Sound Team "Coyaan";
#BANNER:Deep tenDon Reflex.png;
#BACKGROUND:Deep tenDon Reflex-bg.png;
#CDTITLE:./CDTitles/DDR A3.png;
#MUSIC:Deep tenDon Reflex.ogg;
#SAMPLESTART:88.002;
#SAMPLELENGTH:15;
#BPMS:0=180;
#BGSTAGE:29;
#NOTES:
     dance-single:
     :
     Beginner:
     3:
     :
0000
0000
0000
0000
,
0000
0000
0000
0000
,
0000
0000
0000
0000
,
0000
0000
0000
0000
,
0000
0000
0000
0000
,
0000
0000
0000
0000
,
0001
0000
0000
0000
,
0001
0000
0000
0000
,
1000
0000
0000
0000
,
1000
0000
0000
0000
,
1001
0000
0000
0000
,
0000
0000
0000
0000
,
0110
0000
0000
0000
,
0000
0000
0000
0000
,
1001
0000
0000
0000
,
0000
0000
0000
0000
,
0110
0000
0000
0000
,
0000
0000
0000
0000
,
0001
0000
0001
0000
,
0001
0000
0000
0000
,
0200
0000
0000
0000
,
0000
0000
0300
0000
,
0000
0002
0000
0000
,
0000
0000
0000
0003
,
0000
0020
0000
0000
,
0000
0000
0000
0030
,
0000
0200
0000
0000
,
0000
0000
0000
0300
,
0000
2000
0000
0000
,
0000
0000
3000
0000
,
0001
0000
1000
0000
,
0010
0000
0000
0000
,
1000
0000
0001
0000
,
0100
0000
0000
0000
,
0001
0000
1000
0000
,
0010
0000
0000
0000
,
1000
0000
0001
0000
,
0100
0000
0000
0000
,
0001
0000
0000
0000
,
0000
0000
0000
0000
,
1000
0000
0000
0000
,
0000
0000
0000
0000
,
0010
0000
0000
0000
,
0010
0000
0000
0000
,
0100
0000
0000
0000
,
0100
0000
0000
0000
,
1001
0000
0000
0000
,
0000
0000
0000
0000
,
0110
0000
0000
0000
,
0000
0000
0000
0000
,
1001
0000
0000
0000
,
0000
0000
0000
0000
,
0110
0000
0000
0000
,
0000
0000
0000
0000
,
0001
0000
0001
0000
,
0001
0000
0000
0000
,
0200
0000
0000
0000
,
0000
0000
0300
0000
,
0000
0002
0000
0000
,
0000
0000
0000
0003
,
0000
0020
0000
0000
,
0000
0000
0000
0030
,
0000
0200
0000
0000
,
0000
0000
0000
0300
,
0000
2000
0000
0000
,
0000
0000
3000
0000
,
0001
0000
1000
0000
,
0100
0000
0000
0000
,
1000
0000
0001
0000
,
0010
0000
0000
0000
,
0001
0000
1000
0000
,
0100
0000
0000
0000
,
1000
0000
0001
0000
,
0010
0000
0000
0000
,
0001
0000
0000
0000
,
1000
0000
0000
0000
,
0010
0000
0000
0000
,
0100
0000
0000
0000
,
0001
0000
0000
0000
,
1000
0000
0000
0000
,
1001
0000
0000
0110
,
0000
0000
1001
0000
,
0020
0000
0000
0000
,
0030
0000
1001
0000
,
0000
0000
0000
0000
;
#NOTES:
     dance-single:
     :
     Easy:
     7:
     :
0000
0000
0000
0000
,
0000
0000
0000
0000
,
0000
0000
0000
0000
,
0000
0000
0000
0000
,
0000
0000
0000
0000
,
0000
0000
0000
0000
,
0001
0000
1000
0000
,
0001
0010
0100
0000
,
1000
0000
0001
0000
,
1000
0010
0100
0000
,
1001
0000
0000
0000
0000
0001
0000
0001
,
0000
0000
0100
0010
,
1001
0000
0000
0000
0000
1000
0000
1000
,
0000
0000
0010
0000
,
0110
0000
0000
0000
0000
0001
0000
0001
,
0000
0000
1000
1000
,
0001
0000
0000
0010
0000
0000
0100
0000
,
0000
1000
0000
0000
0010
0000
1001
0000
,
0001
0100
0010
1000
,
0100
1000
0010
0100
,
0001
0001
1000
1000
,
1100
0101
1001
0000
,
0000
0000
0001
0000
0000
0001
0000
0000
,
0001
0000
0000
0001
0000
0000
0001
0000
,
0000
0000
1000
0000
0000
1000
0000
0000
,
1000
0000
0000
1000
0000
0000
1000
0000
,
0000
0000
0010
0000
0000
0010
0000
0000
,
0010
0000
0000
0010
0000
0000
0010
0000
,
0000
0000
0100
0000
0000
0100
0000
0000
,
0100
0000
0000
0100
0000
0000
0110
0000
,
1000
0001
0100
0001
,
1000
0010
0100
0010
,
1000
0001
0010
0100
,
1000
0001
1000
0100
,
0010
0001
0100
0001
,
1000
0100
1000
0010
,
0100
0100
0001
1000
,
0100
0010
0001
1001
,
2000
0000
3000
0000
,
0002
0000
0003
0000
,
0200
0000
0300
0000
,
0020
0000
0030
0000
,
1000
0000
0001
0000
,
1000
0010
0100
0000
,
0001
0000
1000
0000
,
0001
0010
0100
0000
,
1001
0000
0000
0000
0000
0001
0000
0001
,
0000
0000
1000
0001
,
0110
0000
0000
0000
0000
1000
0000
1000
,
0000
0000
0001
0000
,
0020
0000
0000
0030
0000
0100
0000
0100
,
0000
0000
1000
0001
,
1000
0000
0000
0100
0000
0000
0010
0000
,
0000
0001
0000
0000
1000
0000
1001
0000
,
0001
1000
0010
0100
,
0010
1000
0001
0010
,
0100
0010
0001
1000
,
0010
0010
0110
0000
,
0000
0000
1000
0000
0000
1000
0000
0000
,
0100
0000
0000
0010
0000
0000
0001
0000
,
0000
0000
0001
0000
0000
0001
0000
0000
,
0100
0000
0000
0010
0000
0000
1000
0000
,
0000
0000
0001
0000
0000
0100
0000
0000
,
0010
0000
0000
1000
0000
0000
0001
0000
,
0000
0000
1001
0000
0000
0110
0000
0000
,
1001
0000
0000
0110
0000
0000
1001
0000
,
0001
0100
0001
0010
,
0100
1000
0010
1000
,
0001
0100
0001
1000
,
0100
1000
0010
0100
,
0001
1000
0100
0010
,
0100
1000
0001
0100
,
0001
0010
0100
1000
,
0002
0203
0320
0030
,
1000
0000
0001
0000
,
0100
0001
1000
0000
,
0100
0000
0010
0000
,
0001
1000
0010
0000
,
0100
0000
0001
0000
,
1000
0100
0010
0000
,
0001
0000
0000
0101
0000
0000
1000
0000
,
0000
1100
0000
0000
0001
0000
1000
0000
,
0020
0000
0000
0000
,
0030
0100
0000
0000
1001
0000
0000
0000
,
0000
0000
0000
0000
;
#NOTES:
     dance-single:
     :
     Medium:
     11:
     :
0000
0000
0000
0000
,
0000
0000
0000
0000
,
0000
0000
0000
0000
,
0000
0000
0000
0000
,
0000
0000
0000
0000
,
0000
0000
0000
0000
,
0001
0000
0000
1000
0010
0000
0000
0010
,
0100
0001
1000
0000
,
0100
0000
0000
0010
0001
0000
0000
0001
,
1000
0010
0100
0000
,
1001
0000
0000
0000
0000
0011
0000
1100
,
0000
0000
1010
0110
,
0101
0000
0000
0000
0000
1100
0000
0011
,
0000
0000
0000
0000
0000
0000
0000
0000
0101
0000
0000
0110
0000
0000
1010
0000
,
1001
0000
0000
0000
0000
0110
0000
1010
,
0000
0000
0101
1001
,
2000
0000
3000
0200
0000
0300
0020
0000
,
0030
0002
0000
0003
0100
0010
0110
0000
,
1000
0001
0100
0001
,
0010
0100
1000
0001
,
1000
0100
1000
0000
0001
0010
0001
0000
,
0100
0100
0010
0010
0010
0000
0000
0000
,
0000
1000
0100
0000
1000
0100
0000
1000
,
0100
0000
1000
0100
0000
1000
0100
0000
,
0000
0010
0001
0000
0010
0001
0000
0010
,
0001
0000
0010
0001
0000
0010
0001
0000
,
0000
1000
0001
0000
1000
0001
0000
1000
,
0001
0000
1000
0001
0000
1000
0001
0000
,
0000
0010
0100
0000
1000
0100
0000
0001
,
0100
0000
0010
0110
0000
0010
1001
0000
,
1000
0100
0010
0000
0001
1000
1000
0001
,
0100
0010
0100
0001
0010
0100
1000
0001
,
0000
0001
0100
0000
0010
1000
1000
0001
,
0010
0100
0010
0001
1000
0010
0100
0001
,
0000
0001
0010
0000
0100
1000
0100
0010
,
0001
1000
0001
0100
0010
0100
0001
1000
,
0000
0010
0010
0000
1000
0100
0010
0100
,
1000
0001
0100
0001
0010
0100
1000
0000
,
0001
0000
0100
0000
1000
0000
0000
0100
,
0000
0100
0010
0000
1000
0000
0000
0000
,
1000
0000
0100
0000
0001
0000
0000
0100
,
0000
0100
0010
0000
0001
0000
0000
0000
,
1000
0000
0000
0001
0001
0000
0000
0100
,
0010
1000
0001
0000
,
0010
0000
0000
0001
0001
0000
0000
0100
,
0010
0000
0000
0000
1000
0000
0000
0000
0001
0000
0000
1000
0000
0000
0001
0000
,
1001
0000
0000
0000
0000
1100
0000
0110
,
0000
0000
1100
1010
,
0110
0000
0000
0000
0000
0101
0000
1010
,
0000
0000
0000
0000
0000
0000
0000
0000
1100
0000
0000
0110
0000
0000
0011
0000
,
2002
0000
0000
0000
3003
0101
0000
1010
,
0000
0000
1100
0101
,
0002
0000
0003
0020
0000
0030
0200
0000
,
0300
2000
0000
3000
0010
0100
0110
0000
,
0001
1000
0100
1000
,
0010
0100
0001
1000
,
0001
0010
0001
0000
1000
0100
1000
0000
,
0001
0010
0001
1000
0100
0000
0000
0000
,
0000
0001
1000
0000
1000
0100
0000
0100
,
0010
0000
0010
0001
0000
0001
0100
0000
,
0000
0010
1000
0000
1000
0001
0000
0001
,
0010
0000
0010
0100
0000
0100
1000
0000
,
0000
0001
0100
0000
0100
0001
0000
0001
,
0010
0000
0010
0001
0000
0001
1000
0000
,
0000
0001
0100
0000
1000
0100
0000
0001
,
0100
0000
0010
0110
0000
1000
1001
0000
,
0001
0010
0100
0000
1000
0001
0100
0001
,
1000
0100
0010
0001
0010
0100
1000
0010
,
0000
0010
0100
0000
0001
1000
0001
0010
,
0001
1000
0001
0100
0010
1000
0001
0010
,
0000
0001
0001
0000
1000
0100
0010
0100
,
1000
0001
0100
0001
0100
0001
0010
0100
,
1000
0100
1000
0000
0001
0100
0010
0000
,
1000
0001
0010
0100
1000
0010
0100
0000
,
0002
0000
0003
1000
0010
0010
0000
0100
,
0000
0000
0001
1000
0100
0000
0010
0000
,
0002
0000
0003
0100
0010
0010
0000
1000
,
0000
0002
0023
0230
,
2300
0000
3000
0001
0100
0001
0000
1000
,
0000
0100
1000
0000
0010
0000
0110
0000
,
1001
0000
0001
1000
0000
0100
0010
0000
,
0100
0010
0000
0001
1000
0000
1001
0000
,
0001
0010
0001
0010
0100
1000
0010
0100
,
0001
1000
0000
0001
1001
0000
0000
0000
,
0000
0000
0000
0000
;
#NOTES:
     dance-single:
     :
     Hard:
     15:
     :
0000
0000
0000
0000
,
0000
0000
0000
0000
,
0000
0000
0000
0000
,
0000
0000
0000
0000
,
0000
0000
0000
0000
,
0000
0000
0000
0000
,
2000
0000
0000
3000
0001
0100
0000
0010
,
0000
0100
0001
0010
1000
0010
0001
0100
,
0020
0000
0000
0030
0100
0001
0000
1000
,
0000
0000
0100
0000
1000
0000
0001
0000
0100
0000
0000
0010
0000
0000
1000
0000
,
1001
0000
0000
0000
1000
0100
1000
0100
0010
0000
0011
0000
0000
0000
1001
0000
,
0000
0000
0001
0100
0001
0100
0010
0000
1010
0000
0000
0000
0101
0000
0000
0000
,
1001
0000
0000
0000
1000
0100
1000
0100
0010
0000
0011
0000
0000
0000
1100
0000
,
0000
0000
0001
0100
0001
0100
0010
0000
1010
0000
0000
0101
0000
0000
0010
0000
,
1001
0000
0000
0000
1000
0001
1000
0001
0100
0000
0110
0000
0000
0000
1010
0000
,
0000
0000
0001
1000
0001
1000
0010
0000
0110
0000
0000
0000
0101
0000
0000
0000
,
0022
0000
0033
0220
0000
0330
2200
0000
,
3300
0000
2020
0000
0000
0000
3030
0000
0010
0000
0100
0001
1000
0000
0000
0000
,
0001
0010
0001
0010
0100
1000
0001
0100
,
0010
1000
0010
1000
0001
0010
0100
1000
,
0001
0001
0100
0100
0010
0010
1000
1000
,
0001
1000
0001
1000
0001
1000
0001
1000
0001
0000
0000
0000
0000
0000
0000
0000
,
0000
2100
0001
0000
0001
0010
0000
0010
,
0001
0000
0001
0100
0000
0100
0010
0000
,
3002
0100
1000
0000
1000
0010
0000
0010
,
1000
0000
0000
0000
1000
0000
0100
0000
0000
0000
0100
0000
0010
0003
0010
0001
,
2000
0100
0001
0000
0001
0010
0000
0010
,
0001
0000
0000
0000
0001
0000
0100
0000
0000
0000
0100
3000
0010
1000
0010
1000
,
0001
0101
1001
0000
1100
1001
0000
0011
,
1001
0000
1010
1001
0000
0110
1001
0000
,
1000
0001
0100
0000
0010
1000
1000
0001
,
1000
0000
0100
0010
0001
0000
1000
0000
0001
0000
0100
0000
0010
0000
0100
0000
,
0001
1000
0100
0000
0010
0001
0001
1000
,
0001
0010
0001
0000
0010
0000
0100
1000
0100
0000
0010
0000
0001
0000
0000
0000
,
0001
1000
0100
0000
0010
0001
0001
1000
,
0001
0000
0100
0010
1000
0000
0001
0000
1000
0100
0010
0000
0001
0000
0100
0010
,
0100
0000
0001
0000
1000
0000
0000
0000
1000
0000
0100
0000
0100
0000
1000
0001
,
0100
0000
0100
0000
0010
0000
0010
1000
0001
0000
0010
0100
1000
0000
0000
0000
,
0002
0000
0203
0000
0320
0000
0030
0002
,
0000
0023
2030
3200
0320
0000
0000
0030
,
0002
0000
2003
0000
3200
0000
0300
0020
,
0000
2030
3020
0032
0203
0000
0000
0300
,
0010
0000
1000
0010
0100
0001
0000
0010
,
0000
0100
1000
0010
0001
0010
1000
0100
,
0020
0000
0000
0030
0001
1000
0000
0100
,
0000
0000
1000
0000
0010
0000
0100
0000
0001
0000
0000
1000
0000
0000
0100
0000
,
0110
0000
0000
0000
0010
0001
0010
0001
1000
0000
1010
0000
0000
0000
1001
0000
,
0000
0000
0001
0010
0001
0010
0100
0000
1100
0000
0000
0000
0101
0000
0000
0000
,
1001
0000
0000
0000
1000
0010
1000
0010
0100
0000
0110
0000
0000
0000
1010
0000
,
0000
0000
0001
1000
0001
1000
0100
0000
0110
0000
0000
0001
0000
0000
1000
0000
,
0020
0000
0000
0000
0030
0110
0000
1001
,
0000
0000
1000
0001
1000
0001
0100
0000
0110
0000
0000
0000
1001
0000
0000
0000
,
2020
0000
3030
0220
0000
0330
0202
0000
,
0303
0000
0022
0000
0000
0000
0033
0000
0010
0000
0100
1000
0001
0000
0000
0000
,
0001
0100
0001
0100
0010
1000
0001
0010
,
0100
1000
0100
1000
0001
0100
0010
1000
,
0001
0001
0010
0010
0100
0100
1000
1000
,
0001
1000
0001
1000
0001
1000
0001
1000
0001
0000
0000
0000
0000
0000
0000
0000
,
0000
0000
0100
0000
1001
0000
0000
0000
1000
0200
1000
0000
0000
0000
0310
0002
,
0010
0000
0000
0000
1003
0200
1000
0000
0000
0000
0310
0002
0010
0000
0000
0000
,
1003
0000
0001
0000
1001
0000
0000
0000
0001
0200
0001
0000
0000
0000
0310
2000
,
0010
0000
0000
0000
3001
0200
0001
0000
0000
0000
0310
2000
0010
0000
0000
0000
,
3001
0000
0100
0000
0110
0000
0000
0000
0010
0200
0010
0000
0000
0000
0301
2000
,
0001
0000
0000
0000
3100
0020
0100
0000
0000
0000
0031
1000
0001
1000
0001
1000
,
0001
0100
0110
0000
1010
1001
0000
0101
,
1001
0000
1100
0011
0000
0110
1001
0000
,
0001
1000
0100
0000
1000
0010
0010
0100
,
0001
0000
1000
0100
0010
0000
0001
0000
0100
0000
0001
0000
0010
0000
0100
0000
,
1000
0001
0100
0000
0010
1000
1000
0001
,
0100
0010
0100
0000
0001
0000
1000
0100
0010
0000
0001
0000
0001
0000
0100
0000
,
0001
0010
0100
0000
1000
0001
0001
0100
,
0010
0000
0100
0001
1000
0000
0100
0000
1000
0001
0100
0000
0010
0000
0100
0001
,
1000
0100
0010
0000
0001
0100
0100
0001
,
0001
0010
0100
1000
0001
1000
0001
1000
0001
0010
0100
1000
0001
0000
0000
0000
,
2000
0000
0000
0000
3000
0000
0001
0100
0001
0000
0010
0000
0000
0000
0100
0000
,
0000
0000
1000
0000
0100
0000
0010
0000
0001
0000
1000
0010
0100
0000
0000
0000
,
0002
0000
0000
0000
0003
0000
0010
0100
0010
0000
0001
0000
0000
0000
1000
0000
,
0000
0000
0000
0001
0000
0000
1000
0000
0100
0000
1000
0000
0001
0000
0100
0000
0001
0000
1000
0000
0001
0000
0010
0000
,
0200
0000
0000
0000
0300
0000
1000
0100
1000
0000
0001
0000
0000
0000
0100
0000
,
0000
0000
0001
1000
0001
1000
0100
0010
0001
0000
0000
0000
1001
0000
0000
0000
,
1100
0000
0001
0101
0000
0100
0110
0000
,
0010
1010
0000
1000
1001
0000
0110
0000
,
0001
0000
0100
0000
0010
0000
0001
0000
0010
0000
1000
0000
0001
1000
0001
1000
,
0100
0010
0000
0001
1001
0000
0000
0000
,
0000
0000
0000
0000
;
#NOTES:
     dance-single:
     :
     Challenge:
     17:
     :
0000
0000
0000
0000
,
0000
0000
0000
0000
,
0000
0000
0000
0000
,
0000
0000
0000
0000
,
0000
0000
0000
0000
,
0000
0000
0000
0000
,
1000
0000
0000
0000
0000
0000
0001
0100
0001
0100
0000
0000
0001
0000
0000
0010
0000
0000
0000
0000
0000
0100
0000
0000
,
0000
0010
0001
0100
0010
0100
0001
0010
,
0200
0000
0000
0300
1000
0001
0000
0100
,
0000
0000
0001
0000
0010
0000
0100
0000
1000
0000
0000
0010
0000
0000
1000
0000
,
1001
0000
0001
1000
0001
0010
0100
1000
0001
0000
0101
0000
0000
0000
1001
0000
,
1000
0001
1000
0010
0100
0001
1000
0000
1100
0000
0000
0000
0011
0000
0000
0000
,
1001
0000
0001
0010
0100
1000
0001
0100
0010
0000
1010
0000
0000
0000
1001
0000
,
0000
0000
0001
0010
0100
1000
0001
0000
0101
0000
0000
0110
0000
0000
1010
0000
,
1001
0000
0001
0100
0001
0010
0100
1000
0001
0000
0101
0000
0000
0000
0110
0000
,
0010
1000
0001
0010
0100
1000
0001
0000
0101
0000
0000
0000
1001
0000
0000
0000
,
0022
0033
0010
0220
0330
0100
2200
3300
,
1000
0000
0001
0010
0100
1000
0001
0100
0010
0000
0100
0001
1000
0000
0000
0000
,
0001
0100
0001
0010
0001
0100
0001
0010
,
0100
1000
0010
1000
0100
1000
0010
1000
,
0001
0001
0010
0010
0100
0100
1000
1000
,
0001
1000
0010
0100
0001
1000
0100
0010
0001
0000
0000
0000
0000
0000
0000
0000
,
0000
0000
0000
0000
0000
0000
0000
0000
0100
0000
0000
0000
0000
0000
0000
0000
0102
0000
0000
0000
0000
0000
0000
0000
0000
0000
0000
0000
0000
0000
0000
0000
1000
0000
0000
0000
0000
0000
0000
0003
1002
0000
0000
0000
0000
0000
0000
0000
0000
0000
0000
0000
0000
0000
0000
0000
0010
0000
0000
0000
0000
0000
0000
0003
,
1002
0000
0000
0000
0000
0000
0000
0000
0000
0000
0000
0000
0000
0000
0000
0000
0100
0000
0000
0000
0000
0000
0000
0003
1002
0000
0000
0000
0000
0000
0000
0000
0000
0000
0000
0000
0000
0000
0000
0000
0100
0000
0000
0000
0000
0000
0000
0003
0012
0000
0000
0000
0000
0000
0000
0000
0000
0000
0000
0000
0000
0000
0000
0000
,
2003
0000
0000
0000
0000
0000
0000
0000
0100
0000
0000
0000
0000
0000
0000
3000
2100
0000
0000
0000
0000
0000
0000
0000
0000
0000
0000
0000
0000
0000
0000
0000
0001
0000
0000
0000
0000
0000
0000
3000
2001
0000
0000
0000
0000
0000
0000
0000
0000
0000
0000
0000
0000
0000
0000
0000
0010
0000
0000
0000
0000
0000
0000
3000
,
2001
0000
0000
0000
0000
0000
0000
0000
0000
0000
0000
0000
0000
0000
0000
0000
0100
0000
0000
0000
0000
0000
0000
3000
2001
0000
0000
0000
0000
0000
0000
0000
0000
0000
0000
0000
0000
0000
0000
0000
0100
0000
0000
0000
0000
0000
0000
3000
2010
0000
0000
0000
0000
0000
0000
0000
3010
0000
0000
0000
0100
0000
0000
0000
,
0020
0000
0000
0000
0000
0000
0000
0000
1000
0000
0000
0000
0000
0000
0000
0030
1020
0000
0000
0000
0000
0000
0000
0000
0000
0000
0000
0000
0000
0000
0000
0000
0100
0000
0000
0000
0000
0000
0000
0030
0120
0000
0000
0000
0000
0000
0000
0000
0000
0000
0000
0000
0000
0000
0000
0000
0001
0000
0000
0000
0000
0000
0000
0030
,
0021
0000
0000
0000
0000
0000
0000
0000
0000
0000
0000
0000
0000
0000
0000
0000
0001
0000
0000
0000
0000
0000
0000
0030
0120
0000
0000
0000
0000
0000
0000
0000
0000
0000
0000
0000
0000
0000
0000
0000
0001
0000
0000
0000
0000
0000
0000
0000
1030
0000
0000
0000
0001
0000
0000
0000
0100
0000
0000
0000
0010
0000
0000
0000
,
0200
0000
0000
0000
0000
0000
0000
0000
0010
0000
0000
0000
0000
0000
0000
0300
0201
0000
0000
0000
0000
0000
0000
0000
0000
0000
0000
0000
0000
0000
0000
0000
0010
0000
0000
0000
0000
0000
0000
0300
1200
0000
0000
0000
0000
0000
0000
0000
0000
0000
0000
0000
0000
0000
0000
0300
0210
0000
0000
0000
0000
0000
0000
0300
,
0201
0000
0000
0000
0000
0000
0000
0000
0000
0000
0000
0000
0000
0000
0000
0300
0201
0000
0000
0000
0000
0000
0000
0300
1200
0000
0000
0000
0000
0000
0000
0000
0000
0000
0000
0000
0000
0000
0000
0300
0110
0000
0000
0000
0000
0000
0000
0000
1001
0000
0000
0000
0000
0000
0000
0000
0000
0000
0000
0000
0000
0000
0000
0000
,
0001
0000
1000
0100
1000
0000
0010
0000
0100
0000
0001
0010
0001
0000
0100
0000
,
0010
0000
1000
0001
0010
0000
0100
0000
0010
0001
1000
0010
0100
0000
0001
0000
,
1000
0000
0010
0000
0100
0000
0010
0000
1000
0000
0001
0010
0100
0000
1000
0000
,
0001
0100
0010
0100
0001
0000
1000
0001
0010
0000
0100
0000
1000
0000
0010
0000
,
1000
0000
0001
0100
0001
0000
0010
0000
0100
0000
1000
0010
1000
0000
0001
0000
,
0100
0000
0010
1000
0001
0000
0010
0000
0100
1000
0001
0100
0010
0000
1000
0001
,
0010
0000
0100
1000
0001
0000
0100
0000
0001
0000
1000
0010
0100
0000
0001
0010
,
0100
0000
1000
0010
0100
0000
0001
1000
0100
0010
0001
0100
0010
0000
0000
0000
,
2000
0000
3200
0000
0320
0000
0030
2000
,
0000
3010
0001
0100
2000
0000
0000
3000
,
0200
0000
0320
0000
0032
0000
0003
0020
,
0000
0000
0000
1030
0000
0000
0100
0000
0000
0010
0000
0000
0001
0000
1000
0000
0010
0000
0100
0000
0001
0000
0010
0000
,
0100
0000
0000
0000
0000
0000
1000
0100
1000
0100
0000
0000
1000
0000
0000
0010
0000
0000
0000
0000
0000
0100
0000
0000
,
0000
0001
0010
0100
0010
0001
0100
0010
,
2000
0000
0000
3000
0100
0010
0000
0001
,
0000
0000
1000
0000
0010
0000
0100
0000
0001
0000
0000
0010
0000
0000
0001
0000
,
1001
0000
1000
0001
1000
0010
0100
0001
1000
0000
1100
0000
0000
0000
1001
0000
,
0001
1000
0001
0010
0100
1000
0001
0000
0101
0000
0000
0000
1010
0000
0000
0000
,
1001
0000
1000
0010
0100
0001
1000
0100
0010
0000
0011
0000
0000
0000
1001
0000
,
0000
0000
1000
0010
0100
0001
1000
0000
1100
0000
0000
0110
0000
0000
0011
0000
,
1001
0000
1000
0100
1000
0100
1000
0100
1000
0000
1001
0000
0000
0000
1010
0000
,
0010
0100
0001
1000
0100
1000
0001
0000
0011
0000
0000
0000
1001
0000
0000
0000
,
2200
3300
0100
0220
0330
0010
0022
0033
,
0001
0000
1000
0010
0100
0001
1000
0100
0010
0000
0100
1000
0001
0000
0000
0000
,
1000
0100
1000
0010
1000
0100
1000
0010
,
0100
0001
0010
0001
0100
0001
0010
0001
,
1000
1000
0010
0010
0100
0100
0001
0001
,
1000
0001
0010
0100
1000
0001
0100
0010
1000
0000
0000
0000
0000
0000
0000
0000
,
0000
0000
0000
0000
0000
0000
0000
0000
0110
0000
0000
0000
0000
0000
0000
0000
2001
0000
0000
0000
0000
0000
0000
0000
0000
0000
0000
0000
0000
0000
0000
0000
0100
0000
0000
3000
2000
0000
0000
0000
0010
0000
0000
0000
0000
0000
0000
0000
0000
0000
0000
0000
0000
0000
0000
0000
0010
0000
0000
3000
2000
0000
0000
0000
,
0100
0000
0000
0000
0000
0000
0000
0000
0000
0000
0000
0000
0000
0000
0000
0000
0100
0000
0000
3000
2000
0000
0000
0000
0010
0000
0000
0000
0000
0000
0000
0000
0000
0000
0000
0000
0000
0000
0000
0000
0010
0000
0000
3000
2000
0000
0000
0000
0100
0000
0000
0000
0000
0000
0000
0000
0000
0000
0000
0000
0000
0000
0000
3000
,
2000
0000
0000
0000
0000
0000
0000
0000
0001
0000
0000
0000
0000
0000
0000
3000
1002
0000
0000
0000
0000
0000
0000
0000
0000
0000
0000
0000
0000
0000
0000
0000
0100
0000
0000
0003
0002
0000
0000
0000
0010
0000
0000
0000
0000
0000
0000
0000
0000
0000
0000
0000
0000
0000
0000
0000
0010
0000
0000
0003
0002
0000
0000
0000
,
0100
0000
0000
0000
0000
0000
0000
0000
0000
0000
0000
0000
0000
0000
0000
0000
0100
0000
0000
0003
0002
0000
0000
0000
0010
0000
0000
0000
0000
0000
0000
0000
0000
0000
0000
0000
0000
0000
0000
0000
0010
0000
0000
0003
0002
0000
0000
0000
0100
0000
0000
0000
0000
0000
0000
0000
0000
0000
0000
0000
0000
0000
0000
0003
,
0002
0000
0000
0000
0000
0000
0000
0000
0100
0000
0000
0000
0000
0000
0003
0000
0210
0000
0000
0000
0000
0000
0000
0000
0000
0000
0000
0000
0000
0000
0000
0000
0001
0000
0000
0300
0200
0000
0000
0000
1000
0000
0000
0000
0000
0000
0000
0000
0000
0000
0000
0000
0000
0000
0000
0000
1000
0000
0000
0300
0200
0000
0000
0000
,
0001
0000
0000
0000
0000
0000
0000
0000
0000
0000
0000
0000
0000
0000
0000
0000
0001
0000
0000
0300
0200
0000
0000
0000
1000
0000
0000
0000
0000
0000
0000
0000
0000
0000
0000
0000
0000
0000
0000
0000
1000
0000
0000
0300
0100
0000
0000
0000
0001
0000
0000
0000
1000
0000
0000
0000
0100
0000
0000
0000
0020
0000
0000
0000
,
0001
0000
0000
0000
0000
0000
0000
0000
0001
0000
0000
0000
0000
0000
0000
0030
0021
0000
0000
0000
0000
0000
0000
0000
0000
0000
0000
0000
0000
0000
0000
0030
0020
0000
0000
0000
0000
0000
0000
0030
0120
0000
0000
0000
0000
0000
0000
0000
0000
0000
0000
0000
0000
0000
0000
0030
0020
0000
0000
0000
0000
0000
0000
0030
,
1020
0000
0000
0000
0000
0000
0000
0000
0000
0000
0000
0000
0000
0000
0000
0030
0120
0000
0000
0000
0000
0000
0000
0030
0021
0000
0000
0000
0000
0000
0000
0000
0000
0000
0000
0000
0000
0000
0000
0030
0011
0000
0000
0000
0000
0000
0000
0000
1001
0000
0000
0000
0000
0000
0000
0000
0000
0000
0000
0000
0000
0000
0000
0000
,
1000
0000
0001
0100
0001
0000
0010
0000
0100
0000
1000
0010
1000
0000
0100
0000
,
0010
0000
0001
1000
0010
0000
0100
0000
0010
1000
0001
0010
0100
0000
1000
0000
,
0001
0000
0010
0000
0100
0000
0010
0000
0001
0000
1000
0010
0100
0000
0001
0000
,
1000
0100
0010
0100
1000
0000
0001
1000
0010
0000
0100
0000
0001
0000
0010
0000
,
0001
0000
1000
0100
1000
0000
0010
0000
0100
0000
0001
0010
0001
0000
1000
0000
,
0100
0000
0010
0001
1000
0000
0010
0000
0100
0001
1000
0100
0010
0000
0001
1000
,
0010
0000
0100
0001
1000
0000
0001
0000
1000
0000
0001
0010
0100
0000
1000
0001
,
0100
0010
0100
0001
1000
0100
1000
0001
0100
0001
0010
0100
1000
0000
0000
0000
,
0002
0000
0000
0000
0000
0000
0003
0000
0000
0100
0001
0100
0001
0000
0000
0010
0000
0000
0000
0000
0000
0100
0000
0000
,
0000
0000
1000
0010
0100
0001
1000
0001
0010
0000
0100
1000
0010
0000
0000
0000
,
0200
0000
0000
0000
0000
0000
0300
0000
0000
0001
0010
0001
0010
0000
0000
0100
0000
0000
0000
0000
0000
1000
0000
0000
,
0000
0000
0000
0000
0000
0000
0001
0000
0000
1000
0000
0000
0001
0000
0000
0000
0010
0000
0000
0000
0100
0000
0000
0000
0001
0000
0000
0000
1000
0000
0000
0000
0010
0000
0000
0000
0001
0000
0000
0000
0100
0000
0000
0000
0010
0000
0000
0000
,
2000
0000
0000
0000
0000
0000
3000
0000
0000
0001
1000
0001
1000
0000
0000
0010
0000
0000
0000
0000
0000
2000
0000
0000
,
0000
0000
3001
0010
0100
1000
0001
0100
0010
0000
0000
0000
1010
0000
0000
0000
,
1001
0000
0100
1010
0000
0010
0101
0000
,
0010
1100
0000
0100
0011
0000
1001
0000
,
1000
0000
0100
0000
0001
0000
0100
0000
1000
0000
0010
0000
0100
0001
1000
0001
,
0010
0110
0000
1100
1001
0000
0000
0000
,
0000
0000
0000
0000
;
#NOTES:
     dance-double:
     :
     Easy:
     7:
     :
00000000
00000000
00000000
00000000
,
00000000
00000000
00000000
00000000
,
00000000
00000000
00000000
00000000
,
00000000
00000000
00000000
00000000
,
00000000
00000000
00000000
00000000
,
00000000
00000000
00000000
00000000
,
00001000
00000000
00010000
00000000
,
00000100
00001000
00000010
00000000
,
00010000
00000000
00001000
00000000
,
01000000
00010000
00100000
00000000
,
00011000
00000000
00000000
00000000
00000000
00001000
00000000
00001000
,
00000000
00000000
00010000
00000100
,
00001100
00000000
00000000
00000000
00000000
00000001
00000000
00000001
,
00000000
00000000
00000100
00000000
,
00000110
00000000
00000000
00000000
00000000
00010000
00000000
00001000
,
00000000
00000000
01000000
00010000
,
10000000
00000000
00000000
01000000
00000000
00000000
00100000
00000000
,
00000000
00010000
00000000
00000000
01000000
00000000
10010000
00000000
,
10000000
01000000
00100000
00010000
,
00100000
00001000
00010000
00000100
,
00001000
00001000
00000010
00000010
,
00000110
00001010
00001001
00000000
,
00000000
00000000
00000001
00000000
00000000
00000001
00000000
00000000
,
00000001
00000000
00000000
00000001
00000000
00000000
00000001
00000000
,
00000000
00000000
00001000
00000000
00000000
00001000
00000000
00000000
,
00001000
00000000
00000000
00001000
00000000
00000000
00001000
00000000
,
00000000
00000000
00000010
00000000
00000000
00000010
00000000
00000000
,
00000010
00000000
00000000
00000010
00000000
00000000
00000010
00000000
,
00000000
00000000
00010000
00000000
00000000
00010000
00000000
00000000
,
00010000
00000000
00000000
00010000
00000000
00000000
00011000
00000000
,
00010000
00001000
01000000
00010000
,
00100000
00100000
00010000
10000000
,
00100000
01000000
00010000
00100000
,
00001000
00010000
00010000
00000100
,
00001000
00000001
00000100
00000010
,
00001000
00001000
00000100
00000010
,
00000001
00000001
00000100
00001000
,
00010000
00001000
01000000
00010000
,
00200000
00000000
00300000
00000000
,
00020000
00000000
00030000
00000000
,
20000000
00000000
30000000
00000000
,
02000000
00000000
03000000
00000000
,
00010000
00000000
00001000
00000000
,
01000000
00010000
00100000
00000000
,
00001000
00000000
00010000
00000000
,
00000100
00001000
00000010
00000000
,
00011000
00000000
00000000
00000000
00000000
00001000
00000000
00001000
,
00000000
00000000
01000000
00010000
,
00110000
00000000
00000000
00000000
00000000
10000000
00000000
10000000
,
00000000
00000000
01100000
00000000
,
00002000
00000000
00000000
00003000
00000000
00010000
00000000
00010000
,
00000000
00000000
00001000
00011000
,
00010000
00000000
00000000
00000100
00000000
00000000
00001000
00000000
,
00000000
00000010
00000000
00000000
00001000
00000000
00001001
00000000
,
00000001
00000100
00000001
00000100
,
00001000
00010000
00001000
00010000
,
01000000
10000000
00100000
01000000
,
00010000
10000000
10010000
00000000
,
00000000
00000000
10000000
00000000
00000000
01000000
00000000
00000000
,
00100000
00000000
00000000
00001000
00000000
00000000
00010000
00000000
,
00000000
00000000
00000100
00000000
00000000
00001000
00000000
00000000
,
00000010
00000000
00000000
00000100
00000000
00000000
00000001
00000000
,
00000000
00000000
00000010
00000000
00000000
00000001
00000000
00000000
,
00000100
00000000
00000000
00001000
00000000
00000000
00010000
00000000
,
00000000
00000000
00011000
00000000
00000000
01001000
00000000
00000000
,
01100000
00000000
00000000
10100000
00000000
00000000
10010000
00000000
,
10000000
01000000
10000000
00100000
,
01000000
00001000
00010000
00000100
,
00001000
00000010
00010000
00001000
,
01000000
00010000
00100000
00001000
,
00010000
01000000
10000000
00100000
,
10000000
01000000
00010000
00001000
,
00010000
00010000
00001000
00001000
,
00020000
00032000
00003200
00000300
,
00000001
00000000
00000010
00000000
,
00000100
00001000
00000010
00000000
,
00010000
00000000
00001000
00000000
,
01000000
00010000
00100000
00000000
,
00010000
00000000
10000000
00000000
,
01000000
00100000
00010000
00000000
,
01000000
00000000
00000000
00011000
00000000
00000000
00000010
00000000
,
00000000
00011000
00000000
00000000
00100000
00000000
00001000
00000000
,
00020000
00000000
00000000
00000000
,
00030000
00001000
00000000
00000000
00011000
00000000
00000000
00000000
,
00000000
00000000
00000000
00000000
;
#NOTES:
     dance-double:
     :
     Medium:
     11:
     :
00000000
00000000
00000000
00000000
,
00000000
00000000
00000000
00000000
,
00000000
00000000
00000000
00000000
,
00000000
00000000
00000000
00000000
,
00000000
00000000
00000000
00000000
,
00000000
00000000
00000000
00000000
,
00001000
00000000
00000000
00010000
00010000
00000000
00000000
00001000
,
00010000
00000100
00000010
00000000
,
00000001
00000000
00000000
00001000
00001000
00000000
00000000
00000001
,
00000100
00000010
00001000
00000000
,
00001001
00000000
00000000
00000000
00000000
00000101
00000000
00001010
,
00000000
00000000
00010010
00011000
,
01001000
00000000
00000000
00000000
00000000
01100000
00000000
10010000
,
00000000
00000000
00000000
00000000
00000000
00000000
00000000
00000000
10000000
00000000
00000000
00010000
00000000
00000000
01000000
00000000
,
01100000
00000000
00000000
00000000
00000000
01001000
00000000
00011000
,
00000000
00000000
00010100
00000110
,
00000002
00000000
00000003
00000200
00000000
00000300
00000020
00000000
,
00000030
00002000
00000000
00003000
00000001
00000100
00001000
00000000
,
00010000
00001000
01000000
00010000
,
00100000
00001000
00010000
00001000
,
00010000
00001000
00100000
00000000
00001000
00010000
00000100
00000000
,
00010000
00001000
00010000
00001000
00010000
00000000
00000000
00000000
,
00000000
00001000
00010000
00000000
00001000
00010000
00000000
00001000
,
00010000
00000000
00001000
00010000
00000000
00001000
00000100
00000000
,
00000000
00010000
00001000
00000000
00010000
00001000
00000000
00010000
,
00001000
00000000
00010000
00001000
00000000
00010000
01000000
00000000
,
00000000
00000000
00010000
00001000
00000100
00001000
00000000
00010000
,
00001000
00000000
00010000
00001000
00000000
00010000
01000000
00000000
,
00010000
00001000
00000010
00000000
00000100
00001000
00000000
00000001
,
00000100
00000000
00000010
00001000
00000000
00000001
00001001
00000000
,
00000001
00000100
00000001
00000000
00001000
00000001
00000100
00000000
,
00000001
00000000
00001000
00000100
00001000
00000100
00010000
00000000
,
00001000
00100000
00010000
00000000
10000000
00100000
01000000
00000000
,
00010000
00000000
10000000
01000000
10000000
01000000
00100000
00000000
,
00001000
00010000
00001000
00000000
00010000
00000100
00000010
00000000
,
00000001
00000000
00001000
00000001
00001000
00000001
00000100
00000000
,
00000001
00000010
00000100
00000000
00010000
00001000
00100000
00000000
,
00001000
00000000
00001000
00010000
01000000
10000000
00100000
00000000
,
10000000
00000000
01000000
00000000
00010000
00000000
00000000
00001000
,
00000000
00010000
00000010
00000000
00001000
00000000
00000000
00000000
,
00000001
00000000
00000100
00000000
00001000
00000000
00000000
00010000
,
00000000
00001000
00100000
00000000
00010000
00000000
00000000
00000000
,
10000000
00000000
00000000
00010000
00010000
00000000
00000000
10000000
,
01000000
00100000
00001000
00000000
,
00010000
00000000
00000000
00001000
00001000
00000000
00000000
00010000
,
00001000
00000000
00000000
00000000
01000000
00000000
00000000
00000000
00010000
00000000
00000000
01000000
00000000
00000000
00010000
00000000
,
01010000
00000000
00000000
00000000
00000000
11000000
00000000
10010000
,
00000000
00000000
00101000
00011000
,
00010100
00000000
00000000
00000000
00000000
00001100
00000000
00000011
,
00000000
00000000
00000000
00000000
00000000
00000000
00000000
00000000
00001000
00000000
00000000
00000100
00000000
00000000
00001000
00000000
,
00001020
00000000
00000000
00000000
00000030
00000110
00000000
00001001
,
00000000
00000000
00010100
00011000
,
00002000
00000000
00003000
00200000
00000000
00300000
00020000
00000000
,
00030000
02000000
00000000
03000000
00100000
10000000
00010000
00000000
,
10000000
01000000
00010000
00001000
,
00010000
00001000
00000100
00000001
,
00001000
00000100
00001000
00000000
00000001
00000100
00000001
00000000
,
00001000
00000100
00010000
00001000
00011000
00000000
00000000
00000000
,
00000000
00010000
00001000
00000000
00010000
00001000
00000000
00010000
,
00001000
00000000
00010000
00001000
00000000
00010000
01000000
00000000
,
00000000
00001000
00010000
00000000
00001000
00010000
00000000
00001000
,
00010000
00000000
00001000
00010000
00000000
00001000
00000100
00000000
,
00000000
00000000
00001000
00010000
01000000
00010000
00000000
00001000
,
00010000
00000000
00001000
00010000
00000000
00001000
00000100
00000000
,
00001000
00010000
00100000
00000000
01000000
00010000
00000000
10000000
,
01000000
00000000
00100000
00010000
00000000
10000000
10010000
00000000
,
00010000
00100000
00010000
00000000
10000000
00100000
01000000
00000000
,
00010000
00000000
10000000
01000000
10000000
01000000
00100000
00000000
,
00001000
00010000
00000100
00000000
00001000
00000100
00010000
00000000
,
00000010
00000000
00001000
00000001
00001000
00000001
00000100
00000000
,
00000001
00000010
00000100
00000000
00010000
00001000
00100000
00000000
,
00001000
00000000
00010000
00001000
01000000
00010000
00100000
00000000
,
01000000
10000000
00010000
00000000
01000000
00010000
10000000
00000000
,
10000000
01000000
00010000
00001000
00010000
00001000
00000100
00000000
,
00000020
00000000
00000030
00000100
00000001
00000001
00000000
00001000
,
00000000
00000000
00000001
00000100
00000010
00000000
00010000
00000000
,
00002000
00000000
00003000
00100000
00010000
00010000
00000000
10000000
,
00000000
02000000
03200000
00302000
,
00023000
00000000
00030000
00000010
00001000
00001000
00000000
00000001
,
00000000
00001000
00000100
00000000
00000010
00000000
00000011
00000000
,
00001001
00000000
00000001
00000010
00000000
00000100
00001000
00000000
,
00000010
00010000
00000000
00001000
00100000
00000000
00110000
00000000
,
10000000
00100000
10000000
00100000
01000000
00010000
01000000
00010000
,
00000000
00100000
00000000
00001000
00011000
00000000
00000000
00000000
,
00000000
00000000
00000000
00000000
;
#NOTES:
     dance-double:
     :
     Hard:
     15:
     :
00000000
00000000
00000000
00000000
,
00000000
00000000
00000000
00000000
,
00000000
00000000
00000000
00000000
,
00000000
00000000
00000000
00000000
,
00000000
00000000
00000000
00000000
,
00000000
00000000
00000000
00000000
,
00020000
00000000
02030000
00000000
23000000
00000000
30000000
00100000
,
00000000
10000000
01000000
00100000
00010000
01000000
00100000
00010000
,
00002000
00000000
00023000
00000000
00030200
00000000
00000300
00000010
,
00000000
00000001
00000100
00001000
00020000
00000000
00000000
00030000
,
00011000
00000000
00000000
00000000
00001000
00010000
00001000
00010000
00001000
00000000
00100000
00000000
00000000
00000000
11000000
00000000
,
00000000
00000000
10000000
01000000
10000000
01000000
10000000
00000000
00100000
00000000
00000000
00000000
01010000
00000000
00000000
00000000
,
01001000
00000000
00000000
00000000
00001000
00010000
00001000
00010000
00001000
00000000
00010000
00000000
00000000
00000000
00010010
00000000
,
00000000
00000000
00000010
00001000
00000010
00001000
00000010
00000000
00000100
00000000
00000000
00000001
00000000
00000000
00000010
00000000
,
00000011
00000000
00000000
00000000
00000100
00001000
00000100
00001000
00000100
00000000
00001000
00000000
00000000
00000000
00010100
00000000
,
00000000
00000000
00010000
00001000
00010000
00001000
00010000
00000000
00001000
00000000
00000000
00000000
01001000
00000000
00000000
00000000
,
20200000
00000000
30300000
02002000
00000000
03003000
00022000
00000000
,
00033000
00000000
00020200
00000000
00000000
00000000
00030300
00000000
00000100
00000000
00001000
00000100
00000010
00000000
00000000
00000000
,
00000100
00001000
00000100
00001000
00000001
00000100
00001000
00010000
,
01000000
10000000
01000000
10000000
00100000
01000000
00010000
00100000
,
00001000
00001000
00010000
00010000
00001000
00001000
00010000
00010000
,
00001000
00010000
00001000
00010000
00001000
00010000
00001000
00010000
00001000
00000000
00000000
00000000
00000000
00000000
00000000
00000000
,
00000000
00001000
00021000
00000000
00030100
00020000
00000000
00031000
,
00020000
00000000
00030010
00020000
00000000
00031000
00020000
00000000
,
00031000
00100000
00020000
00000000
10030000
00020000
00000000
01030000
,
00020000
00000000
00000000
00000000
10030000
00000000
00020000
00000000
00000000
00000000
00100000
00000000
00130000
00000000
00001000
00010000
,
00001000
00020000
00000100
00030000
00020000
00001000
00030000
00020000
,
01000000
00000000
00030000
00000000
00020000
00000000
00001000
00000000
00030000
00000000
00010000
00000000
00001000
00010000
00001000
00010000
,
00001000
00010000
00021000
00000000
00031000
00020010
00000000
00031000
,
00021000
00030000
00011000
00020100
00030000
00011000
00101000
00000000
,
00001000
00010000
01000000
10000000
00100000
10000000
01000000
00010000
,
00001000
00000100
00000010
00010000
00001000
00000010
00000001
00001000
,
00000001
00000100
00000010
00001000
00000001
00000010
00001000
00010000
,
00001000
01000000
00100000
00010000
00100000
10000000
01000000
00100000
,
00010000
01000000
00100000
00010000
00001000
00010000
00000100
00000010
,
00001000
00000010
00000001
00000100
00001000
00000100
00000001
00000010
,
00000100
00001000
00000010
00010000
00001000
00000100
00000001
00001000
,
00000001
00000000
00000010
00000100
00001000
00000000
00000100
00010000
00001000
00000000
01000000
00010000
00100000
00000000
00000000
00000000
,
00020000
00000000
02030000
00000000
23000000
00000000
30000000
01000000
,
00000000
00100000
00010000
00001000
00000100
00000000
00000010
00000000
,
00002000
00000000
00003200
00000000
00000302
00000000
00000003
00000100
,
00000000
00000010
00001000
00010000
01000000
00000000
00100000
00000000
,
00001000
00000000
00000000
00000000
00010000
00001000
00010000
00000000
00001000
00000000
01000000
00000000
00000000
00000000
00100000
00000000
,
00000000
00100000
00010000
00001000
00000100
00000000
00000010
00000000
,
00010000
00000000
00001000
00010000
00001000
00010000
00000000
00000100
,
00000000
00000000
00000010
00000000
00001000
00000000
00010000
00000000
01000000
00000000
00000000
00100000
00000000
00000000
00001000
00000000
,
00011000
00000000
00000000
00000000
00010000
00001000
00010000
00001000
00010000
00000000
00010010
00000000
00000000
00000000
00000101
00000000
,
00000000
00000000
00000001
00000100
00000001
00000100
00000001
00000000
00000011
00000000
00000000
00000000
00001100
00000000
00000000
00000000
,
00010100
00000000
00000000
00000000
00010000
00001000
00010000
00001000
00010000
00000000
00011000
00000000
00000000
00000000
00101000
00000000
,
00000000
00000000
00100000
00010000
00100000
00010000
00100000
00000000
01000000
00000000
00000000
10000000
00000000
00000000
00100000
00000000
,
02000000
00000000
00000000
00000000
03000000
01010000
00000000
01001000
,
00000000
00000000
00001000
00010000
00001000
00010000
00001000
00000000
00011000
00000000
00000000
00000000
00010100
00000000
00000000
00000000
,
00000022
00000000
00000033
00020200
00000000
00030300
00022000
00000000
,
00033000
00000000
02002000
00000000
00000000
00000000
03003000
00000000
01000000
00000000
00010000
00100000
01000000
00000000
00000000
00000000
,
10000000
00100000
10000000
00100000
10000000
01000000
00010000
00001000
,
00000100
00000001
00000100
00000001
00000010
00000100
00001000
00000010
,
00010000
00010000
00001000
00001000
00010000
00010000
00001000
00001000
,
00010000
00001000
00010000
00001000
00010000
00001000
00010000
00001000
00010000
00000000
00000000
00000000
00000000
00000000
00000000
00000000
,
00000000
00000000
00001000
00000000
00021000
00000000
00000000
00030000
00001000
00020000
00001000
00000000
00030000
00000000
00010000
00000100
,
00020000
00000000
00000000
00030000
00001000
00020000
00001000
00000000
00030000
00000000
00010000
00000010
00020000
00000000
00000000
00000000
,
00031000
00000000
00020000
00000000
00000100
00000000
00030000
00000000
00010000
00001000
00020000
00000000
00000000
00030000
00100000
00020000
,
00100000
00000000
00030000
00000000
00010000
00001000
00020000
00000000
00000000
00030000
00000010
00020000
00000010
00000000
00030000
00000000
,
00010000
00000000
00002000
00000000
01000000
00000000
00003000
00000000
00001000
01000000
00002000
00000000
00000000
00003000
00010000
00002000
,
00010000
00000000
00003000
00000000
00001000
00100000
00002000
00000000
00000000
00003000
00010000
00001000
00010000
00001000
00010000
00000000
,
00001000
00010000
00012000
00000000
00013000
00012000
00000000
00013000
,
00102000
00000000
00013000
01002000
00003000
00011000
00010100
00000000
,
00010000
00001000
00000010
00000001
00001000
00000010
00000100
00000001
,
00000100
00001000
00010000
01000000
10000000
00100000
01000000
00010000
,
10000000
01000000
00100000
00010000
10000000
00100000
00010000
00001000
,
00010000
01000000
00100000
00001000
00010000
00001000
00000010
00000100
,
00010000
00001000
00000100
00000001
00000010
00000001
00000100
00001000
,
00010000
00001000
00100000
01000000
00010000
01000000
10000000
00100000
,
01000000
00010000
10000000
01000000
00100000
00010000
10000000
00000000
,
00010000
00000000
10000000
01000000
00100000
00000000
00001000
00010000
00000100
00000000
00001000
00000100
00000010
00000000
00000000
00000000
,
00000002
00000000
00000000
00000013
00000100
00001000
00000000
00000100
,
00000000
00000000
00010000
00000000
00001000
00000000
01000000
00000000
00010000
00000000
00100000
00010000
00100000
00000000
00000000
00000000
,
02000000
00000000
00000000
13000000
01000000
00100000
00000000
00002000
,
00000000
00000000
00000000
00003000
00000000
00000000
00010000
00000000
00001000
00000000
00010000
00000000
00000100
00000000
00001000
00000000
00000100
00000000
00000010
00000000
00000001
00000000
00001000
00000000
,
00000001
00000000
00000000
00000001
00000100
00000010
00000000
00010000
,
00000000
00001000
00010000
01000000
10000000
00000000
10100000
00000000
,
10010000
00000000
10000000
01000000
00000000
00010000
00001000
00000000
,
00000100
00000010
00000000
00010000
00001000
00000000
00011000
00000000
,
00001000
01000000
00100000
00010000
00001000
00000100
00000010
00010000
,
00001000
00011000
00000000
00010000
00101000
00000000
00000000
00000000
,
00000000
00000000
00000000
00000000
;
#NOTES:
     dance-double:
     :
     Challenge:
     17:
     :
00000000
00000000
00000000
00000000
,
00000000
00000000
00000000
00000000
,
00000000
00000000
00000000
00000000
,
00000000
00000000
00000000
00000000
,
00000000
00000000
00000000
00000000
,
00000000
00000000
00000000
00000000
,
00010000
00000000
00000000
00000000
00000000
00000000
00001000
00010000
00001000
00010000
00000000
00000000
00001000
00000000
00000000
00010000
00000000
00000000
00000000
00000000
00000000
00000010
00000000
00000000
,
00000000
00010000
00001000
00000010
00000100
00010000
00001000
00000100
,
00000020
00000000
00000000
00000030
00010000
00001000
00000000
01000000
,
00000000
00000000
00010000
00000000
00100000
00000000
01000000
00000000
10000000
00000000
00000000
00100000
00000000
00000000
10000000
00000000
,
10010000
00000000
10000000
01000000
10000000
01000000
00100000
00010000
00100000
00000000
00101000
00000000
00000000
00000000
00011000
00000000
,
00010000
00000100
00001000
00000100
00001000
00000001
00000100
00000000
00000110
00000000
00000000
00000000
00001010
00000000
00000000
00000000
,
00001001
00000000
00000001
00000010
00000100
00001000
00000100
00000010
00000001
00000000
00001000
00000000
00000000
00000000
00001010
00000000
,
00000000
00000000
00010000
00001000
00010000
00001000
00010000
00001000
00010000
00000000
00000000
01000000
00000000
00000000
10000000
00000000
,
10100000
00000000
00100000
01000000
00010000
10000000
00010000
00100000
01000000
00000000
11000000
00000000
00000000
00000000
00110000
00000000
,
00001000
00010000
00001000
00010000
00000100
00010000
00000100
00000000
00001100
00000000
00000000
00000000
00001001
00000000
00000000
00000000
,
00000202
00000303
00001000
00002020
00003030
00010000
00022000
00033000
,
01000000
00000000
02020000
00000000
00000000
00000000
03030000
00000000
00010000
00000000
10000000
01000000
00100000
00000000
00000000
00000000
,
00001000
00010000
00001000
00010000
00000010
00000100
00001000
00010000
,
01000000
00100000
01000000
00100000
10000000
00100000
00001000
00010000
,
00000100
00000010
00000001
00000100
00001000
00010000
01000000
10000000
,
00010000
10000000
00100000
01000000
00010000
10000000
01000000
00100000
00010000
00000000
00000000
00000000
00000000
00000000
00000000
00000000
,
00000000
00000000
00000000
00000000
00000000
00000000
00000000
00000000
00010000
00000000
00000000
00000000
00000000
00000000
00000000
00000000
01020000
00000000
00000000
00000000
00000000
00000000
00000000
00000000
00000000
00000000
00000000
00000000
00000000
00000000
00000000
00000000
10000000
00000000
00000000
00000000
00000000
00000000
00000000
00030000
00020000
00000000
00000000
00000000
00000000
00000000
00000000
00000000
00000000
00000000
00000000
00000000
00000000
00000000
00000000
00000000
00100000
00000000
00000000
00000000
00000000
00000000
00000000
00030000
,
00020000
00000000
00000000
00000000
00000000
00000000
00000000
00000000
00000000
00000000
00000000
00000000
00000000
00000000
00000000
00000000
00001000
00000000
00000000
00000000
00000000
00000000
00000000
00030000
00020000
00000000
00000000
00000000
00000000
00000000
00000000
00000000
00000000
00000000
00000000
00000000
00000000
00000000
00000000
00000000
00000010
00000000
00000000
00000000
00000000
00000000
00000000
00030000
00020000
00000000
00000000
00000000
00000000
00000000
00000000
00000000
00000000
00000000
00000000
00000000
00000000
00000000
00000000
00000000
,
00030020
00000000
00000000
00000000
00000000
00000000
00000000
00000000
00002030
00000000
00000000
00000000
00000000
00000000
00000000
00000000
00010000
00000000
00000000
00000000
00000000
00000000
00000000
00000000
00000000
00000000
00000000
00000000
00000000
00000000
00000000
00003000
00002000
00000000
00000000
00000000
00000000
00000000
00000000
00000000
00100000
00000000
00000000
00000000
00000000
00000000
00000000
00000000
00000000
00000000
00000000
00000000
00000000
00000000
00000000
00003000
00002000
00000000
00000000
00000000
00000000
00000000
00000000
00000000
,
10000000
00000000
00000000
00000000
00000000
00000000
00000000
00000000
00000000
00000000
00000000
00000000
00000000
00000000
00000000
00003000
00002000
00000000
00000000
00000000
00000000
00000000
00000000
00000000
01000000
00000000
00000000
00000000
00000000
00000000
00000000
00000000
00000000
00000000
00000000
00000000
00000000
00000000
00000000
00003000
00002000
00000000
00000000
00000000
00000000
00000000
00000000
00000000
00000100
00000000
00000000
00000000
00000000
00000000
00000000
00003000
00002000
00000000
00000000
00000000
00020000
00000000
00000000
00003000
,
00001000
00000000
00000000
00000000
00000000
00000000
00000000
00030000
00020000
00000000
00000000
00000000
00000000
00000000
00000000
00000000
00000100
00000000
00000000
00000000
00000000
00000000
00000000
00000000
00000000
00000000
00000000
00000000
00000000
00000000
00000000
00030000
00020000
00000000
00000000
00000000
00000000
00000000
00000000
00000000
01000000
00000000
00000000
00000000
00000000
00000000
00000000
00000000
00000000
00000000
00000000
00000000
00000000
00000000
00000000
00030000
00020000
00000000
00000000
00000000
00000000
00000000
00000000
00000000
,
00000010
00000000
00000000
00000000
00000000
00000000
00000000
00000000
00000000
00000000
00000000
00000000
00000000
00000000
00000000
00030000
00020000
00000000
00000000
00000000
00000000
00000000
00000000
00000000
00100000
00000000
00000000
00000000
00000000
00000000
00000000
00000000
00000000
00000000
00000000
00000000
00000000
00000000
00000000
00030000
00020000
00000000
00000000
00000000
00000000
00000000
00000000
00000000
00001000
00000000
00000000
00030000
00020000
00000000
00000000
00000000
00001000
00000000
00000000
00030000
00020000
00000000
00000000
00000000
,
00032000
00000000
00000000
00000000
00000000
00000000
00000000
00000000
00010000
00000000
00000000
00000000
00000000
00000000
00000000
00003000
00012000
00000000
00000000
00000000
00000000
00000000
00000000
00000000
00000000
00000000
00000000
00000000
00000000
00000000
00000000
00003000
00002000
00000000
00000000
00000000
00000000
00000000
00000000
00003000
00102000
00000000
00000000
00000000
00000000
00000000
00000000
00000000
00000000
00000000
00000000
00000000
00000000
00000000
00000000
00003000
00002000
00000000
00000000
00000000
00000000
00000000
00000000
00003000
,
00002010
00000000
00000000
00000000
00000000
00000000
00000000
00000000
00000000
00000000
00000000
00000000
00000000
00000000
00000000
00003000
00012000
00000000
00000000
00000000
00000000
00000000
00000000
00003000
01002000
00000000
00000000
00000000
00000000
00000000
00000000
00000000
00000000
00000000
00000000
00000000
00000000
00000000
00000000
00003000
00012000
00000000
00000000
00000000
00000000
00000000
00000000
00003000
00101000
00000000
00000000
00000000
00000000
00000000
00000000
00000000
00000000
00000000
00000000
00000000
00000000
00000000
00000000
00000000
,
00001000
00100000
01000000
00010000
10000000
00100000
00001000
01000000
,
00010000
00001000
00100000
00010000
00001000
00100000
00010000
00000010
,
00001000
00010000
00000010
00001000
00010000
00000100
00000010
00010000
,
00000100
00000001
00001000
00000010
00000100
00010000
00001000
00000000
,
00010000
00000010
00000100
00001000
00000001
00000010
00010000
00000100
,
00001000
00010000
00000010
00001000
00010000
00000010
00001000
00100000
,
00010000
00001000
00100000
00010000
00001000
01000000
00100000
00001000
,
01000000
10000000
00010000
00100000
01000000
00010000
00100000
00000000
,
00002000
00000000
00023000
00000000
02030000
00000000
03000000
10000000
,
00000000
00100000
00010000
00001000
00000100
00000000
00000010
00000000
,
00020000
00000000
00032000
00000000
00003200
00000000
00000300
00000001
,
00000000
00000000
00000000
00000010
00000000
00000000
00001000
00000000
00000000
00010000
00000000
00000000
01000000
00000000
00100000
00000000
00010000
00000000
10000000
00000000
00100000
00000000
01000000
00000000
,
00010000
00000000
00000000
00000000
00000000
00000000
10000000
01000000
10000000
01000000
00000000
00000000
10000000
00000000
00000000
00010000
00000000
00000000
00000000
00000000
00000000
00100000
00000000
00000000
,
00000000
00010000
01000000
00100000
00010000
00001000
00010000
00000100
,
00000020
00000000
00000000
00000030
00001000
00010000
00000000
00000100
,
00000000
00000000
00001000
00000000
00000010
00000000
00000100
00000000
00000001
00000000
00000000
00000010
00000000
00000000
00000001
00000000
,
00001001
00000000
00000001
00000010
00000100
00001000
00000100
00001000
00000010
00000000
00010010
00000000
00000000
00000000
00011000
00000000
,
00001000
00010000
00001000
00100000
00010000
00100000
01000000
00000000
11000000
00000000
00000000
00000000
10010000
00000000
00000000
00000000
,
01010000
00000000
00010000
01000000
00010000
01000000
00001000
00010000
00001000
00000000
00011000
00000000
00000000
00000000
00010100
00000000
,
00000000
00000000
00000100
00001000
00000001
00000100
00000010
00000000
00010000
00000000
00000000
01000000
00000000
00000000
10000000
00000000
,
10100000
00000000
00010000
01000000
00010000
01000000
00010000
01000000
00010000
00000000
10010000
00000000
00000000
00000000
01100000
00000000
,
00100000
10000000
00010000
10000000
01000000
00100000
00010000
00000000
01010000
00000000
00000000
00000000
10010000
00000000
00000000
00000000
,
22000000
33000000
00010000
00220000
00330000
00001000
00022000
00033000
,
00000010
00000000
00002020
00000000
00000000
00000000
00003030
00000000
00000001
00000000
00000010
00000100
00001000
00000000
00000000
00000000
,
00000001
00000100
00000001
00000100
00001000
00010000
01000000
10000000
,
00100000
10000000
00100000
10000000
00100000
00010000
00001000
00000100
,
00000010
00000010
00001000
00001000
00000001
00000001
00000100
00000100
,
00000001
00001000
00000001
00001000
00000001
00000010
00000100
00001000
00000010
00000000
00000000
00000000
00000000
00000000
00000000
00000000
,
00000000
00000000
00000000
00000000
00000000
00000000
00000000
00000000
00001000
00000000
00000000
00000000
00000000
00000000
00000000
00000000
00002001
00000000
00000000
00000000
00000000
00000000
00000000
00000000
00000000
00000000
00000000
00000000
00000000
00000000
00000000
00000000
00000100
00000000
00000000
00003000
00002000
00000000
00000000
00000000
00000010
00000000
00000000
00000000
00000000
00000000
00000000
00000000
00000000
00000000
00000000
00000000
00000000
00000000
00000000
00000000
00000100
00000000
00000000
00003000
00002000
00000000
00000000
00000000
,
00000010
00000000
00000000
00000000
00000000
00000000
00000000
00000000
00000000
00000000
00000000
00000000
00000000
00000000
00000000
00000000
00000100
00000000
00000000
00003000
00002000
00000000
00000000
00000000
00000010
00000000
00000000
00000000
00000000
00000000
00000000
00000000
00000000
00000000
00000000
00000000
00000000
00000000
00000000
00000000
00000100
00000000
00000000
00003000
00002000
00000000
00000000
00000000
00000010
00000000
00000000
00000000
00000000
00000000
00000000
00000000
00000000
00000000
00000000
00000000
00000000
00000000
00000000
00000000
,
00003020
00000000
00000000
00000000
00000000
00000000
00000000
00000000
00200030
00000000
00000000
00000000
00000000
00000000
00000000
00000000
00320000
00000000
00000000
00000000
00000000
00000000
00000000
00000000
00000000
00000000
00000000
00000000
00000000
00000000
00000000
00000000
01000000
00000000
00000000
00030000
00020000
00000000
00000000
00000000
00100000
00000000
00000000
00000000
00000000
00000000
00000000
00000000
00000000
00000000
00000000
00000000
00000000
00000000
00000000
00000000
01000000
00000000
00000000
00030000
00020000
00000000
00000000
00000000
,
00100000
00000000
00000000
00000000
00000000
00000000
00000000
00000000
00000000
00000000
00000000
00000000
00000000
00000000
00000000
00000000
01000000
00000000
00000000
00030000
00020000
00000000
00000000
00000000
00100000
00000000
00000000
00000000
00000000
00000000
00000000
00000000
00000000
00000000
00000000
00000000
00000000
00000000
00000000
00000000
01000000
00000000
00000000
00030000
00020000
00000000
00000000
00000000
00100000
00000000
00000000
00000000
00000000
00000000
00000000
00000000
00000000
00000000
00000000
00000000
00000000
00000000
00000000
00000000
,
00230000
00000000
00000000
00000000
00000000
00000000
00000000
00000000
00300020
00000000
00000000
00000000
00000000
00000000
00000000
00000000
00002030
00000000
00000000
00000000
00000000
00000000
00000000
00000000
00000000
00000000
00000000
00000000
00000000
00000000
00000000
00000000
00000100
00000000
00000000
00003000
00002000
00000000
00000000
00000000
00000010
00000000
00000000
00000000
00000000
00000000
00000000
00000000
00000000
00000000
00000000
00000000
00000000
00000000
00000000
00000000
00000100
00000000
00000000
00003000
00002000
00000000
00000000
00000000
,
00000010
00000000
00000000
00000000
00000000
00000000
00000000
00000000
00000000
00000000
00000000
00000000
00000000
00000000
00000000
00000000
00000100
00000000
00000000
00003000
00002000
00000000
00000000
00000000
00000010
00000000
00000000
00000000
00000000
00000000
00000000
00000000
00000000
00000000
00000000
00000000
00000000
00000000
00000000
00000000
00003100
00000000
00000000
00000000
00010000
00000000
00000000
00000000
00002000
00000000
00000000
00000000
00010000
00000000
00000000
00003000
00002000
00000000
00000000
00000000
00020000
00000000
00000000
00003000
,
00001000
00000000
00000000
00000000
00000000
00000000
00000000
00030000
00020000
00000000
00000000
00000000
00000000
00000000
00000000
00030000
00021000
00000000
00000000
00000000
00000000
00000000
00000000
00000000
00000000
00000000
00000000
00000000
00000000
00000000
00000000
00030000
00020000
00000000
00000000
00000000
00000000
00000000
00000000
00030000
00020010
00000000
00000000
00000000
00000000
00000000
00000000
00000000
00000000
00000000
00000000
00000000
00000000
00000000
00000000
00030000
00020000
00000000
00000000
00000000
00000000
00000000
00000000
00030000
,
00120000
00000000
00000000
00000000
00000000
00000000
00000000
00000000
00000000
00000000
00000000
00000000
00000000
00000000
00000000
00030000
00021000
00000000
00000000
00000000
00000000
00000000
00000000
00030000
00020010
00000000
00000000
00000000
00000000
00000000
00000000
00000000
00000000
00000000
00000000
00000000
00000000
00000000
00000000
00030000
00021000
00000000
00000000
00000000
00030000
00000000
00000000
00000000
00101000
00000000
00000000
00000000
00000000
00000000
00000000
00000000
00000000
00000000
00000000
00000000
00000000
00000000
00000000
00000000
,
00001000
01000000
00100000
10000000
00100000
01000000
00001000
00000100
,
00000010
00010000
00001000
00000010
00000001
00001000
00000100
00000010
,
00000001
00000010
00000100
00010000
01000000
00100000
00001000
00010000
,
00100000
01000000
00010000
10000000
00100000
00010000
00100000
10000000
,
01000000
00100000
01000000
00010000
01000000
00001000
00010000
00100000
,
00010000
01000000
00010000
00001000
00100000
00010000
00001000
01000000
,
00001000
00010000
01000000
10000000
01000000
00010000
00001000
00000100
,
00000001
00001000
00000001
00001000
00000001
00000010
00000100
00001000
00000001
00000100
00000010
00001000
00000001
00000000
00000000
00000000
,
00002000
00000000
00000000
00000000
00000000
00000000
00003000
00000000
00000000
00000001
00000100
00000001
00000100
00000000
00000000
00000010
00000000
00000000
00000000
00000000
00000000
00010000
00000000
00000000
,
00000000
00000000
00001000
00010000
00001000
00010000
00001000
00010000
00001000
00000000
01000000
00010000
00100000
00000000
00000000
00000000
,
02000000
00000000
00000000
00000000
00000000
00000000
03000000
00000000
00000000
10000000
01000000
10000000
01000000
00000000
00000000
00100000
00000000
00000000
00000000
00000000
00000000
00010000
00000000
00000000
,
00000000
00000000
00000000
00000000
00000000
00000000
10000000
00000000
00000000
00010000
00000000
00000000
10000000
00000000
00000000
00000000
01000000
00000000
00000000
00000000
00010000
00000000
00000000
00000000
00001000
00000000
00000000
00000000
00010000
00000000
00000000
00000000
00001000
00000000
00000000
00000000
00000100
00000000
00000000
00000000
00000001
00000000
00000000
00000000
00000010
00000000
00000000
00000000
,
00000200
00000000
00000000
00000000
00000000
00000000
00000300
00000000
00000000
00001000
00000100
00001000
00000100
00000000
00000000
00000010
00000000
00000000
00000000
00000000
00000000
00000100
00000000
00000000
,
00000000
00000000
00010000
00001000
00100000
00010000
00100000
01000000
10000000
00000000
00000000
00000000
10010000
00000000
00000000
00000000
,
11000000
00000000
01000000
01010000
00000000
00010000
00011000
00000000
,
00001000
00001010
00000000
00000010
00000011
00000000
00001001
00000000
,
00000001
00000000
00000010
00000000
00001000
00000000
00010000
00000000
01000000
00000000
10000000
00000000
00010000
01000000
00100000
01000000
,
00010000
00100000
00000000
00001000
00011000
00000000
00000000
00000000
,
00000000
00000000
00000000
00000000
;
