#VERSION:0.83;
#TITLE:アリスサイド・キャスリング;
#SUBTITLE:;
#ARTIST:メリー・バッド・メルヘン;
#TITLETRANSLIT:Alice side castling;
#SUBTITLETRANSLIT:;
#ARTISTTRANSLIT:Merry Bad Marchen;
#GENRE:;
#ORIGIN:;
#CREDIT:;
#BANNER:Alice side castling.png;
#BACKGROUND:;
#PREVIEWVID:;
#JACKET:Alice side castling-jacket.png;
#CDIMAGE:;
#DISCIMAGE:;
#LYRICSPATH:;
#CDTITLE:;
#MUSIC:Alice side castling.ogg;
#OFFSET:0.000000;
#SAMPLESTART:46.956001;
#SAMPLELENGTH:15.000000;
#SELECTABLE:YES;
#BPMS:0.000=115.000;
#STOPS:;
#DELAYS:;
#WARPS:;
#TIMESIGNATURES:0.000=4=4;
#TICKCOUNTS:0.000=4;
#COMBOS:0.000=1;
#SPEEDS:0.000=1.000=0.000=0;
#SCROLLS:0.000=1.000;
#FAKES:;
#LABELS:0.000=Song Start;
#BGCHANGES:;
#KEYSOUNDS:;
#ATTACKS:
;

//---------------dance-single - ----------------
#NOTEDATA:;
#CHARTNAME:;
#STEPSTYPE:dance-single;
#DESCRIPTION:;
#CHARTSTYLE:;
#DIFFICULTY:Beginner;
#METER:2;
#RADARVALUES:0.086366,0.140048,0.048755,0.039004,0.000000,62.000000,57.000000,5.000000,4.000000,0.000000,0.000000,0.000000,0.000000,0.000000,0.086366,0.140048,0.048755,0.039004,0.000000,62.000000,57.000000,5.000000,4.000000,0.000000,0.000000,0.000000,0.000000,0.000000;
#CREDIT:;
#NOTES:
0000
0000
0000
0000
,
0000
0000
0000
0000
,
0000
0000
0000
0000
,
0000
0000
0000
0000
0000
0010
0000
0000
,
0000
0000
0000
0000
,
0000
0100
0000
0000
0000
0000
0000
0000
,
0000
0000
0000
0000
0000
0001
0000
0000
,
0000
0000
0000
0000
,
0000
1000
0000
0000
0000
0000
0000
0000
,
0000
0000
0000
0000
0000
0100
0000
0000
,
0000
0000
0000
0100
0000
0000
0000
0000
,
0000
0010
0000
0000
0000
0000
0000
0010
,
0000
0000
0000
0000
0000
0110
0000
0000
,
0000
0000
0000
1001
0000
0000
0000
0000
,
0000
0010
0000
0000
0000
0000
0100
0000
,
0000
0000
0000
0001
0000
0000
0000
0000
,
1000
0000
0000
0000
0000
0100
0000
0000
,
0000
0000
0000
1000
0000
0000
0000
0000
,
0000
0001
0000
0000
0000
0000
0000
0100
,
0000
0000
0000
0000
0000
0010
0000
0000
,
0000
0000
0000
0100
0000
0000
0000
0000
,
0000
0002
0000
0000
0003
0000
0000
2000
,
0000
3000
0001
0000
,
0000
0100
0000
0000
,
0001
0000
0000
0010
,
0000
0000
1000
0000
,
0000
0100
0000
0000
,
0010
0000
0000
0001
,
0000
0000
0100
0000
,
0000
0010
0000
0000
,
1000
0000
0000
1001
,
0000
0000
1001
0000
,
0000
0110
0000
0000
,
1000
0000
0000
1000
,
0000
0000
0001
0000
,
0000
0010
0000
0000
,
0010
0000
0000
0100
,
0000
0000
0100
0000
,
0000
0000
1000
0000
0000
0000
0000
0010
,
0000
0000
1000
0000
,
0000
0001
0000
0000
0000
0000
0010
0000
,
0000
0000
0000
0010
0000
0000
0000
0000
,
0100
0000
0000
0000
0000
0100
0000
0000
,
0000
0000
0001
0000
0000
0000
0000
0001
,
0000
0000
1000
0000
,
0000
1000
0000
0000
0000
0000
0200
0000
,
0000
0000
0000
0000
0000
0300
0000
0000
,
0020
0000
0000
0000
0000
0000
0000
0030
;

//---------------dance-single - ----------------
#NOTEDATA:;
#CHARTNAME:;
#STEPSTYPE:dance-single;
#DESCRIPTION:;
#CHARTSTYLE:;
#DIFFICULTY:Easy;
#METER:5;
#RADARVALUES:0.165766,0.258096,0.107261,0.175517,0.000000,119.000000,108.000000,11.000000,18.000000,0.000000,0.000000,0.000000,0.000000,0.000000,0.165766,0.258096,0.107261,0.175517,0.000000,119.000000,108.000000,11.000000,18.000000,0.000000,0.000000,0.000000,0.000000,0.000000;
#CREDIT:;
#NOTES:
0000
0000
0000
0000
,
0000
0000
0000
0000
,
0000
0000
0000
0000
,
0000
0000
0000
0000
0000
1000
0000
0000
,
0000
0000
0000
0001
0000
0000
0000
0000
,
0000
0100
0000
0000
0000
0000
0000
0010
,
0000
0000
0000
0000
0000
0100
0000
0000
,
0000
0000
0000
0001
0000
0000
0000
0000
,
0000
0010
0000
0000
0000
0000
0000
0110
,
0000
0000
0000
0000
0000
1000
0000
0000
,
0000
1000
0000
0100
0000
0000
0000
0100
,
0000
0010
0000
0000
0000
0010
0000
0001
,
0000
0000
0000
1000
0000
1001
0000
0000
,
0110
0000
0000
2002
0000
0000
0000
3003
,
0000
0100
0000
0000
0010
0000
1000
0000
,
0000
0100
0000
0010
0000
0000
0100
0000
,
1000
0000
0000
0001
0000
0010
0000
0000
,
0100
0000
0000
0010
0000
0000
0001
0000
,
0000
1000
0000
0000
0001
0000
0000
0100
,
0000
0000
0010
0000
0000
1000
0000
0000
,
0100
0000
0000
1000
0000
0000
0001
0000
,
0000
2002
0000
0000
3003
0000
0000
0020
,
0000
0000
0030
0000
0100
0000
0000
0001
,
0000
0000
0100
0000
0000
0020
0000
0000
,
1030
0000
0000
2000
0000
0000
3001
0000
,
0000
0010
0000
0000
0110
0000
0000
0000
,
0000
1001
0000
0000
,
0100
0000
0000
0001
0000
0000
0010
0000
,
0000
0100
0000
0000
0001
0000
0000
1000
,
0000
0000
0010
0000
0000
1000
0000
0000
,
0200
0000
0000
0300
0000
0000
0110
0000
,
0000
0110
0000
0000
2002
0000
0000
3003
,
0000
0000
0220
0000
0000
0330
0000
0000
,
0001
0000
0000
0010
0000
0000
0001
0000
,
0000
0100
0000
0000
0020
0000
0000
0000
,
0030
0000
1000
0000
0000
0100
0000
0000
,
2000
0000
3000
0001
,
0000
0010
0000
0000
0001
0000
0000
0100
,
0000
0000
0010
0000
0000
1000
0000
0010
,
0000
0000
0100
0000
0001
0000
0000
0010
,
0000
0001
0000
0000
0100
0000
0001
0000
,
0000
1000
1000
1000
0000
0000
0001
0001
,
0001
0000
0000
0100
0100
0100
0000
0000
,
0010
0010
0010
0000
0000
1000
0000
0001
,
0000
0000
0001
0000
0100
0000
0000
0100
,
0000
0010
0000
0000
0010
0000
2000
0000
,
0000
0000
3000
0200
0000
0000
0000
0300
,
0020
0000
0000
0000
0030
0002
0000
0000
,
0000
0003
0000
0000
0000
0000
0000
0000
;

//---------------dance-single - ----------------
#NOTEDATA:;
#CHARTNAME:;
#STEPSTYPE:dance-single;
#DESCRIPTION:;
#CHARTSTYLE:;
#DIFFICULTY:Medium;
#METER:8;
#RADARVALUES:0.279992,0.327632,0.068257,0.234023,0.043879,201.000000,194.000000,7.000000,24.000000,0.000000,0.000000,0.000000,0.000000,0.000000,0.279992,0.327632,0.068257,0.234023,0.043879,201.000000,194.000000,7.000000,24.000000,0.000000,0.000000,0.000000,0.000000,0.000000;
#CREDIT:;
#NOTES:
0000
0000
0000
0000
,
0000
0000
0000
0000
,
0000
0000
0000
0000
,
0000
0000
0000
0000
0000
0100
0000
0000
,
0000
0001
0000
1000
0000
0000
0000
0001
,
0000
0010
0000
0000
0000
0100
0000
0010
,
0000
0000
0000
0000
0000
0001
0000
0000
,
0000
1000
0000
0100
0000
0000
0000
1000
,
0000
0010
0000
0000
0000
0100
0000
0010
,
0000
0010
0000
0000
0010
0000
0000
0000
0000
0000
1000
0000
0000
0000
0001
0000
,
0000
0010
0000
0001
0000
1000
0000
0100
,
0000
0010
0000
0001
0000
0100
0000
0010
,
0000
0000
1000
0000
0000
0000
0010
0000
0000
0000
0100
0000
0000
0100
0000
0000
,
0100
0000
0000
0001
0000
0000
0002
0000
0000
0000
0000
0000
2003
0000
0000
0000
,
0000
3010
0100
0010
0100
0000
0001
1000
,
0001
1000
0000
0100
1000
0100
1000
0000
,
0001
0010
0001
0010
0000
1001
0000
0010
,
1000
0000
0100
0010
0000
0001
0100
0000
,
0010
1000
0000
0001
1000
0000
0001
0010
,
0000
0100
1000
0100
1000
0010
0010
0000
,
0100
0100
0000
0001
0001
0000
1000
0000
,
0000
0002
0000
0000
0203
0000
0000
0320
,
0000
0000
0030
0000
0110
0000
0000
1001
,
0000
0000
0010
0100
0000
1002
0000
0000
,
0103
0010
0100
0020
0000
0000
1030
0001
,
1000
0002
0000
0000
0013
0000
0000
0110
,
0000
0000
1000
0000
0000
1001
0000
0000
,
0020
0000
0000
0230
0000
0000
0301
0000
,
1000
0100
0000
0000
0110
0000
0001
0100
,
0000
0000
0010
1000
0010
2000
0000
0000
,
3002
0000
0000
0000
0000
0000
0203
0000
0000
0000
0000
0000
0310
0000
0000
0010
,
0000
0000
0010
0000
0000
1000
0000
0000
2000
0000
0000
0000
0000
0000
3200
0000
,
0000
0000
0320
0000
0000
0032
0000
0000
,
0103
0000
0010
2000
0000
3100
0010
0000
,
0001
0100
0000
0010
2000
0000
0000
0000
,
0000
3001
0001
0001
0100
1000
1000
1000
,
0200
0000
0000
0000
0000
0301
0010
0000
,
0001
0100
0000
0010
1000
0000
0100
0010
,
0000
0001
1000
0100
0000
0010
0001
0100
,
0001
0000
1000
0010
0100
0010
0000
0100
,
0001
0000
1000
0000
0100
0000
0000
0000
0010
0000
0001
0000
1000
0000
0000
1000
,
0000
0000
1000
0000
0000
0000
0010
0000
0000
0010
0000
0000
0010
0000
0000
0000
,
0100
0000
0000
0100
0000
0000
0100
0000
0000
0000
0001
0000
0000
0001
0000
0000
,
0001
0000
1000
0010
1000
0010
0000
0100
,
0010
0100
0010
0000
0100
0001
0100
0001
,
0000
0010
0001
0010
0001
0000
0200
0000
,
0000
0310
0000
0002
0000
0000
1003
0000
,
0020
0000
0000
0130
0000
2000
0000
0000
,
3001
0000
0000
0000
;

//---------------dance-single - ----------------
#NOTEDATA:;
#CHARTNAME:;
#STEPSTYPE:dance-single;
#DESCRIPTION:;
#CHARTSTYLE:;
#DIFFICULTY:Hard;
#METER:10;
#RADARVALUES:0.388645,0.422338,0.175517,0.224272,0.087759,279.000000,261.000000,18.000000,23.000000,0.000000,0.000000,0.000000,0.000000,0.000000,0.388645,0.422338,0.175517,0.224272,0.087759,279.000000,261.000000,18.000000,23.000000,0.000000,0.000000,0.000000,0.000000,0.000000;
#CREDIT:;
#NOTES:
0000
0000
0000
0000
,
0000
0000
0000
0000
,
0000
0000
0000
0000
,
0000
0000
0000
0000
0000
0001
0000
0000
,
0000
0100
0000
0010
0000
0000
0000
1000
,
0000
0100
0000
0000
0000
0011
0000
1001
,
0000
0100
0000
0010
0000
0100
0000
0000
,
0000
0001
0000
1000
0000
0000
0000
0010
,
0000
0100
0000
0000
0000
1010
0000
0011
,
0000
0100
0000
0000
0110
0000
0000
0000
0000
0000
1000
0000
0000
0000
0010
0000
,
0000
1000
0000
0110
0000
0001
0000
0100
,
0000
1010
0000
0010
0000
0100
0000
0101
,
0000
0000
0010
0000
0000
0000
0001
0000
0000
0000
1000
0000
0000
1010
0000
0000
,
0001
0000
0000
0010
0000
0000
0120
0000
0000
0000
0000
0000
0032
0000
0000
0000
,
0000
1003
0010
0010
0100
0010
0100
0001
,
0001
0010
0001
1000
0100
0100
0010
0100
,
0010
0001
0001
1000
0001
0100
0000
0010
,
1000
0010
0100
0001
0000
1000
0100
1000
,
0001
0100
0000
0001
0010
0001
1000
0100
,
0000
0010
0100
0010
0001
1000
0100
0000
,
0010
0100
0000
1000
0001
0000
0100
0010
,
1000
0002
0100
0103
0020
1000
1030
0100
,
0010
0100
1000
0010
1010
0000
0001
0101
,
0000
0000
0100
0000
0010
0000
1000
0000
0000
0001
0200
0000
0000
0000
0301
0000
,
0010
0100
0100
0010
0001
0001
2000
0100
,
3100
0020
0001
0031
1001
0000
1100
0200
,
0000
0310
0002
0000
0000
2003
0000
0010
,
3020
0000
0000
0230
0000
0000
0301
0000
,
1000
0000
0010
0000
0000
0000
1000
0000
0100
0000
0010
0000
0000
0001
0100
0000
,
0000
0010
1000
0100
0001
0100
1000
0010
,
0200
0000
0001
0000
0301
0000
2000
0000
0100
0000
3100
0000
0010
0000
0000
0011
,
0000
0000
1000
0000
0000
1001
0000
0000
0010
0000
0100
0000
0100
0000
0001
0000
,
1000
0100
2000
0001
3001
0020
0100
0130
,
1000
0010
1000
0002
0000
1003
0010
0001
,
0010
1000
0100
0001
0200
0000
0000
0000
,
0000
0310
1000
0010
0001
0100
1000
0100
,
0002
0000
0000
0000
0000
0103
1000
0100
,
0001
0010
1000
0010
0001
0000
1000
0100
,
0000
0001
0010
0001
0001
1000
0010
1000
,
0100
0100
0010
0100
1000
0010
0010
0100
,
0001
0000
1000
0000
0100
0000
0100
0000
0010
0000
0001
0000
0010
0100
0000
1000
,
0000
0000
0001
0000
0010
0000
0100
1000
0000
0001
0000
0000
0100
0000
0010
0000
,
1000
0000
0000
0100
0000
0000
0001
0000
0100
0000
0010
0000
0000
1000
0000
0000
,
0010
0000
1000
0000
0001
0000
0000
0010
0000
0000
0100
0000
1000
0000
0010
0100
,
0000
0001
0000
0000
0010
0000
0001
0000
1000
0000
0000
0100
0000
0000
0010
0000
,
0001
0000
0100
0000
0000
0010
0000
0000
1010
0000
0110
0000
0002
0000
0000
0000
,
0000
1003
0100
0020
0000
0000
0031
1000
,
0200
0000
0000
0310
0001
2000
0000
0000
,
3010
0100
0000
0000
0000
0000
0000
0000
;

//---------------dance-double - ----------------
#NOTEDATA:;
#CHARTNAME:;
#STEPSTYPE:dance-double;
#DESCRIPTION:;
#CHARTSTYLE:;
#DIFFICULTY:Easy;
#METER:5;
#RADARVALUES:0.165766,0.258096,0.107261,0.195019,0.000000,119.000000,108.000000,11.000000,20.000000,0.000000,0.000000,0.000000,0.000000,0.000000,0.165766,0.258096,0.107261,0.195019,0.000000,119.000000,108.000000,11.000000,20.000000,0.000000,0.000000,0.000000,0.000000,0.000000;
#CREDIT:;
#NOTES:
00000000
00000000
00000000
00000000
,
00000000
00000000
00000000
00000000
,
00000000
00000000
00000000
00000000
,
00000000
00000000
00000000
00000000
00000000
00010000
00000000
00000000
,
00000000
00000000
00000000
00001000
00000000
00000000
00000000
00000000
,
00000000
00100000
00000000
00000000
00000000
00000000
00000000
00010000
,
00000000
00000000
00000000
00000000
00000000
10000000
00000000
00000000
,
00000000
00000000
00000000
01000000
00000000
00000000
00000000
00000000
,
00000000
00010000
00000000
00000000
00000000
00000000
00000000
00011000
,
00000000
00000000
00000000
00000000
00000000
00000010
00000000
00000000
,
00000000
00000100
00000000
00000001
00000000
00000000
00000000
00001000
,
00000000
00000010
00000000
00000000
00000000
00010000
00000000
00001000
,
00000000
00000000
00000000
00100000
00000000
01100000
00000000
00000000
,
10010000
00000000
00000000
00022000
00000000
00000000
00000000
00033000
,
00000000
00000100
00000000
00000000
00001000
00000000
00000001
00000000
,
00000000
00000010
00000000
00000100
00000000
00000000
00010000
00000000
,
00001000
00000000
00000000
01000000
00000000
00010000
00000000
00000000
,
00100000
00000000
00000000
01000000
00000000
00000000
10000000
00000000
,
00000000
00100000
00000000
00000000
00010000
00000000
00000000
00001000
,
00000000
00000000
00000010
00000000
00000000
00000001
00000000
00000000
,
00001000
00000000
00000000
00000010
00000000
00000000
00010000
00000000
,
00000000
00022000
00000000
00000000
00033000
00000000
00000000
02000000
,
00000000
00000000
03000000
00000000
00010000
00000000
00000000
10000000
,
00000000
00000000
00100000
00000000
00000000
00020000
00000000
00000000
,
00031000
00000000
00000000
00000020
00000000
00000000
00000031
00000000
,
00000000
00000100
00000000
00000000
00000110
00000000
00000000
00000000
,
00000000
00011000
00000000
00000000
,
20000000
00000000
00000000
30020000
00000000
00000000
00130000
00000000
,
00000000
00001000
00000000
00000000
00010000
00000000
00000000
00001000
,
00000000
00000000
00000100
00000000
00000000
00000001
00000000
00000000
,
00002000
00000000
00000000
00003000
00000000
00000000
00011000
00000000
,
00000000
10010000
00000000
00000000
02200000
00000000
00000000
03300000
,
00000000
00000000
00022000
00000000
00000000
00033000
00000000
00000000
,
00000010
00000000
00000000
00000100
00000000
00000000
00000001
00000000
,
00000000
00001000
00000000
00000000
00000200
00000000
00000000
00000000
,
00000300
00000000
00010000
00000000
00000000
00001000
00000000
00000000
,
02000000
00000000
03000000
00100000
,
00000000
10000000
00000000
00000000
00010000
00000000
00000000
01000000
,
00000000
00000000
00100000
00000000
00000000
00010000
00000000
00001000
,
00000000
00000010
00000001
00000000
,
00000100
00001000
00000000
00000000
00010000
00000000
01000000
00000000
,
00000000
10000000
10000000
10000000
00000000
00000000
00100000
00100000
,
00100000
00000000
00000000
00010000
00010000
00010000
00000000
00000000
,
00001000
00001000
00001000
00000000
00000000
00010000
00000000
00001000
,
00000000
00000000
00001000
00000000
00010000
00000000
00000000
00000010
,
00000000
00000100
00000000
00000000
00000001
00000000
00000020
00000000
,
00000000
00000000
00000030
00002000
00000000
00000000
00000000
00003000
,
00020000
00000000
00000000
00000000
00030000
00200000
00000000
00000000
,
00000000
00300000
00000000
00000000
00000000
00000000
00000000
00000000
;

//---------------dance-double - ----------------
#NOTEDATA:;
#CHARTNAME:;
#STEPSTYPE:dance-double;
#DESCRIPTION:;
#CHARTSTYLE:;
#DIFFICULTY:Medium;
#METER:8;
#RADARVALUES:0.279992,0.327632,0.068257,0.234023,0.043879,201.000000,194.000000,7.000000,24.000000,0.000000,0.000000,0.000000,0.000000,0.000000,0.279992,0.327632,0.068257,0.234023,0.043879,201.000000,194.000000,7.000000,24.000000,0.000000,0.000000,0.000000,0.000000,0.000000;
#CREDIT:;
#NOTES:
00000000
00000000
00000000
00000000
,
00000000
00000000
00000000
00000000
,
00000000
00000000
00000000
00000000
,
00000000
00000000
00000000
00000000
00000000
00000001
00000000
00000000
,
00000000
00000010
00000000
00000100
00000000
00000000
00000000
00010000
,
00000000
00001000
00000000
00000000
00000000
01000000
00000000
00010000
,
00000000
00000000
00000000
00000000
00000000
10000000
00000000
00000000
,
00000000
01000000
00000000
00100000
00000000
00000000
00000000
00001000
,
00000000
00010000
00000000
00000000
00000000
00000010
00000000
00001000
,
00000000
00001000
00000000
00000000
00001000
00000000
00000000
00000000
00000000
00000000
00000100
00000000
00000000
00000000
00000001
00000000
,
00000000
00001000
00000000
00000010
00000000
00010000
00000000
00001000
,
00000000
01000000
00000000
00010000
00000000
00100000
00000000
01000000
,
00000000
00000000
10000000
00000000
00000000
00000000
00010000
00000000
00000000
00000000
01000000
00000000
00000000
01000000
00000000
00000000
,
01000000
00000000
00000000
00100000
00000000
00000000
20000000
00000000
00000000
00000000
00000000
00000000
32000000
00000000
00000000
00000000
,
00000000
03010000
00001000
00010000
00001000
00000000
00000100
00000010
,
00000100
00000010
00000000
00001000
00000100
00001000
00000100
00000000
,
00010000
00001000
00010000
00001000
00000000
00011000
00000000
01000000
,
10000000
00000000
00100000
00010000
00000000
00001000
00000010
00000000
,
00000001
00000100
00000000
00001000
00010000
00000000
01000000
10000000
,
00000000
00100000
01000000
00100000
01000000
00010000
00010000
00000000
,
00100000
00100000
00000000
00001000
00001000
00000000
00010000
00000000
,
00000000
00000020
00000000
00000000
00000230
00000000
00000000
00000302
,
00000000
00000000
00000003
00000000
00001001
00000000
00000000
00011000
,
00000000
00000000
10000000
01000000
00000000
00012000
00000000
00000000
,
00013000
00001000
00010000
00000200
00000000
00000000
00001300
00000001
,
00001000
00000020
00000000
00000000
00000130
00000000
00000000
00000110
,
00000000
00000000
00001000
00000000
00000000
00011000
00000000
00000000
,
00200000
00000000
00000000
00320000
00000000
00000000
10030000
00000000
,
00100000
01000000
00000000
00000000
00011000
00000000
00000100
00000010
,
00000000
00000000
00000001
00000100
00000001
00002000
00000000
00000000
,
00003020
00000000
00000000
00000000
00000000
00000000
00020030
00000000
00000000
00000000
00000000
00000000
00031000
00000000
00000000
00001000
,
00000000
00000000
00001000
00000000
00000000
00100000
00000000
00000000
00200000
00000000
00000000
00000000
00000000
00000000
00320000
00000000
,
00000000
00000000
20030000
00000000
00000000
32000000
00000000
00000000
,
03010000
00000000
00001000
00000200
00000000
00000301
00000010
00000000
,
00001000
00010000
00000000
00100000
20000000
00000000
00000000
00000000
,
00000000
31000000
01000000
00010000
00001000
00000100
00000100
00000001
,
00000200
00000000
00000000
00000000
00000000
00000301
00001000
00000000
,
00000100
00010000
00000000
00001000
00100000
00000000
00010000
10000000
,
00000000
00100000
01000000
00010000
00000000
00100000
00001000
00010000
,
00001000
00000000
00010000
00000010
00001000
00000010
00000000
00000100
,
00000001
00000000
00000010
00000000
00000001
00000000
00000000
00000000
00001000
00000000
00000100
00000000
00010000
00000000
00000000
00010000
,
00000000
00000000
00010000
00000000
00000000
00000000
00001000
00000000
00000000
00001000
00000000
00000000
00001000
00000000
00000000
00000000
,
01000000
00000000
00000000
01000000
00000000
00000000
01000000
00000000
00000000
00000000
00010000
00000000
00000000
00010000
00000000
00000000
,
00010000
00000000
10000000
00100000
10000000
00100000
00000000
01000000
,
00010000
01000000
00010000
00000000
00100000
00001000
00100000
00001000
,
00000000
00010000
00000010
00010000
00000010
00000000
00002000
00000000
,
00000000
00003001
00000000
00000200
00000000
00000000
00001300
00000000
,
00020000
00000000
00000000
00130000
00000000
20000000
00000000
00000000
,
31000000
00000000
00000000
00000000
;

//---------------dance-double - ----------------
#NOTEDATA:;
#CHARTNAME:;
#STEPSTYPE:dance-double;
#DESCRIPTION:;
#CHARTSTYLE:;
#DIFFICULTY:Hard;
#METER:10;
#RADARVALUES:0.364965,0.398875,0.009751,0.224272,0.087759,262.000000,261.000000,1.000000,23.000000,0.000000,0.000000,0.000000,0.000000,0.000000,0.364965,0.398875,0.009751,0.224272,0.087759,262.000000,261.000000,1.000000,23.000000,0.000000,0.000000,0.000000,0.000000,0.000000;
#CREDIT:;
#NOTES:
00000000
00000000
00000000
00000000
,
00000000
00000000
00000000
00000000
,
00000000
00000000
00000000
00000000
,
00000000
00000000
00000000
00000000
00000000
10000000
00000000
00000000
,
00000000
00100000
00000000
01000000
00000000
00000000
00000000
00010000
,
00000000
00100000
00000000
00000000
00000000
00001000
00000000
00010000
,
00000000
00000100
00000000
00001000
00000000
00000001
00000000
00000000
,
00000000
00000100
00000000
00000010
00000000
00000000
00000000
00001000
,
00000000
00000100
00000000
00000000
00000000
00010000
00000000
00001000
,
00000000
00010000
00000000
00000000
01000000
00000000
00000000
00000000
00000000
00000000
00100000
00000000
00000000
00000000
00010000
00000000
,
00000000
10000000
00000000
01000000
00000000
00010000
00000000
00001000
,
00000000
00000100
00000000
00000001
00000000
00000010
00000000
00000100
,
00000000
00000000
00000010
00000000
00000000
00000000
00000001
00000000
00000000
00000000
00000001
00000000
00000000
00000010
00000000
00000000
,
00001000
00000000
00000000
00010000
00000000
00000000
00200000
00000000
00000000
00000000
00000000
00000000
20300000
00000000
00000000
00000000
,
00000000
31000000
00100000
00100000
00010000
01000000
00001000
00010000
,
00010000
00000010
00001000
00000001
00000010
00000010
00000100
00001000
,
00000100
00010000
00010000
00001000
00100000
00010000
00000000
01000000
,
00100000
10000000
01000000
00010000
00000000
00001000
00000100
00000001
,
00000100
00000010
00000000
00001000
00000010
00001000
00000100
00010000
,
00000000
00001000
01000000
00010000
00100000
01000000
10000000
00000000
,
00100000
01000000
00000000
00010000
00100000
00000000
00001000
00010000
,
00000010
00002000
00000100
00003100
00000002
00000010
00000013
00000100
,
00000010
00000001
00000100
00001000
00010000
00000000
00100000
10000000
,
00000000
00000000
01000000
00000000
00100000
00000000
00010000
00000000
00000000
00100000
00002000
00000000
00000000
00000000
00013000
00000000
,
00000100
00001000
00001000
00000001
00000010
00000010
00000002
00000100
,
00000103
00002000
00000100
00003100
00010000
00000000
00011000
00002000
,
00000000
01003000
00020000
00000000
00000000
00230000
00000000
01000000
,
02300000
00000000
00000000
23000000
00000000
00000000
30010000
00000000
,
01000000
00000000
00100000
00000000
00000000
00000000
10000000
00000000
01000000
00000000
00010000
00000000
00000000
00001000
00010000
00000000
,
00000000
00001000
00000100
00000001
00000010
00000001
00000100
00001000
,
00020000
00000000
00001000
00000000
00031000
00000000
00002000
00000000
00100000
00000000
00103000
00000000
00010000
00000000
00000000
01000000
,
00000000
00000000
00100000
00000000
00000000
10000000
00000000
00000000
00010000
00000000
00100000
00000000
00100000
00000000
01000000
00000000
,
10000000
00100000
02000000
00010000
03010000
00002000
00010000
00013000
,
00000010
00001000
00000010
00000200
00000000
00000301
00000010
00001000
,
00010000
00100000
10000000
01000000
00020000
00000000
00000000
00000000
,
00000000
00031000
00000100
00000001
00000100
00001000
00010000
00100000
,
20000000
00000000
00000000
00000000
00000000
31000000
00100000
00010000
,
00100000
00001000
00010000
00000010
00001000
00000000
00000001
00000010
,
00000000
00000100
00000010
00000001
00000001
00001000
00000100
00010000
,
00001000
00001000
00100000
00010000
01000000
00100000
00100000
10000000
,
00010000
00000000
00100000
00000000
01000000
00000000
01000000
00000000
10000000
00000000
00010000
00000000
00100000
00001000
00000000
00010000
,
00000000
00000000
00000010
00000000
00001000
00000000
00000100
00000010
00000000
00000001
00000000
00000000
00001000
00000000
00000100
00000000
,
00000010
00000000
00000000
00000001
00000000
00000000
00000100
00000000
00001000
00000000
00010000
00000000
00000000
01000000
00000000
00000000
,
10000000
00000000
00010000
00000000
10000000
00000000
00000000
00100000
00000000
00000000
00010000
00000000
00001000
00000000
00000010
00000100
,
00000000
00001000
00000000
00000000
00000001
00000000
00000100
00000000
00001000
00000000
00000000
00010000
00000000
00000000
00001000
00000000
,
00100000
00000000
00010000
00000000
00000000
01000000
00000000
00000000
00100000
00000000
10000000
00000000
02000000
00000000
00000000
00000000
,
00000000
03100000
00010000
02000000
00000000
00000000
03001000
00010000
,
00000020
00000000
00000000
00001030
00000100
00000020
00000000
00000000
,
00000031
00001000
00000000
00000000
00000000
00000000
00000000
00000000
;

//---------------dance-single - ----------------
#NOTEDATA:;
#CHARTNAME:;
#STEPSTYPE:dance-single;
#DESCRIPTION:;
#CHARTSTYLE:;
#DIFFICULTY:Challenge;
#METER:14;
#RADARVALUES:0.767540,0.778309,0.477797,0.282778,0.862960,551.000000,502.000000,49.000000,29.000000,0.000000,0.000000,0.000000,0.000000,0.000000,0.767540,0.778309,0.477797,0.282778,0.862960,551.000000,502.000000,49.000000,29.000000,0.000000,0.000000,0.000000,0.000000,0.000000;
#CREDIT:;
#NOTES:
// measure 0
0000
0000
0000
0000
,  // measure 1
0000
0000
0000
0000
,  // measure 2
0000
0000
0000
0000
,  // measure 3
0000
0000
0000
0000
0000
0000
0000
0000
0000
0000
1000
0100
1000
0100
1000
0100
,  // measure 4
1000
0100
1000
0100
1000
0100
1000
0100
0010
0001
0100
0010
0100
0010
0100
0010
,  // measure 5
0100
0010
0100
0010
0100
0010
1000
0100
0010
0001
1000
0010
1000
0010
1000
0010
,  // measure 6
1000
0010
1000
0010
1000
0010
1000
0100
0010
0001
0100
0010
0100
0001
0100
0010
,  // measure 7
0100
0001
0100
0010
0100
0001
0100
0010
0100
0001
1000
0010
0100
0010
1000
0010
,  // measure 8
0100
0010
1000
0000
0001
0010
0100
0010
0001
0010
0100
0010
0001
0010
0100
0100
,  // measure 9
0010
0001
1000
0001
0100
0001
1000
0001
0100
0001
2000
0000
0000
0000
3010
0100
,  // measure 10
0001
0100
0010
0100
0001
0100
0010
1000
0100
0010
0100
1000
0010
0100
0002
0000
,  // measure 11
0000
0000
0103
0010
0001
0010
0100
0001
0010
0001
0100
0010
0001
0010
0100
0001
,  // measure 12
0010
0001
0100
0010
1000
0100
1000
0010
1000
0000
1001
0000
0000
0011
0000
0000
,  // measure 13
0110
0000
0000
1100
0000
0000
1002
0000
0000
0000
0000
0000
0203
0000
0000
0000
,  // measure 14
0000
0000
0320
0000
1030
0000
1010
0000
0001
1000
1001
0000
0001
0000
0101
0000
,  // measure 15
0110
0000
0010
0100
0110
0000
0010
0000
1010
0000
1100
0000
1000
0100
0101
0000
,  // measure 16
1000
0000
1001
0000
0101
0000
0001
0100
1100
0000
0100
0000
0001
0010
0100
1000
,  // measure 17
0001
0000
0000
0010
0000
0000
0100
0000
0000
1000
0000
0000
0010
0000
0000
0100
0000
0000
0001
0000
1000
0000
0001
0000
1000
0000
0000
0100
0000
0000
0010
0000
0000
0100
0000
0000
2000
0000
0000
0000
0000
0000
3001
0000
0000
0010
0000
0000
,  // measure 18
0100
0000
0000
0010
0000
0000
0001
0000
0000
1000
0000
0000
0100
0000
0000
0001
0000
0000
0100
0000
0000
1000
0000
0000
0002
0000
0000
0000
0000
0000
1000
0000
0000
0000
0000
0000
1003
0000
0000
0000
0000
0000
0010
0000
0100
0000
0010
0000
,  // measure 19
0100
0000
0000
0001
0000
0000
1000
0000
0000
0001
0000
0000
0100
0000
0010
0000
0100
0000
0010
0000
0000
1000
0000
0000
0001
0000
0000
0000
0000
0000
0101
0000
0000
0000
0000
0000
1001
0000
0000
0000
0000
0000
0000
0000
0000
0000
0000
0000
,  // measure 20
1100
0000
0000
1001
0000
0000
0000
0000
0000
0110
0000
0000
0101
0000
0000
0000
0000
0000
0001
1000
0001
1000
0001
1000
,  // measure 21
0001
1000
0001
1000
0000
0000
1010
0000
0000
0010
0000
0000
0110
0000
0000
0100
0000
0000
0101
0000
0000
1001
0000
0000
,  // measure 22
1000
0000
0000
0100
0000
0000
0010
0000
0000
0001
0000
0000
1000
0000
0100
0000
1000
0000
0100
0000
1000
0000
0100
0000
2000
0000
0000
0000
0000
0000
0000
0000
0000
0000
0000
0000
3001
0000
0000
0000
0000
0000
0100
0000
0000
0000
0000
0000
,  // measure 23
1000
0100
0001
1000
0001
0010
0100
0001
,  // measure 24
0010
0100
0001
0010
0100
1000
0001
1000
,  // measure 25
0100
0000
0010
0000
0001
0010
0100
1000
0001
0000
0000
0101
0000
0000
1001
0000
,  // measure 26
0000
0000
0000
0101
0000
0000
0000
0000
0000
0000
0000
0000
0100
0000
0000
0000
0000
0000
0010
0000
1000
0000
0010
0000
1000
0000
0000
0001
0000
0000
1000
0000
0000
0100
0000
0000
0010
0000
0000
0001
0000
0000
0010
0000
0000
0100
0000
0000
,  // measure 27
1000
0000
0000
0000
0000
0000
1001
0000
0000
0000
0000
0000
0001
0000
0000
0010
0000
0000
0100
0000
0000
0010
0000
0000
0001
0000
0100
0000
0001
0000
0100
0000
0001
0000
0100
0000
0010
0000
0000
0000
0000
0000
0000
0000
0000
0000
0000
0000
,  // measure 28
0010
0000
0000
1000
0000
0000
0000
0000
0000
1000
0000
0000
0100
0000
0000
0001
0000
0000
0001
0000
0100
2000
0000
0000
,  // measure 29
3000
0000
0000
0001
0000
0001
0100
0000
0000
1000
0000
0000
0100
0000
0000
0001
0000
0000
1000
0000
0000
0001
0000
0000
,  // measure 30
0010
0000
0100
0000
1000
0000
0010
0100
0001
0010
0100
1000
1010
0000
0000
1001
,  // measure 31
0000
0000
0000
0000
0000
0000
0101
0000
0000
0000
0000
0000
0000
0000
0000
0110
0000
0000
0000
0000
0000
0000
0000
0000
0110
0000
0000
0000
0000
0000
0010
0000
1000
0000
0010
0000
1000
0000
0000
0100
0000
0000
0010
0000
0000
0001
0000
0000
,  // measure 32
1000
0001
0010
0100
1000
0000
1001
0000
0001
0100
0101
0001
1000
0000
1010
0000
,  // measure 33
1001
0000
0000
0001
0000
0000
0100
0000
1000
0100
0000
0000
0001
0000
0000
1000
0000
0000
0100
0000
0000
0010
0000
0000
,  // measure 34
0001
0000
0000
0000
0001
0000
0100
0000
0000
0001
0000
0000
1000
0000
0000
0000
0000
0000
0100
0000
0000
0000
0000
0000
1100
0000
0000
0000
0000
0000
1000
0000
0000
0000
0000
0000
0001
0000
0000
0000
0001
0000
0100
0000
0000
0000
0000
0000
,  // measure 35
1000
0000
0100
0000
0001
0000
1000
0000
0001
0000
0010
0001
1000
0001
0010
0001
,  // measure 36
1000
0000
0100
0000
0001
0000
1000
0000
0010
0000
0001
0000
1000
0100
0001
0000
,  // measure 37
1000
0000
0010
0001
0000
0000
1000
0000
0200
0000
0000
0000
0000
0000
0000
0000
,  // measure 38
0000
0000
1300
0001
0011
0010
0011
0000
,  // measure 39
0001
1000
0100
1100
1000
1100
1001
0001
,  // measure 40
0011
0000
0100
0000
1010
0000
0100
0000
0011
0000
1001
0000
1000
0100
1000
0100
,  // measure 41
1000
0100
0001
0100
0001
0100
0001
0100
0010
0100
0010
0100
0010
0000
0100
0000
,  // measure 42
1000
0001
1000
0001
1000
0100
1000
0100
1000
0010
1000
0010
1000
0001
1000
0001
,  // measure 43
1000
0100
0010
0001
0100
0010
0100
0010
0100
0001
0100
0001
0100
0000
0001
1000
,  // measure 44
0001
1000
0001
0100
0001
0100
0001
0000
1000
0100
1000
0100
1000
0010
1000
0010
,  // measure 45
1000
0000
0000
0001
0000
0000
0100
0000
0000
0001
0000
0000
1000
0100
0010
0001
0000
0000
2000
0000
0000
3200
0000
0000
,  // measure 46
0302
2003
3020
0032
2003
3200
0320
0230
,  // measure 47
2300
3002
0203
2300
3200
0302
0203
0320
,  // measure 48
0130
0200
0000
0300
0000
0000
0000
0000
;
