#TITLE:THAT'S THE WAY LOVE IS;
#SUBTITLE:;
#ARTIST:BOBBY BROWN;
#TITLETRANSLIT:;
#SUBTITLETRANSLIT:;
#ARTISTTRANSLIT:;
#CREDIT:;
#BANNER:THAT'S THE WAY LOVE IS-BN.png;
#BACKGROUND:THAT'S THE WAY LOVE IS-BG.png;
#LYRICSPATH:;
#CDTITLE:infinity-cd.png;
#MUSIC:THAT'S THE WAY LOVE IS.mp3;
#OFFSET:-0.039;
#SAMPLESTART:53.009;
#SAMPLELENGTH:17.680;
#SELECTABLE:YES;
#BPMS:0.000=108.620;
#STOPS:;
#BGCHANGES:;

//---------------dance-single - ----------------
#NOTES:
     dance-single:
     :
     Hard:
     7:
     0.414,0.403,0.391,0.086,0.104: // measure 1
0000
0000
0000
0000
,  // measure 2
0000
0000
0000
0000
,  // measure 3
0000
0000
0000
0000
,  // measure 4
1100
0000
0101
0000
,  // measure 5
1001
0100
1001
0100
1001
0100
0010
1000
,  // measure 6
1001
0000
0001
0010
0001
0000
0100
0010
,  // measure 7
1000
0000
1000
0010
1000
0000
0001
1000
,  // measure 8
0100
0000
0010
0100
0010
0010
0001
1000
,  // measure 9
0010
0000
1000
0100
0110
0000
1100
0000
,  // measure 10
1001
0000
0000
0000
0100
0000
0000
0000
0010
1000
0010
0000
1000
0000
0001
0000
,  // measure 11
1000
0000
0000
0000
0001
0000
0000
0000
0010
0100
0010
0000
0001
0000
1000
0000
,  // measure 12
0001
0000
0100
0000
0010
0000
0000
0000
1000
0100
1000
0000
0010
0000
1000
0000
,  // measure 13
0100
0000
1000
0001
0100
0000
0110
0000
,  // measure 14
1001
0000
0000
0000
0010
0000
0000
0000
0001
1000
0001
0000
0010
0000
0001
0000
,  // measure 15
1000
0000
0000
0000
0010
0000
0000
0000
1000
0100
1000
0000
0010
0000
0100
0000
,  // measure 16
0001
0000
0000
0000
0010
0000
0000
0000
0001
0100
0001
0000
1000
0000
0100
0000
,  // measure 17
0010
0101
1100
0110
,  // measure 18
1002
0013
1020
0130
,  // measure 19
2010
0000
3100
0000
0010
0010
0001
0100
,  // measure 20
0010
0000
1010
0000
0010
0100
0001
0010
,  // measure 21
0001
0100
1000
0100
0001
0010
0100
1000
,  // measure 22
2010
0000
3100
0000
2000
0001
3001
0010
,  // measure 23
0002
0000
0103
0000
0020
0100
0130
0010
,  // measure 24
1000
0000
1001
0000
0001
0001
0010
0100
,  // measure 25
1100
0000
0110
0000
0101
0001
1001
0000
,  // measure 26
0100
0000
0000
0100
0010
0000
1000
0000
0100
1000
0100
0000
0001
0000
0100
0000
,  // measure 27
1000
0000
0000
1000
0001
0000
0100
0000
0010
0100
0010
0000
1000
0000
0100
0000
,  // measure 28
1000
0000
0000
1000
0010
0000
0100
0000
0001
1000
0001
0000
0010
0000
0100
0000
,  // measure 29
1000
0000
0010
1000
1100
0000
1010
0000
,  // measure 30
0101
0000
0000
0000
0001
0000
0010
0000
0100
1000
0100
0000
0001
0000
0100
0000
,  // measure 31
1000
0000
0000
1000
0010
0000
0100
0000
0001
0100
0001
0000
0010
0000
0001
0000
,  // measure 32
0100
0000
0000
0100
1000
0000
0100
0000
0010
0100
0010
0000
1000
0000
0100
0000
,  // measure 33
0110
0000
1100
0010
0101
0000
1001
0010
,  // measure 34
0110
0000
0000
0000
;

//---------------dance-single - ----------------
#NOTES:
     dance-single:
     :
     Medium:
     4:
     0.292,0.323,0.257,0.110,0.000:
0000
0000
0000
0000
,
0000
0000
0000
0000
,
0000
0000
0000
0000
,
1001
0000
0110
0000
,
1001
1001
1001
1001
,
0110
0000
1000
0100
1000
0000
0001
0010
,
0001
0000
0100
0001
0100
0000
0010
1000
,
0010
0000
1000
0001
1000
0000
0100
0010
,
0100
0000
1000
0010
0100
0000
0110
0000
,
1001
0010
0100
1000
,
1000
1000
1000
0000
0010
0000
0100
0000
,
0001
0100
0001
1000
0001
0000
0010
0000
,
0001
0100
0110
1001
,
1000
0100
0010
0001
,
0001
0010
0001
0000
1000
0000
0001
0000
,
0100
0000
0010
0000
0010
0100
0010
0000
,
1000
1100
0101
1001
,
2000
0000
0000
3000
0002
0000
0000
0003
,
0200
0000
0000
0300
0020
0000
0000
0030
,
1000
0100
1000
0000
,
2000
0001
0001
3001
,
0002
0000
0000
0003
0200
0000
0000
0300
,
0020
0000
0000
0030
0200
0000
0000
0300
,
0001
0001
1000
0000
,
1100
1100
1001
1001
,
0100
0000
0010
1000
0100
0000
0100
1000
,
0010
0000
0100
0001
0010
0000
0010
0001
,
1000
0000
0100
1000
0001
0000
0001
1000
,
0010
0000
0100
0001
0010
0001
1000
0000
,
0110
0000
1000
0001
0100
0001
1000
0000
,
0010
0000
1000
0001
0010
0100
0010
0000
,
0001
0000
1000
0010
0100
0001
0100
0010
,
1000
0000
0100
0010
0001
0000
0011
0000
,
1001
0000
0000
0000
;

//---------------dance-single - ----------------
#NOTES:
     dance-single:
     :
     Easy:
     3:
     0.203,0.222,0.098,0.098,0.000:
0000
0000
0000
0000
,
0000
0000
0000
0000
,
0000
0000
0000
0000
,
1001
0000
1001
0000
,
1001
1001
1001
1001
,
0000
0100
0100
0000
,
0100
1000
0001
0000
,
0001
1000
0010
0000
,
0010
1000
0100
1000
,
0001
0100
0100
0000
,
0001
0010
0100
0000
,
1000
0001
1000
0100
,
1000
0000
0010
0010
,
0010
1000
0001
0000
,
0010
0100
1000
0001
,
0010
0000
0001
0100
,
0010
0010
0100
0100
,
0002
0003
2000
3000
,
0200
0300
2000
3000
,
0001
0001
0001
0000
,
0010
0001
0100
1000
,
2000
3000
0020
0030
,
0200
0300
0020
0030
,
1000
1000
0100
0000
,
0010
0010
0001
1000
,
0010
1000
1000
0001
,
1000
0100
0100
1000
,
0001
0100
0100
0010
,
0100
0001
1000
0001
,
1001
1000
0100
0100
,
1000
0010
0100
0100
,
0010
1000
0001
0001
,
0010
0100
1000
0001
,
1001
0000
0000
0000
;

//---------------dance-single - ----------------
#NOTES:
     dance-single:
     :
     Beginner:
     1:
     0.100,0.141,0.012,0.000,0.000:
0000
0000
0000
0000
,
0000
0000
0000
0000
,
0000
0000
0000
0000
,
1000
0000
1000
0000
,
0001
0001
0001
0001
,
0000
0000
0010
0000
,
0010
0000
0001
0000
,
0001
0000
0100
0000
,
0100
0000
0010
0010
,
0010
0000
0000
0000
,
1000
0000
0000
0000
,
0100
0000
0000
0000
,
1000
0000
1000
0000
,
1000
0000
0000
0000
,
0001
0000
0000
0000
,
0100
0000
0000
0000
,
0010
0000
0000
0000
,
0010
0000
0010
0000
,
0100
0000
0100
0000
,
0010
0000
0000
0000
,
1000
0000
0001
0000
,
0010
0000
0010
0000
,
0100
0000
0100
0000
,
0010
0000
0000
0000
,
0001
0001
0001
0001
,
0001
0000
0100
0000
,
0100
0000
0001
0000
,
0001
0000
0010
0000
,
0010
0000
0001
0000
,
1000
0000
0010
0000
,
0010
0000
1000
0000
,
1000
0000
0100
0000
,
0100
0000
1000
0000
,
1001
0000
0000
0000
;
