#TITLE:SO GOOD;
#SUBTITLE:;
#ARTIST:RACHEL STEVENS;
#TITLETRANSLIT:;
#SUBTITLETRANSLIT:;
#ARTISTTRANSLIT:;
#CREDIT:;
#BANNER:SO GOOD-BN.png;
#BACKGROUND:;
#LYRICSPATH:;
#CDTITLE:infinity-cd.png;
#MUSIC:SO GOOD.mp3;
#OFFSET:-0.500;
#SAMPLESTART:38.880;
#SAMPLELENGTH:15.360;
#SELECTABLE:YES;
#BPMS:0.000=124.990;
#STOPS:;
#BGCHANGES:;

//---------------dance-single - ----------------
#NOTES:
     dance-single:
     :
     Hard:
     7:
     0.499,0.463,0.363,0.339,0.000:
0000
0000
0000
0000
,
0000
0000
0000
0000
,
0000
0000
0000
0000
,
0000
0000
0000
0000
,
1000
0010
1000
0010
1000
0001
1000
0001
,
1000
0010
0100
0001
0000
0010
0001
0000
,
1000
0001
1000
0001
0010
0100
0010
0100
,
1000
0010
0100
0001
0000
0100
0010
0000
,
2000
0000
0000
3200
0000
0000
0302
0000
,
0000
0203
0000
0000
2300
0000
3010
1000
,
0100
1000
0010
0000
0100
0001
0010
0000
,
0100
1000
0001
0000
0010
0001
0100
0001
,
2000
0000
3100
0010
0001
1000
0001
0010
,
0100
0010
0001
1000
0010
0100
0010
1000
,
0001
0000
1000
0010
0100
0010
1000
0100
,
0010
0001
0100
0001
0010
0100
1000
0000
,
1020
0000
0000
0230
0000
0000
0320
0000
,
0000
2030
0000
0000
3002
0000
0013
0100
,
0010
0001
0100
0000
0010
0000
1000
0100
,
0020
0000
0031
0100
0020
0100
0130
0000
,
0101
0011
0101
0011
,
0010
0100
1000
0010
1000
0100
0010
0000
,
0101
1100
0110
0101
,
1000
0010
1000
0100
0010
0001
0100
0000
,
0011
1100
0011
1001
,
1000
0010
0100
0001
1000
0010
1000
0100
,
0001
0000
0100
1000
0010
0000
0100
0001
,
0010
0001
0100
0000
0010
0010
0010
0000
,
1001
0000
1000
0100
0001
0100
1000
0000
,
1002
0000
0103
0010
1000
0100
0100
0000
,
0011
0000
0100
1000
0001
0010
0001
0000
,
1002
0000
0103
0100
1000
0100
0001
0000
,
0210
1300
0210
0301
,
1000
0001
0010
0100
0010
0000
0001
0100
,
0020
0000
0130
0001
2000
0000
3001
0010
,
0200
0000
0310
0100
0010
0010
0001
1000
,
0010
0101
1000
1010
,
0002
0023
0230
1300
,
1100
0010
0010
0000
,
0101
0000
0010
0000
0010
0100
0110
0000
,
1000
0100
1000
0100
1000
0100
1000
0010
,
0100
0001
0100
0001
0100
0001
1000
0100
,
0010
0001
0010
0001
0010
0001
0100
0010
,
1000
0001
1000
0000
1200
0000
0310
0000
,
0101
0000
0010
1000
0001
1000
0010
0100
,
0002
0000
0013
0100
1000
0100
0010
0001
,
2000
0000
3100
1000
0002
0000
0103
0010
,
2000
3100
2000
3010
,
1000
0100
0101
0000
1100
0000
0101
0000
,
2000
0000
3010
0100
0010
1000
0001
0010
,
0100
0011
0110
1001
,
0200
0000
0310
1000
0100
1000
0010
0100
,
0102
0000
0013
0100
0010
0001
1000
0000
,
2010
0000
3100
1000
0010
0000
0100
0001
,
0002
0000
0013
0100
2000
0000
3100
0010
,
0010
0001
1000
0000
0010
0100
0010
0000
,
1100
0101
1010
0101
,
1000
0010
0001
0010
1000
0100
0001
0000
,
1100
1010
1100
0011
,
1000
0010
0100
1000
0100
0001
0010
0000
,
0210
1300
0210
0301
,
1002
0000
0013
0010
0001
0100
0010
0100
,
0002
0000
0013
0100
2000
0000
3001
2000
,
0000
0002
0000
3003
;

//---------------dance-single - ----------------
#NOTES:
     dance-single:
     :
     Medium:
     5:
     0.403,0.412,0.048,0.614,0.000:
0000
0000
0000
0000
,
0000
0000
0000
0000
,
0000
0000
0000
0000
,
0000
0000
0000
0000
,
1000
0020
0230
0302
,
1003
0100
1000
0000
0010
0000
0100
0000
,
0010
2000
3200
0320
,
0031
0010
0001
1000
0000
0010
0100
0000
,
0002
0000
0000
0203
0000
0000
0302
0000
,
0000
2003
0000
0000
3002
0000
2003
0000
,
3100
0010
0100
0000
1000
0000
1000
0000
,
0010
0100
0010
0000
0001
0000
0001
0000
,
1000
0100
1000
0100
1000
0100
1000
0000
,
2000
3010
2000
3100
,
0010
0001
0010
0001
0010
0001
0010
0000
,
0002
0000
0103
0000
0001
1000
0010
0000
,
2000
0000
0000
3200
0000
0000
2300
0000
,
0000
3002
0000
0000
2003
0000
3020
0000
,
1030
0001
0010
0000
0001
0000
0010
0000
,
0001
1000
0010
0000
0100
0000
0010
0000
,
1010
2000
0010
3001
,
0020
0000
0031
0000
0010
0001
1000
0000
,
0010
0200
0001
0310
,
0020
0000
0130
0000
0001
0100
0010
0000
,
1000
2000
0010
3001
,
0002
0000
0013
0100
1000
0000
2000
0000
,
3010
0002
0013
2000
,
3010
0001
0010
0100
,
0110
0020
0032
1003
,
0001
0100
0001
0000
1000
0001
1000
0000
,
2000
0010
0001
3100
,
1000
0100
1000
0000
0001
0010
0001
0000
,
0020
0100
0001
0130
,
2000
0001
3010
0020
,
0130
0002
1003
0200
,
0010
1300
0001
0010
,
0002
0100
0100
0003
,
0200
0000
0000
0300
,
0020
1000
1000
0030
,
2000
0100
3100
1000
,
1002
0100
0100
0103
,
2001
0100
0100
3100
,
1000
0100
0010
0001
,
0001
0100
0010
1000
,
1000
0010
1000
0000
0002
0000
1003
0000
,
0100
1000
0100
0000
0020
0000
0031
0010
,
0100
0000
1000
0100
0010
0000
0001
0100
,
0020
0130
0020
1030
,
1001
2000
3200
2300
,
3020
0000
1030
0100
1000
0000
0010
0000
,
0100
0002
0023
0032
,
2003
0000
3001
0010
0100
0000
1000
0010
,
0100
0020
2030
3002
,
0203
0000
0301
1000
0100
0000
2000
0000
,
3100
0002
0103
2000
,
0100
0000
3001
0000
1000
0100
1000
0000
,
1001
0002
0203
0320
,
1030
0100
1000
0100
1000
0100
1000
0000
,
1000
0020
0230
0302
,
1003
0001
1000
0001
1000
0001
1000
0000
,
0100
0020
0230
0320
,
0032
0000
0103
0010
1000
0000
2000
0000
,
3010
0000
0002
0000
0013
0000
1000
2000
,
0000
0001
0000
3000
;

//---------------dance-single - ----------------
#NOTES:
     dance-single:
     :
     Easy:
     3:
     0.221,0.229,0.000,0.032,0.000:
0000
0000
0000
0000
,
0000
0000
0000
0000
,
0000
0000
0000
0000
,
0000
0000
0000
0000
,
0000
1000
0100
1000
,
1000
0000
0001
0000
,
0000
0001
0100
0001
,
0001
1000
0001
1000
,
2000
0000
0000
3000
,
0200
0000
0300
0100
,
1000
0000
0001
0000
,
0100
0000
0010
0010
,
1000
0100
1000
0001
,
0001
0000
1000
0000
,
0001
0100
0001
1000
,
1000
0000
0010
1000
,
0200
0000
0000
0300
,
0020
0000
0030
0010
,
0001
0000
0010
0001
,
1000
0000
1000
0010
,
0100
0100
0100
0100
,
0010
0000
1000
0100
,
0010
0010
0010
0010
,
0001
0000
0010
0100
,
1000
1000
1000
1000
,
0001
0000
0100
0010
,
0010
0100
0100
0001
,
0001
1000
0000
0000
,
0100
1000
1000
1000
,
0001
0010
0001
0000
,
0001
0100
0100
0100
,
0001
1000
0010
0000
,
0001
1000
1000
1000
,
0001
0010
0100
1000
,
1000
0100
0100
1000
,
0010
0100
0001
1000
,
0100
0000
0000
0000
,
0010
0000
0000
0000
,
1000
0000
0000
0000
,
0001
0000
0000
0100
,
0010
1000
0010
0000
,
1000
0100
1000
0000
,
0001
0010
0001
0000
,
0001
0100
0010
1000
,
1000
0010
1000
0000
,
1000
0100
1000
0001
,
0100
0001
0100
0001
,
0100
0001
0001
0010
,
0001
1000
1000
1000
,
0010
1000
0001
0000
,
0010
0001
0001
0001
,
0010
0001
1000
0000
,
0010
0100
0100
0010
,
1000
0100
0010
0001
,
0001
1000
1000
0001
,
0001
1000
0100
0000
,
1000
0010
0001
0010
,
0010
1000
0001
0000
,
0100
0001
0100
1000
,
1000
0100
0010
0000
,
0100
1000
0001
0100
,
0100
0010
1000
0001
,
0001
1000
1000
0001
,
0010
0000
0000
0000
;

//---------------dance-single - ----------------
#NOTES:
     dance-single:
     :
     Beginner:
     1:
     0.138,0.177,0.016,0.000,0.000: // measure 1
0000
0000
0000
0000
,  // measure 2
0000
0000
0000
0000
,  // measure 3
0000
0000
0000
0000
,  // measure 4
0000
0000
0000
0000
,  // measure 5
0000
1000
0000
1000
,  // measure 6
0000
0001
0000
0001
,  // measure 7
0000
0010
0000
0010
,  // measure 8
0000
0001
0000
1000
,  // measure 9
1000
0000
0000
0000
,  // measure 10
0001
0000
0000
0100
,  // measure 11
0100
0000
0000
0000
,  // measure 12
0000
0000
0000
0000
,  // measure 13
0010
0010
0000
0010
,  // measure 14
0000
1000
0000
0001
,  // measure 15
0000
0001
0000
1000
,  // measure 16
0000
0100
0000
0010
,  // measure 17
0010
0000
0000
0000
,  // measure 18
0001
0000
0000
1000
,  // measure 19
1000
0000
0000
0001
,  // measure 20
0001
0000
0001
0000
,  // measure 21
0100
0000
0100
0000
,  // measure 22
0010
0010
0010
0000
,  // measure 23
1000
0000
1000
0000
,  // measure 24
0100
0100
0100
0000
,  // measure 25
1000
0000
0001
0000
,  // measure 26
0010
0000
0000
0001
,  // measure 27
0000
0001
0000
0001
,  // measure 28
0001
0001
0000
0000
,  // measure 29
0100
0000
0100
0000
,  // measure 30
0010
0010
0010
0000
,  // measure 31
1000
0000
1000
0000
,  // measure 32
0001
0001
0001
0000
,  // measure 33
1000
0000
0010
0000
,  // measure 34
0100
0000
0000
0001
,  // measure 35
0000
1000
0000
0001
,  // measure 36
0001
0000
0010
0000
,  // measure 37
0100
0000
0000
0000
,  // measure 38
0100
0000
0000
0000
,  // measure 39
0100
0000
0000
0000
,  // measure 40
0100
0000
0000
0010
,  // measure 41
0010
0000
0000
1000
,  // measure 42
1000
0000
0000
0100
,  // measure 43
0100
0000
0000
1000
,  // measure 44
1000
0000
0000
0001
,  // measure 45
0001
0000
0000
0100
,  // measure 46
0100
0000
0000
0010
,  // measure 47
0000
0010
0000
0010
,  // measure 48
0010
0000
0010
0000
,  // measure 49
1001
0000
0100
0000
,  // measure 50
0010
0010
0010
0000
,  // measure 51
0001
0000
1000
0000
,  // measure 52
0010
0010
0010
0000
,  // measure 53
0100
0000
0010
0000
,  // measure 54
1000
0000
0000
0001
,  // measure 55
0000
1000
0000
0001
,  // measure 56
0001
0000
0000
0000
,  // measure 57
1001
0000
0010
0000
,  // measure 58
0010
0010
0010
0000
,  // measure 59
0001
0000
1000
0000
,  // measure 60
0010
0010
0010
0000
,  // measure 61
0100
0000
0010
0000
,  // measure 62
1000
0000
0000
0100
,  // measure 63
0000
0100
0000
0100
;
