#TITLE:IN WALKED LOVE;
#SUBTITLE:;
#ARTIST:LOUISE;
#TITLETRANSLIT:;
#SUBTITLETRANSLIT:;
#ARTISTTRANSLIT:;
#CREDIT:;
#BANNER:IN WALKED LOVE-BN.png;
#BACKGROUND:IN WALKED LOVE-BG.png;
#LYRICSPATH:; #CDTITLEinfinity-cd.png:;
#MUSIC:IN WALKED LOVE.mp3;
#OFFSET:0.060;
#SAMPLESTART:42.525;
#SAMPLELENGTH:17.592;
#SELECTABLE:YES;
#BPMS:0.000=109.120;
#STOPS:;
#BGCHANGES:;

//---------------dance-single - ----------------
#NOTES:
     dance-single:
     :
     Hard:
     6:
     0.402,0.356,0.136,0.146,0.005: // measure 1
0000
0000
0000
0000
,  // measure 2
0000
0000
0000
0000
,  // measure 3
0000
0000
0000
0000
,  // measure 4
0000
0000
0000
0000
0000
0010
0100
0010
,  // measure 5
1000
0000
0100
0010
0100
1000
0010
1000
,  // measure 6
0100
1000
0010
0100
0001
0010
0001
0100
,  // measure 7
0002
0000
0013
0000
0001
0100
0010
0000
,  // measure 8
0001
1000
0001
1000
0100
0010
0100
0000
,  // measure 9
2000
0000
0001
3001
0000
1000
0100
1000
,  // measure 10
0010
0100
0010
1000
0100
0010
0001
0100
,  // measure 11
0020
0000
0130
0000
0001
1000
0100
0000
,  // measure 12
1000
0001
1000
0010
0100
0001
0010
0001
,  // measure 13
1000
0000
0010
0000
1000
0100
0010
0001
,  // measure 14
0000
0010
0100
1000
0001
0010
0001
0000
,  // measure 15
0001
0000
0100
0000
0010
1000
0100
1000
,  // measure 16
0010
0100
0001
0000
1000
0100
0010
0000
,  // measure 17
0110
0000
0001
0100
1000
0100
0001
1000
,  // measure 18
0000
0001
1000
0100
0000
0100
1000
0001
,  // measure 19
0101
0000
0011
0000
0001
0100
0010
0000
,  // measure 20
1000
1000
1000
0001
1000
0100
1000
0010
,  // measure 21
0110
0000
0110
1000
0100
0010
0001
0000
,  // measure 22
0101
0000
1001
0000
0001
0010
0001
1000
,  // measure 23
0000
0010
0100
0001
0010
0001
0100
0020
,  // measure 24
0000
1030
0100
0010
0100
1000
0010
1000
,  // measure 25
0002
0000
0010
0000
1003
0000
0010
0100
,  // measure 26
0002
0000
0103
0010
2000
0000
3100
0010
,  // measure 27
0100
0000
0010
0010
0001
0100
0001
0000
,  // measure 28
0001
0100
1000
0100
0001
0100
1000
0100
,  // measure 29
0101
0000
1100
0010
0100
1000
0001
0000
,  // measure 30
0101
0000
1100
0000
0010
0100
0001
1000
,  // measure 31
0000
0100
0010
0001
0010
0100
1000
0010
,  // measure 32
0000
1000
0100
1000
0001
0100
1000
0100
,  // measure 33
0020
0000
1030
0100
0010
0001
0000
0100
,  // measure 34
0020
0000
0130
0001
0020
0000
0031
1000
,  // measure 35
0010
0010
0100
0000
0010
0010
0100
0000
,  // measure 36
0001
1000
0001
0010
0001
0100
0001
0010
,  // measure 37
1001
0000
0100
0000
1001
0000
0000
0000
0000
0000
0001
0000
1000
0001
1000
0000
,  // measure 38
0010
0100
0001
0020
0000
0031
1000
0000
,  // measure 39
1000
0010
0100
0002
0000
1003
0001
0000
,  // measure 40
0001
0010
0001
0200
0000
1300
0100
0000
,  // measure 41
0001
0001
1000
1000
0100
0010
0100
1000
,  // measure 42
0001
0100
0010
2000
0000
3100
0010
0100
,  // measure 43
1000
0010
0100
0002
0000
0013
0100
0010
,  // measure 44
0001
0100
0001
0020
0000
0031
1000
0000
,  // measure 45
1010
1000
0001
0000
0100
0001
1000
0000
,  // measure 46
1001
0100
0100
0010
0100
0001
0100
1000
,  // measure 47
0001
0000
0000
0000
;

//---------------dance-single - ----------------
#NOTES:
     dance-single:
     :
     Medium:
     5:
     0.299,0.293,0.091,0.055,0.000:
0000
0000
0000
0000
,
0000
0000
0000
0000
,
0000
0000
0000
0000
,
0000
0000
0000
0000
0000
0001
1000
0000
,
1100
1000
0010
0100
,
0100
1000
0100
0001
,
0011
0000
0001
0001
,
1000
0100
1000
0000
0001
0100
0001
0000
,
1000
0010
0100
0100
,
1000
0100
0010
0001
,
0011
0000
0100
0100
,
0010
1000
0010
0000
0100
0010
0100
0000
,
0101
0000
0000
0000
1000
0100
0010
0001
,
0000
0100
0000
0010
0000
0000
1000
0000
,
1000
0000
0000
0000
0010
0100
0001
0010
,
0000
0200
0000
2300
0000
3002
0000
0103
,
0010
0000
0000
0000
0010
0100
0010
1000
,
0001
0000
0010
0100
0010
0001
0010
0000
,
0001
0000
0101
0000
1000
0010
1000
0000
,
0100
0100
0100
0000
0000
1000
0001
0000
,
0101
0000
0010
1000
0010
0100
0010
0000
,
1001
0000
0100
0000
0010
0001
0010
0100
,
0000
1000
0100
0010
0000
0001
0100
0001
,
0000
1000
0001
0010
0100
0000
1000
0010
,
0200
0000
0000
0001
,
0302
0000
0000
0000
1003
0000
0100
1000
,
0100
0000
0010
0100
0000
0000
0000
0000
,
1000
0000
0010
0100
0001
0100
0010
0000
,
0110
0000
0001
0010
0100
1000
0100
0000
,
0110
0000
1000
0000
0001
0010
0001
1000
,
0000
0010
0100
0001
0000
0010
0001
0100
,
0000
0010
1000
0010
0000
0100
0001
2000
,
0000
0000
3100
1000
0100
0000
1000
0001
,
0100
0000
0010
1000
0010
0000
0100
0001
,
0010
0001
1000
0000
0010
0001
1000
0000
,
0100
1000
0100
1000
0100
1000
0001
0000
,
0100
0100
0100
0000
0000
0001
1000
0000
,
1000
0100
0010
0001
0000
0000
0010
0000
,
0001
0100
0010
1000
0000
0000
0010
0000
,
0100
0010
1000
0001
0000
0000
1000
0000
,
0100
1000
0100
0000
0010
0001
0010
0000
,
0001
0100
0010
1000
0000
0000
0100
0000
,
1000
0010
0100
0001
0000
0000
0010
0000
,
0001
1000
0100
0010
0000
0000
0100
0000
,
1000
0000
1000
0000
0001
0100
0010
0000
,
0010
1000
0010
1000
0001
0000
0010
0000
,
0110
0000
0000
0000
;

//---------------dance-single - ----------------
#NOTES:
     dance-single:
     :
     Easy:
     3:
     0.181,0.209,0.073,0.018,0.000:
0000
0000
0000
0000
,
0000
0000
0000
0000
,
0000
0000
0000
0000
,
0000
0000
0000
1000
,
1000
0100
1000
0000
,
1000
0010
1000
0000
,
0001
0000
0000
0000
,
0001
0010
0100
1000
,
1000
0010
1000
0000
,
1000
0001
1000
0000
,
0001
0000
0000
0000
,
0010
0100
1000
0001
,
1001
0000
0100
0010
,
1000
0000
1000
0000
,
0000
0000
0001
0010
,
0001
0100
0001
0000
,
1001
0000
0010
0100
,
0010
0000
0001
1000
,
0010
0010
0100
0010
,
1000
0100
0001
0100
,
0110
0000
1000
0001
,
1001
0000
0100
0010
,
1000
0100
1000
0000
,
1000
0010
0100
0001
,
0002
0000
0003
0001
,
0020
0000
0030
0001
,
1000
0000
0010
0000
,
0100
0100
0010
1000
,
1001
0000
0001
0010
,
0110
0000
0010
0001
,
0100
0000
0001
1000
,
0100
1000
0010
1000
,
1000
0100
0100
1000
,
0001
0000
0010
0000
,
0001
0100
0100
0001
,
1000
1000
0100
1000
,
1001
0000
0000
0100
,
0010
0010
0010
0000
,
0100
0100
0100
0000
,
0001
0001
0001
0000
,
1000
0100
1000
0100
,
1000
0001
0010
0000
,
0001
1000
0010
0000
,
0100
0001
0010
0000
,
0100
0100
0000
0100
,
1000
0001
0100
0010
,
0110
0000
0000
0000
;

//---------------dance-single - ----------------
#NOTES:
     dance-single:
     :
     Beginner:
     1:
     0.087,0.105,0.009,0.000,0.000:
0000
0000
0000
0000
,
0000
0000
0000
0000
,
0000
0000
0000
0000
,
0000
0000
0000
0000
,
1000
0000
0000
0000
,
0100
0000
0000
0000
,
0100
0000
0000
0000
,
1000
0000
0000
0000
,
0001
0000
0000
0000
,
0100
0000
0000
0000
,
0010
0000
0000
0000
,
0010
0000
0000
0000
,
1000
0000
1000
0000
,
1000
0000
0000
0000
,
0001
0000
0001
0000
,
0001
0000
0000
0000
,
0010
0000
0010
0000
,
0100
0000
0100
0000
,
1000
0000
0001
0000
,
0100
0000
0100
0000
,
0010
0000
1000
0000
,
0100
0000
1000
0000
,
0001
0000
0001
0000
,
1000
0000
1000
0000
,
0100
0000
1000
0000
,
0010
0000
0100
0000
,
0010
0000
1000
0000
,
0001
0000
0001
0000
,
0001
0000
0010
0000
,
0100
0000
1000
0000
,
1000
0000
0001
0000
,
0100
0000
0010
0000
,
0100
0000
0100
0000
,
0010
0000
1000
0000
,
0001
0000
0001
0000
,
1000
0000
0100
0000
,
0100
0000
0000
0000
,
0100
0000
0000
0000
,
1000
0000
0000
0000
,
0010
0000
0000
0000
,
0100
0000
0010
0000
,
1000
0000
0000
0000
,
0001
0000
0000
0000
,
0010
0000
0000
0000
,
0100
0000
0100
0000
,
0000
0000
0000
0000
,
1001
0000
0000
0000
;
