#TITLE:ANYBODY;
#SUBTITLE:(MOVIN' ON);
#ARTIST:MASTERBOY;
#TITLETRANSLIT:;
#SUBTITLETRANSLIT:;
#ARTISTTRANSLIT:;
#CREDIT:;
#BANNER:ANYBODY-bn.png;
#BACKGROUND:ANYBODY-bg.png;
#LYRICSPATH:;
#CDTITLE:infinity-cd.png;
#MUSIC:ANYBODY (MOVIN' ON).mp3;
#OFFSET:-0.042;
#SAMPLESTART:73.418;
#SAMPLELENGTH:13.386;
#SELECTABLE:YES;
#BPMS:0.000=142.982;
#STOPS:;
#BGCHANGES:-0.240=Anybody (Movin' On).avi=1.000=1=1=0,
238.000=ANYBODY-bg.png=1.000=1=0=1,
99999=-nosongbg-=1.000=0=0=0 // don't automatically add -songbackground-
;

//---------------dance-single - ----------------
#NOTES:
     dance-single:
     :
     Hard:
     7:
     0.489,0.457,0.394,0.019,0.067:
0000
0000
0000
0000
,
0000
0000
0000
0000
,
0000
0000
0000
0000
,
0000
0000
0000
0000
0000
0000
0001
1000
,
0100
1000
0001
0100
0001
0000
1001
0000
,
0001
0100
1000
0100
0001
0000
0001
1000
,
0100
1000
0001
0010
0001
0000
1001
0000
,
1000
0100
0001
0000
0011
0000
1001
0001
,
0100
0010
1000
0100
0100
0000
0001
0000
,
1000
0100
0001
0000
0001
0100
1000
0000
,
1000
0001
0100
0010
0100
0001
1000
0000
,
0010
1000
0001
0000
1010
0000
1001
0000
,
0010
1000
0100
1001
,
0001
1000
0001
0100
0010
0100
0001
0000
,
0011
1000
0001
1001
,
1000
0010
0100
0010
1000
0000
0101
0000
,
1000
0100
0011
1001
,
1000
0001
0100
0000
0010
1000
0100
0000
,
1000
0000
0001
0000
0010
0001
0100
0010
,
0000
0000
0000
0000
,
1000
0000
0000
0010
0000
0000
0100
0000
0000
0001
0000
0000
0010
0000
0001
0000
,
1000
0000
0000
0100
0000
0000
1000
0000
0000
0001
0000
0000
0100
0000
0001
0000
,
0010
0000
0000
0001
0000
0000
1000
0000
0000
0100
0000
0000
1000
0000
0010
0000
,
0100
0000
0000
0001
0000
0000
1000
0000
0000
0001
0000
0000
0100
0000
0010
0000
,
1000
0000
0000
0100
0000
0000
0001
0000
0000
0100
0000
0000
1000
0000
0010
0000
,
0100
0000
0000
0001
0000
0000
0010
0000
0000
0001
0000
0000
0100
0000
0010
0000
,
1000
0000
0000
0100
0000
0000
0001
0000
0000
0100
0000
0000
1000
0000
0010
0000
,
0100
0000
0000
0010
,
1001
0000
1000
0000
0100
0010
0001
0000
,
0100
0010
1000
0000
1000
0010
0100
0000
,
1010
0000
1001
0000
0010
0001
0100
0000
,
0100
0001
0010
0000
1100
0000
0101
0000
,
0010
0001
1000
0000
1000
0001
0100
0000
,
0010
1000
0100
1000
0010
0100
0001
0000
,
0010
0001
0100
0000
0100
0001
0010
0000
,
1100
0101
1100
1001
,
0001
1000
0100
0010
0000
0001
0100
0010
,
0000
1000
0100
1000
0000
0001
0100
0000
,
1000
0010
1000
0100
0000
0010
0001
0100
,
0000
0010
1000
0000
0011
0000
1001
0000
,
1000
0010
0100
0001
0100
0010
1000
0010
,
0100
0001
1000
0001
0100
0000
1001
0000
,
1000
0100
1000
0001
0100
0001
1000
0001
,
0010
0000
0000
0100
,
1010
0000
1000
0100
0001
0000
0011
0000
,
1001
0000
0001
0100
0010
0100
0001
0000
,
1100
0000
1000
0001
0100
0000
0110
0000
,
0100
0001
1000
0000
0011
0000
1001
0000
,
0001
1000
0100
0000
0011
0000
1001
0000
,
1000
0001
0100
0010
0100
0001
1000
0000
,
1000
0001
0010
0000
1100
0000
1001
0000
,
1000
0100
1100
1001
,
0010
1000
0100
0001
0100
1000
0010
1000
,
0100
0000
1100
0000
0010
0001
1000
0000
,
0001
0010
1000
0010
0001
0100
1000
0100
,
0001
0100
0100
0000
1010
0000
1100
0000
,
0010
0001
1000
0010
0100
0001
0010
0000
,
0001
0100
1000
0000
0100
0001
1000
0000
,
0100
0010
0001
1000
0010
0100
0001
0010
,
2002
0000
3003
0000
;

//---------------dance-single - ----------------
#NOTES:
     dance-single:
     :
     Medium:
     6:
     0.435,0.515,0.548,0.019,0.000:
0000
0000
0000
0000
,
0000
0000
0000
0000
,
0000
0000
0000
0000
,
0000
0000
0000
0010
,
1100
1001
1100
0000
,
0001
1000
0001
0000
1000
0010
1000
0000
,
1100
0101
1100
0000
,
0001
0100
0001
0000
1001
0000
1001
0000
,
1000
0001
0010
0000
0100
1000
0001
0000
,
1000
1100
0001
0101
,
1000
0001
0100
0000
0010
1000
0100
0000
,
1000
0100
1000
0000
0101
0000
0101
0000
,
1001
0000
1000
0001
0000
0010
0100
0000
,
1100
0101
1000
0000
,
0001
0000
0100
0010
0000
0010
0100
0000
,
0001
1000
0011
1001
,
0001
0000
1000
0000
0010
0100
0010
0000
,
0100
0001
0100
0000
0010
1000
0010
0000
,
1000
0000
0001
0000
0010
0000
0001
0100
,
0000
0000
0000
0000
,
0010
1000
0100
0001
,
0010
0001
0100
1000
,
0010
0000
0010
0000
1000
0100
1000
0000
,
0001
0000
0100
0000
0001
0100
0001
0000
,
1000
0000
1000
0000
0001
0000
1000
0100
,
1000
0000
1000
0000
0001
0000
0100
0001
,
0100
0100
0010
0010
,
1000
0000
0000
0100
,
1100
0000
1000
0000
0001
0001
0001
0000
,
1000
1000
1000
0000
0010
0100
0010
0000
,
1000
0000
0001
0000
0010
0010
0010
0000
,
0100
1000
0001
0000
0101
0000
1001
0000
,
1000
0000
0001
0000
1000
0001
0100
0000
,
0001
0000
1000
0000
0100
1000
0001
0000
,
0100
0010
0100
0000
0001
0100
0001
0000
,
1000
1000
1000
0001
,
0011
1001
0101
1001
,
1100
0101
1100
1001
,
1010
1100
0011
0101
,
0011
0101
1001
0010
,
1000
0100
1000
0000
0001
0100
0001
0000
,
1000
0100
1000
0001
0100
0000
1001
0000
,
0001
0010
0001
0000
1000
0010
1000
0000
,
0100
0000
0000
1001
,
0010
0001
0100
0000
0110
0000
0001
0000
,
1000
0100
0010
0000
0110
0000
1001
0000
,
1000
0010
0100
0001
0010
0000
0000
0000
,
0001
1000
0110
0110
,
0010
1000
0100
0000
1100
0000
1000
0000
,
0010
0100
0001
0000
0110
0000
0100
0001
,
1000
0000
0100
0010
0001
0000
0000
0000
,
1000
0010
1100
1001
,
0101
0000
0101
0000
0001
0100
0001
0000
,
1000
0100
1000
0000
0001
1000
0001
0000
,
1100
0000
1100
0000
1000
0100
1000
0000
,
0010
0010
0010
0000
1001
0000
0010
0000
,
0101
1100
0101
1000
,
0100
0010
0001
1000
0010
0000
0100
0000
,
0101
0000
1100
0000
0010
0010
0010
0000
,
2002
0000
3003
0000
;

//---------------dance-single - ----------------
#NOTES:
     dance-single:
     :
     Easy:
     4:
     0.303,0.429,0.394,0.019,0.000:
0000
0000
0000
0000
,
0000
0000
0000
0000
,
0000
0000
0000
0000
,
0000
0000
0000
0010
,
1000
0100
1000
0000
,
0001
0001
1000
1000
,
0001
0100
0001
0000
,
1000
0100
0110
1001
,
0001
0100
0010
0000
,
1000
1000
0100
0100
,
1000
0010
0100
0000
,
0001
1000
1001
0110
,
1001
0000
0010
0000
,
0001
0100
0001
0000
,
0110
0000
0001
0000
,
1000
0100
0110
1001
,
0110
0000
1000
0000
,
0010
0100
0010
0000
,
1001
0000
0010
0010
,
0000
0000
0000
0000
,
0001
0100
0010
1000
,
0100
1000
0010
0100
,
0001
1000
0100
1000
,
0001
0000
1001
1001
,
0010
0001
1000
0010
,
1000
0100
1000
0001
,
0100
0100
0100
0001
,
1000
0000
0000
0100
,
0110
0000
0110
0000
,
1000
0001
1000
0000
,
0101
0000
0101
0000
,
0001
1000
1100
1100
,
1100
0000
1000
0000
,
0001
1000
0001
0000
,
0101
0101
0101
0000
,
1001
1001
1001
1001
,
1000
0010
0001
0010
,
1000
0010
0001
0100
,
1000
0100
0001
0100
,
1000
0100
0110
0000
,
0001
0010
1000
0100
,
0001
0100
1000
0010
,
1000
0100
0001
0100
,
0001
0000
0000
0010
,
0110
0001
1000
0000
,
0110
1000
0001
0010
,
0001
1000
0010
0000
,
0100
0100
1001
1001
,
1001
0010
0001
0000
,
1001
0100
0010
0001
,
1000
0010
0100
0000
,
0001
0001
0110
0110
,
1001
0000
0100
0000
,
0010
0010
0010
0000
,
1001
0000
0100
0000
,
0010
1000
1001
1001
,
1001
0000
0010
0000
,
0001
0100
0010
0000
,
0100
0010
1000
0100
,
2002
0000
3003
0000
;

//---------------dance-single - ----------------
#NOTES:
     dance-single:
     :
     Beginner:
     1:
     0.172,0.198,0.029,0.000,0.000: // measure 1
0000
0000
0000
0000
,  // measure 2
0000
0000
0000
0000
,  // measure 3
0000
0000
0000
0000
,  // measure 4
0000
0000
0000
0000
,  // measure 5
1000
0000
1000
0000
,  // measure 6
0100
0000
0100
0000
,  // measure 7
1000
0000
0001
0000
,  // measure 8
0100
0000
0100
0000
,  // measure 9
0010
0000
1000
0000
,  // measure 10
0001
0000
0001
0000
,  // measure 11
0010
0000
0100
0000
,  // measure 12
1000
0000
1000
0000
,  // measure 13
0001
0000
0001
0000
,  // measure 14
0100
0100
0100
0000
,  // measure 15
0001
0000
1000
0000
,  // measure 16
0100
0100
0100
0000
,  // measure 17
1000
0000
0001
0000
,  // measure 18
0010
0010
0010
0000
,  // measure 19
0001
0000
0100
0000
,  // measure 20
0010
0000
0000
0000
,  // measure 21
1000
0000
0100
0000
,  // measure 22
1000
0000
0010
0000
,  // measure 23
1000
0000
0001
0000
,  // measure 24
0010
0000
0001
0000
,  // measure 25
0100
0000
0010
0000
,  // measure 26
0100
0000
0001
0000
,  // measure 27
1000
0000
0100
0000
,  // measure 28
0010
0000
0000
0000
,  // measure 29
0001
0001
0001
0000
,  // measure 30
1000
0000
1000
0000
,  // measure 31
0010
0010
0010
0000
,  // measure 32
1000
0000
0100
0100
,  // measure 33
0100
0000
1000
0000
,  // measure 34
0001
0000
0100
0000
,  // measure 35
0010
0000
0010
0000
,  // measure 36
1000
1000
1000
1000
,  // measure 37
1000
0000
0001
0000
,  // measure 38
1000
0000
0001
0001
,  // measure 39
0001
0000
1000
0000
,  // measure 40
0001
0000
0010
0010
,  // measure 41
0010
0000
0001
0000
,  // measure 42
1000
0000
0010
0010
,  // measure 43
0010
0000
0100
0000
,  // measure 44
0001
0000
0000
0000
,  // measure 45
1001
0000
1000
0000
,  // measure 46
0100
0000
0100
0000
,  // measure 47
1000
0000
0010
0000
,  // measure 48
0100
0000
0001
0000
,  // measure 49
1001
0000
0001
0000
,  // measure 50
0010
0000
0100
0000
,  // measure 51
0010
0000
0001
0000
,  // measure 52
1000
0000
0010
0010
,  // measure 53
0010
0000
1000
0000
,  // measure 54
0100
0100
0100
0000
,  // measure 55
1000
0000
0001
0000
,  // measure 56
0100
0100
0100
0000
,  // measure 57
0010
0000
0100
0000
,  // measure 58
0001
0000
0001
0000
,  // measure 59
1000
0000
0100
0000
,  // measure 60
0110
0000
0000
0000
;
