#TITLE:You Wanna Me;
#SUBTITLE:;
#ARTIST:Vospi;
#TITLETRANSLIT:;
#SUBTITLETRANSLIT:;
#ARTISTTRANSLIT:;
#GENRE:House;
#CREDIT:Sync by HellRazoR;
#BANNER:You Wanna Me-bn.png;
#BACKGROUND:You Wanna Me-bg.png;
#LYRICSPATH:;
#CDTITLE:;
#MUSIC:You Wanna Me.ogg;
#OFFSET:-0.043;
#SAMPLESTART:80.280;
#SAMPLELENGTH:12.000;
#SELECTABLE:YES;
#DISPLAYBPM:98.000;
#BPMS:0.000=98.000;
#STOPS:;
#BGCHANGES:0.000=You Wanna Me-bg.png=1.000=0=0=1=====,
16.000=In The Groove Rebirth/166_JB_HD.mpg=1.000=0=0=1=====,
32.000=In The Groove Rebirth/218_JB_HD.mpg=1.000=0=0=1=====,
48.000=In The Groove Rebirth/269_JB_HD.mpg=1.000=0=0=1=====,
64.000=In The Groove Rebirth/411_JB_HD.mpg=1.000=0=0=1=====,
80.000=In The Groove Rebirth/174_JB_HD.mpg=1.000=0=0=1=====,
96.000=In The Groove Rebirth/168_JB_HD.mpg=1.000=0=0=1=====,
112.000=In The Groove Rebirth/161_JB_HD.mpg=1.000=1=0=1===CrossFade==,
128.000=You Wanna Me-bg.png=1.000=1=0=1===CrossFade==,
132.000=In The Groove Rebirth/169_JB_HD.mpg=1.000=0=0=1=====,
148.000=In The Groove Rebirth/218_JB_HD.mpg=1.000=0=0=1=====,
164.000=In The Groove Rebirth/411_JB_HD.mpg=1.000=0=0=1=====,
180.000=In The Groove Rebirth/166_JB_HD.mpg=1.000=1=0=1===CrossFade==,
192.000=You Wanna Me-bg.png=1.000=1=0=1===CrossFade==,
99999=-nosongbg-=1.000=0=0=0 // don't automatically add -songbackground-
;
#BGCHANGES2:48.000=white flash=1.000=0=0=1=====,
96.000=white flash=1.000=0=0=1=====,
132.000=yellow flash=1.000=0=0=1=====,
164.000=flash=1.000=0=0=1====1^1^1^0.5=,
;
#KEYSOUNDS:;

//---------------dance-single - M. Simmons----------------
#NOTES:
     dance-single:
     M. Simmons:
     Challenge:
     10:
     0.682,0.000,0.293,0.309,1.000:
0000
0000
0000
0000
,
0000
0000
0000
0000
,
0000
0000
0000
0000
,
0000
0000
0000
0000
0000
0000
0000
0000
0000
0000
0000
0000
0000
0000
0000
0000
0000
0000
0000
0000
0010
0100
0001
0100
,
0010
0000
0000
1000
0000
0000
1100
0000
0100
0010
0000
0002
0000
0000
1003
0010
0000
0000
0110
0000
0100
0010
0000
0000
,
1000
0000
0100
0000
0000
0010
0001
0000
0000
1000
0000
0010
0000
0000
0100
0010
0000
0000
1001
0000
1000
0001
1000
0100
,
1000
0000
0000
0100
0000
0000
0101
0000
0001
1000
0000
0200
0000
0000
1300
0010
0000
0000
0101
0000
0001
1000
0000
0000
,
0100
0000
1000
0000
0000
0010
0002
0000
0000
1000
0000
0013
0000
0000
0010
1000
0000
0000
1001
0000
1000
0001
1000
0010
,
0100
0000
0000
0100
0000
0000
0011
0000
0100
1000
0000
0020
0000
0000
0130
0010
0000
0000
1010
0000
0001
1000
0000
0000
,
0100
0000
0001
0000
0000
0100
1000
0000
0000
0100
0000
0001
0000
0000
0100
0010
0000
0000
1001
0000
0001
1000
0100
0010
,
0001
0000
0000
1000
0000
0000
1001
0000
0001
0010
0000
0200
0000
0000
0310
0001
0000
0000
1001
0000
1000
0010
0000
0200
,
0000
0000
0000
0001
0000
0000
0310
0000
0000
0100
0000
0010
1000
0000
0100
1000
0000
0000
1001
0000
0000
0000
0000
0000
,
0110
0000
0000
0010
0000
0000
1000
0000
0000
0100
0000
0010
0001
0000
0001
1000
0000
0000
1010
0000
0000
0010
0000
0000
,
0100
0000
0000
0001
0000
0000
1000
0000
0000
0100
0000
1000
0001
0000
0001
1000
0000
0000
1001
0000
0001
1000
0000
0000
,
0010
0000
0000
0100
0000
0000
0010
0000
0000
1000
0000
0100
0010
0000
0010
0001
0000
0000
1100
0000
0000
1000
0000
0000
,
0001
0000
0000
0010
0000
0000
0001
0000
0000
1000
0000
0010
1000
0000
1000
0100
0000
0000
1001
0000
1000
0001
0000
1000
,
0002
0000
0000
0010
0003
0100
1000
0000
0000
0100
0000
0010
0000
0000
0001
1000
0000
0000
0020
0000
0000
0000
0000
0000
,
0130
0000
0000
0001
0000
0000
1000
0000
0000
0100
0000
0010
0000
0000
0100
1000
0000
0000
0020
0000
0000
0000
0000
0000
,
0130
0000
0000
0001
0000
0000
1000
0000
0000
0010
0000
0100
0000
0000
0010
1000
0000
0000
0001
0000
1000
0001
0000
0000
,
0010
0000
0000
0100
0000
0000
1000
0000
0000
0001
0000
0100
0000
0000
1000
0100
0000
0000
0001
0000
1000
0001
0000
0001
,
1000
0000
0100
0000
0010
0000
0001
0000
1000
0000
0010
0000
0100
0000
0010
0000
1000
0000
0001
0100
0001
1000
0100
1000
,
0001
0000
0010
0000
0001
0000
1000
0000
0010
0000
0100
0000
0001
0000
0100
0000
0020
0030
1000
0000
0002
0003
1000
0000
0200
0000
0000
0000
1300
0000
0100
0000
0010
0000
0100
0000
1000
0000
0001
0000
1000
0000
0010
0000
0200
0000
0000
0000
,
0310
1000
0000
0000
0000
0001
0100
0000
0000
0010
0000
1000
0000
0000
0100
0010
0000
0000
0002
0000
0000
0000
0000
0000
,
1003
0000
0100
0000
0010
0000
0100
0000
1000
0000
0100
0000
0010
0000
0100
0000
1000
0000
0100
0000
0010
0000
0100
0000
1000
0001
1000
0000
0010
0000
0100
0000
0001
0000
0100
0000
0020
0000
0000
0000
0000
0000
0000
0000
0000
0000
0130
0000
,
0001
0000
1000
0001
0000
0100
0010
0000
1000
0100
0000
0010
0001
0000
1000
0100
0010
0001
2000
0000
0000
0000
0000
3100
,
1000
0000
0001
0000
1000
0000
0010
0000
0100
0000
0010
0000
0100
0000
0001
0000
1000
0000
0100
0000
0010
0000
0001
0000
1000
0000
0000
0001
0000
0000
0000
0000
0000
0101
0000
0000
0000
0000
0000
1010
0000
0000
0000
0000
0000
0000
0010
0000
,
0100
0000
0010
1000
0000
0010
0100
0000
0001
1000
0000
0200
0000
0000
0310
0000
0000
0001
1000
0000
0100
0010
0000
0001
,
1000
0000
0000
0010
0000
0100
0000
0000
0010
0000
0000
1001
0000
0000
0010
1000
0000
0000
0002
0000
0000
0000
0000
0000
,
0023
0000
0000
0000
0000
0000
0000
0000
0000
0000
0000
0000
0000
0000
0000
0000
0000
0000
0030
0000
0100
1000
0000
0M01
,
0000
0000
1000
0010
0000
M100
0000
0000
0001
1000
0000
010M
0000
0000
0000
0010
0000
0000
0100
0000
0000
1000
0000
0000
,
4004
0000
0000
0000
0000
0000
0000
0000
3003
0000
0020
0000
,
0000
0000
0000
0230
0000
0000
0000
0000
0000
0301
0000
0100
0010
0000
0100
0001
0000
0000
1100
0000
0100
0000
0000
0010
,
0100
0000
0000
1000
0000
0000
0001
0000
0000
1000
0000
0010
0100
0000
0010
1000
0000
00M0
MM0M
0000
0010
0100
0000
0000
,
1001
0000
0000
0001
0000
0000
1100
0000
0100
0010
0000
0002
0000
0000
1003
0010
0000
0000
0110
0000
0100
0001
0000
0000
,
1000
0000
0100
0000
0000
0010
0001
0000
0000
1000
0000
0010
0000
0000
0100
0010
0000
0000
1010
0000
0010
1000
0100
0010
,
0100
0000
1000
0001
0000
0000
1000
0000
0010
0100
0000
0002
0000
0000
0013
0100
0000
0000
0011
0000
1000
0001
0000
0000
,
0100
0000
1000
0000
0000
0200
0000
0000
0000
0301
0000
1000
0000
0000
0100
0000
0000
0010
0001
0000
0100
0010
0100
0001
,
0010
0000
0000
0100
0000
0000
1100
0000
1000
0001
0000
0200
0000
0000
0310
1000
0000
0000
0110
0000
0001
0010
0000
0000
,
0100
0000
0010
0000
0000
0001
0010
0000
0000
1000
0000
0010
0000
0000
0001
1000
0000
0000
0101
0000
0010
1000
0001
0010
,
0100
0000
0000
0010
0000
0000
1100
0000
0010
0001
0000
2000
0000
0000
3100
1000
0000
0000
1001
0000
0010
0000
0000
0220
,
0000
0000
0000
0000
0000
0000
0330
0000
0000
0000
0000
0000
0010
0000
1000
0100
0000
0000
0010
0000
0100
1000
0010
0100
,
0002
0000
0000
0000
0000
1003
0100
0000
0010
0001
0000
2000
0000
0000
0000
0000
0000
0000
3000
0000
0010
0100
0000
0000
,
0010
0000
1000
0000
0000
0001
0100
0000
0000
0001
0000
2000
0000
0000
0000
0000
0000
0000
0000
0000
3100
0010
0001
1000
,
0010
0000
0000
0000
0000
0010
1000
0000
0001
0100
0000
0020
0000
0000
1030
0000
0000
0100
0010
0000
0001
1000
0000
0000
,
0100
0000
0010
0000
0000
0200
0000
0000
0000
1300
0000
0002
0000
0000
0000
0000
0000
0000
0000
0000
0103
0010
1000
0010
,
0200
0000
0000
0000
0000
0301
0010
0000
0100
1000
0000
1000
0001
0000
1000
0000
0000
0100
0010
0000
0100
1000
0000
0000
,
0001
0000
0100
0000
0000
1000
0100
0000
0000
0001
0000
0100
0000
0000
0010
0000
0000
0110
0000
0000
0010
1000
0100
0010
,
0100
0000
0000
0000
0000
1000
0010
0000
0100
0001
0000
1000
0100
0000
0010
0000
0000
0001
0100
0000
0010
0000
0000
2020
,
0000
0000
0000
0000
0000
0001
0000
0000
0000
0001
0000
0000
0000
0000
0000
0000
0000
0000
3030
0000
0000
0000
0000
0000
;

//---------------dance-single - M. Simmons----------------
#NOTES:
     dance-single:
     M. Simmons:
     Hard:
     8:
     0.476,0.000,0.159,0.293,0.514:
0000
0000
0000
0000
,
0000
0000
0000
0000
,
0000
0000
0000
0000
,
0000
0000
0000
0000
,
0010
0000
0000
1000
0000
0000
0001
0000
0010
0100
0000
1000
0000
0000
0000
0001
0000
0000
0100
0000
0001
1000
0000
0000
,
0200
0000
0000
0000
0000
0000
0320
0000
0000
0000
0000
0230
0000
0000
0000
1000
0000
0000
1300
0000
0000
0002
0000
0000
,
0013
0000
0000
0100
0000
0000
0010
0000
0001
1000
0000
0020
0000
0000
0000
0130
0000
0000
0100
0000
0010
1000
0000
0000
,
0001
0000
0100
0000
0000
2000
0000
0000
0000
3100
0000
0002
0000
0000
0000
0013
0000
0000
0100
0000
0000
0110
0000
0000
,
2001
0000
0000
0001
0000
0000
3001
0000
0100
0001
0000
1000
0000
0000
0000
0100
0000
0000
0100
0000
0010
0001
0000
0000
,
1000
0000
0001
0000
0000
1000
0001
0000
0000
1000
0000
0002
0000
0000
0000
0000
0000
0000
0013
0000
0000
0200
0000
0000
,
0310
0000
0000
0001
0000
0000
1000
0000
0100
1000
0000
0010
0000
0000
0000
0001
0000
0000
0001
0000
0010
1000
0000
2200
,
0000
0000
0000
3300
0100
0100
0100
0000
,
0010
0000
0000
0001
0000
0000
1000
0000
0000
0010
0000
0100
0010
0000
0010
0100
0000
0000
0001
0000
0000
1000
0000
0000
,
0100
0000
0000
1000
0000
0000
0001
0000
0000
0010
0000
0001
0010
0000
0010
0100
0000
0000
0010
0000
0000
0010
0000
0000
,
0001
0000
0000
1000
0000
0000
0010
0000
0000
0100
0000
0001
1000
0000
1000
0100
0000
0000
1000
0000
0000
0010
0000
0000
,
0100
0000
0000
0010
0000
0000
0100
0000
0000
0001
0000
0010
0100
0000
0100
0010
0000
0000
0001
0000
0000
1000
0000
0000
,
1001
0000
0000
0001
0000
0100
0000
0000
0001
0000
0000
1000
0000
0000
0100
0010
0000
0000
0002
0000
0000
0000
0000
0000
,
1003
0000
0000
0100
0000
0010
0000
0000
0001
0000
0000
1000
0000
0000
0010
0100
0000
0000
0120
0000
0000
0100
0000
0000
,
0130
0000
0000
0001
0000
1000
0000
0000
0001
0000
0000
0100
0000
0000
0010
1000
0000
0000
1001
0000
0000
0000
0000
0000
,
0001
0000
0000
0010
0000
0100
0000
0000
0010
0000
0000
0001
0000
0000
1000
0100
0000
0000
0002
0000
0000
0103
0000
0000
,
1000
0001
0100
0001
1000
0100
0010
0001
1000
0010
0100
0010
,
4000
0001
0000
0010
0000
0001
0000
0100
0000
0010
0000
3001
,
1000
0001
0000
0010
0000
0000
0100
0010
0000
0000
0000
0110
0000
0000
0000
0000
,
0001
1000
0010
0100
2002
0000
0000
3003
,
0001
0000
0000
1000
0000
0000
0100
0000
0000
0010
0000
0000
0001
0000
0000
1000
0100
1000
0100
0000
0000
0000
0000
0010
,
0100
0000
0000
0010
0000
0000
0001
0000
0000
0100
0000
0000
1000
0000
0100
0000
0000
0001
0000
0000
1000
0000
0000
0000
,
0200
0000
0000
0010
0000
0000
0001
0000
0000
0310
0000
1000
0000
0000
0100
0000
0000
0010
0200
0000
0000
1000
0000
0000
,
0310
0000
0000
0001
0000
1000
0000
0000
0010
0000
0000
0001
0000
0000
0000
0000
0000
0000
0110
0000
0000
0000
0000
0000
,
2002
0000
0000
0000
0000
0000
0000
0000
0000
0000
0000
0000
0000
0000
0000
0000
0000
0000
3003
0000
0001
0100
0000
0010
,
0000
0000
0100
0010
0000
1000
0000
0000
0010
0100
0000
0001
0000
0000
0100
0010
0000
0000
0100
0000
0000
0100
0000
0000
,
0440
0000
0000
0000
0000
0000
0000
0000
0000
0000
0000
0000
0000
0000
0000
0000
0000
0330
0000
0000
2000
0000
0000
0000
,
0000
0002
0000
0000
0000
3003
0000
0000
,
1001
0000
0000
0001
0000
0000
0010
0000
0000
0100
0000
1000
0100
0000
0100
1000
0000
0000
0MM0
0000
0001
1000
0000
0000
,
0010
0000
0000
0100
0000
0000
0001
0000
1000
0100
0000
0020
0000
0000
0000
0031
0000
0000
1000
0000
0100
1000
0000
0000
,
0002
0000
0000
0000
0000
0000
2003
0000
0000
0000
0000
3200
0000
0000
0000
0000
0000
0000
0300
0000
0000
0010
0000
0000
,
0110
0000
0000
0100
0000
0000
1000
0000
0001
0100
0000
0010
0000
0000
0000
0100
0000
0000
0100
0000
0001
1000
0000
0000
,
0100
0000
0100
0000
0000
0020
0000
0000
0000
0000
0000
0031
0000
0000
0000
1000
0000
0000
0010
0000
0000
0100
0000
0000
,
1001
0000
0000
0001
0000
0000
0100
0000
0001
0010
0000
0100
0000
0000
0000
0010
0000
0000
0010
0000
0001
1000
0000
0000
,
0100
0000
0010
0000
0000
0100
0001
0000
0000
0100
0000
0100
0000
0000
0000
0000
0000
0000
1001
0000
0000
0002
0000
0000
,
1003
0000
0000
0010
0000
0000
0100
0000
0010
1000
0000
0001
0000
0000
0000
1000
0000
0000
1000
0000
0100
1000
0000
0200
,
0000
0000
0000
0300
,
0110
0000
0000
0000
0000
0010
0001
0000
0000
1000
0000
0000
0010
0000
0000
0000
0000
0100
0010
0000
0000
0100
0000
0000
,
0002
0000
0000
0000
0000
0000
0023
0000
0000
0000
0000
0230
0000
0000
0000
0000
0000
0000
1300
0000
0000
0000
0000
0000
,
0010
0000
0000
0000
0000
0100
0010
0000
0000
1000
0000
0000
0001
0000
0000
0000
0000
0010
0100
0000
0000
1000
0000
0000
,
0100
0000
0010
0000
0000
0001
0000
0000
0000
0010
0000
0100
0000
0000
0000
0000
0000
0000
1100
0000
0000
0000
0000
0000
,
1001
0000
0000
0000
0000
0001
0100
0000
0000
0010
0000
0000
1000
0000
0000
0000
0000
1000
0100
0000
0000
0010
0000
0000
,
0001
0000
0010
0000
0000
1000
0010
0000
0000
0001
0000
1000
0000
0000
0001
0000
0000
0001
0000
0000
0000
1000
0000
0000
,
1010
0000
0000
0010
0000
0000
0100
0000
0010
1000
0000
0001
0000
0000
0000
0010
0000
0000
0010
0000
0100
0000
0000
2000
,
0000
0000
0000
0000
0000
0100
0000
0000
0000
0200
0000
0000
0000
0000
0000
0000
0000
0000
0000
3300
0000
0000
0000
0000
;

//---------------dance-single - M. Simmons----------------
#NOTES:
     dance-single:
     M. Simmons:
     Medium:
     5:
     0.302,0.000,0.084,0.209,0.109:
0000
0000
0000
0000
,
0000
0000
0000
0000
,
0000
0000
0000
0000
,
0000
0000
0000
0000
,
0010
0000
1000
0000
0100
0010
0001
0000
,
1000
0000
0001
0000
0100
0010
1000
0000
,
0001
0000
0100
0000
0001
1000
0100
0000
,
0010
0000
0100
0000
0010
0001
0020
0001
,
0031
0000
1000
0000
0100
1000
0010
0000
,
0100
0000
0010
0000
0100
0001
0010
0000
,
0100
0000
0010
0000
0100
1000
0010
0000
,
0100
0001
1000
0100
1000
0000
1001
0000
,
0001
1000
0100
0010
,
0001
1000
0010
0100
,
0010
1000
0001
0100
,
0001
0010
0100
0010
,
0110
0000
0100
0000
1000
0001
1000
0000
,
0010
0000
0100
0000
0001
1000
0001
0000
,
0100
0000
0010
0000
1000
0001
1000
0000
,
0100
0000
0010
0000
0001
1000
0001
0000
,
0100
0000
0010
0000
1000
0000
0001
0000
0010
0000
0100
0000
,
1000
0010
1000
0001
0100
0001
1000
0100
,
0010
0100
0000
1000
0000
0000
1000
0002
0000
0000
0000
0200
0000
0000
0303
0000
,
0001
1000
0001
1000
0220
0000
0000
0330
,
0010
1000
0010
0100
0002
0000
0013
0000
,
0100
0000
0000
0000
1000
0000
0000
0000
0010
0100
0000
0010
0000
0100
0000
0000
,
0001
0000
0000
0001
0000
0000
1000
0000
0000
0100
0000
0010
0000
0000
0100
0000
0000
1000
0100
0000
0000
0010
0000
0000
,
0002
0203
0310
0110
,
2002
0000
0000
0000
0000
0000
3003
1000
,
0001
1000
0001
1000
0001
0010
0010
0010
,
0220
0000
0000
0000
0000
0000
0000
0000
0330
0000
0200
0000
,
0000
2300
0000
0000
3001
1000
0001
0000
,
0010
0000
0100
0000
0010
0001
0000
1000
,
0010
0000
0100
0000
0010
1000
0010
0000
,
0100
0000
0001
0000
1000
0100
1000
0000
,
0100
0000
0010
0000
0001
0010
0001
0000
,
1000
0000
0010
0000
0100
0001
0100
0001
,
0100
0000
0010
0000
1000
0100
0010
0000
,
0100
0000
1000
0000
0001
0100
0010
0000
,
1000
0000
0010
0000
0100
0001
0010
0000
,
0200
2300
3001
1001
,
0020
0000
0000
0000
0000
0000
0000
0000
0130
0000
0000
0100
0000
0000
0000
0000
0000
0000
0000
0000
0000
0000
0000
0000
,
0001
0000
0000
0000
0000
0000
1000
0000
0000
0000
0000
0001
0000
0000
0000
0000
0000
0000
0000
0000
0000
0000
0000
0000
,
0020
0000
0000
0000
0000
0000
0000
0000
0100
0000
0000
0130
0000
0000
0000
0000
0000
0000
0000
0000
0000
0000
0000
0000
,
1000
0000
0001
0000
0100
0010
0100
0000
,
1002
0000
0000
0000
0000
0000
0000
0000
1000
0000
0000
1003
0000
0000
0000
0000
0000
0000
0001
0000
0000
0000
0000
0000
,
0020
0000
0000
0000
0000
0000
0230
0000
0000
0000
0000
1300
0000
0000
0000
0000
0000
1001
0000
0000
0000
0000
0000
0000
,
0020
0000
0000
0000
0000
0000
2030
0000
0000
0000
0000
0000
3200
0000
0000
0000
0000
0000
0310
0000
0000
0000
0000
0012
,
0000
0000
0000
0000
0000
1000
0000
0000
0000
1003
0000
0000
0000
0000
0000
0000
0000
0000
0000
0000
0000
0000
0000
0000
;

//---------------dance-single - M. Simmons----------------
#NOTES:
     dance-single:
     M. Simmons:
     Easy:
     3:
     0.215,0.000,0.084,0.192,0.000:
0000
0000
0000
0000
,
0000
0000
0000
0000
,
0000
0000
0000
0000
,
0000
0000
0000
0000
,
0001
0010
0100
0010
,
0001
1000
0010
0100
,
0001
0100
0010
1000
,
0100
0010
0100
0010
,
0001
1000
0010
0100
,
0001
0010
0001
1000
,
0100
0010
0100
1000
,
0010
0001
0010
0110
,
0110
1000
0100
1000
,
0001
0100
0001
0100
,
0010
1000
0010
1000
,
0100
0010
0100
0010
,
1001
0020
0000
0000
,
0230
0302
0203
0000
,
0000
0320
0000
0000
,
2030
0000
3100
0010
,
0001
0001
1000
1000
,
0001
0010
0100
1000
,
0010
0100
0001
1001
,
0220
0000
0000
0330
,
0010
1000
0001
1001
,
0001
0010
0100
0100
,
0100
1000
0010
0010
,
0200
0000
0301
1000
,
2002
0000
0003
0000
,
3001
1000
0001
1000
,
0220
0000
0000
0330
,
0000
1001
0001
0001
,
0000
1000
0200
0310
,
0001
1000
0010
0100
,
0001
0100
0010
1000
,
0100
0010
0001
1000
,
0010
0100
0001
0010
,
0001
1000
0100
1000
,
0010
0010
0010
0100
,
0001
1000
0100
1000
,
0001
0010
0100
1001
,
0020
0000
0230
0000
,
0301
0001
0001
0000
,
2000
0000
3200
0000
,
1300
1000
1000
0000
,
0020
0000
0230
0000
,
0310
0010
0010
0000
,
2000
0000
3200
0000
,
0320
0000
0000
0030
;

//---------------dance-single - M. Simmons----------------
#NOTES:
     dance-single:
     M. Simmons:
     Beginner:
     1:
     0.096,0.000,0.075,0.000,0.000: // measure 1
0000
0000
0000
0000
,  // measure 2
0000
0000
0000
0000
,  // measure 3
0000
0000
0000
0000
,  // measure 4
0000
0000
0000
0000
,  // measure 5
1000
0000
0100
0000
,  // measure 6
0010
0000
0000
0000
,  // measure 7
0001
0000
1000
0000
,  // measure 8
0010
0000
0000
0000
,  // measure 9
0100
0000
0010
0000
,  // measure 10
0100
0000
0000
0000
,  // measure 11
0001
0000
1000
0000
,  // measure 12
0001
0000
0000
1001
,  // measure 13
1000
0000
0000
0000
,  // measure 14
0010
0000
0000
0000
,  // measure 15
0100
0000
0000
0000
,  // measure 16
0001
0000
0000
0000
,  // measure 17
0110
0000
0000
0000
,  // measure 18
0100
0000
0001
0000
,  // measure 19
0000
1001
0000
0000
,  // measure 20
1000
0000
0100
0000
,  // measure 21
0010
0000
0000
0001
,  // measure 22
0001
0000
1000
0000
,  // measure 23
0110
0000
0000
0000
,  // measure 24
0100
0100
0100
0000
,  // measure 25
0010
0000
1000
0000
,  // measure 26
0001
0000
0010
0000
,  // measure 27
0110
0000
0100
0000
,  // measure 28
1000
0000
0000
0000
,  // measure 29
1001
0000
0000
0000
,  // measure 30
0001
0001
0001
0000
,  // measure 31
1001
0000
0000
0000
,  // measure 32
1000
0000
0000
0000
,  // measure 33
0100
0100
0010
0000
,  // measure 34
0010
0000
0001
0000
,  // measure 35
1000
0000
0000
0000
,  // measure 36
0010
0000
0100
0000
,  // measure 37
0010
0000
0000
0000
,  // measure 38
0100
0000
0001
0000
,  // measure 39
1000
0000
0000
0000
,  // measure 40
0100
0000
1000
0000
,  // measure 41
0100
0000
0000
0000
,  // measure 42
0010
0000
0010
0000
,  // measure 43
0001
0000
0000
0000
,  // measure 44
1000
0000
1000
0000
,  // measure 45
0010
0000
0000
0000
,  // measure 46
0100
0000
0100
0000
,  // measure 47
0010
0000
0000
0000
,  // measure 48
1001
0000
0001
0000
,  // measure 49
1001
0000
0000
0000
;

//---------------dance-double - M. Simmons----------------
#NOTES:
     dance-double:
     M. Simmons:
     Challenge:
     10:
     0.677,0.000,0.435,0.276,1.000:
00000000
00000000
00000000
00000000
,
00000000
00000000
00000000
00000000
,
00000000
00000000
00000000
00000000
,
00000000
00000000
00000000
00000000
00000000
00000000
00000000
00000000
00000000
00000000
00000000
00000000
00000000
00000000
00000000
00000000
00000000
00000000
00000000
00000000
00010000
00000100
00010000
00001000
,
00100000
00000000
00000000
00100000
00000000
00000000
01100000
00000000
01000000
10000000
00000000
00010000
00000000
00000000
01000000
00100000
00000000
00000000
01010000
00000000
00010000
00100000
00000000
00000000
,
01000000
00000000
00010000
00000000
00000000
00001000
00000100
00000000
00000000
00000010
00000000
00000001
00000000
00000000
00000010
00000000
00000000
00001000
00000100
00000000
00001000
00000001
00000100
00000010
,
00000100
00000000
00000000
00000010
00000000
00000000
00010010
00000000
00010000
00000100
00000000
00000010
00000000
00000000
00001000
00010000
00000000
00000000
00011000
00000000
00001000
00100000
00000000
00000000
,
00001000
00000000
00010000
00000000
00000000
00101000
00000000
00000000
00000000
00001000
00000000
00001000
00000000
00000000
00010000
00000000
00000000
00000100
00000010
00000000
00000100
00010000
00001000
01000000
,
00100000
00000000
01000000
00010000
00000000
00000000
11000000
00000000
01000000
00100000
00000000
00001000
00000000
00000000
00010000
00000010
00000000
00000000
00010010
00000000
00000010
00001000
00000000
00000000
,
00000100
00000000
00010000
00000000
00000000
00010000
00001000
00000000
00000000
00001000
00000000
01000000
00000000
00000000
00100000
00000000
00000000
11000000
00000000
00000000
01000000
10000000
00010000
01000000
,
00001000
00000000
00000000
00010000
00000000
00000000
00010010
00000000
00000001
00000010
00000000
00000110
00000000
00000000
00000100
00001000
00000000
00000000
00000100
00000000
00010000
00000000
00000000
00010010
,
00000000
00000000
00000010
00000100
00000000
00000000
00000110
00000000
00000000
00000010
00000000
00010000
00000100
00000000
00000010
00000100
00000000
00000000
00020000
00000000
00000000
00000000
00000000
00000000
,
00031000
00000000
01000000
00010000
00000000
00000000
01010000
00000000
00000000
10000000
00000000
00000000
01000000
00000000
00100000
00001000
00000000
00000000
00201000
00000000
00000000
00000000
00000000
00000000
,
00301000
00000000
00010000
00000100
00000000
00000000
00000010
00000000
00000000
00000100
00000000
00001000
00000001
00000000
00001000
00000010
00000000
00000000
00010020
00000000
00000000
00000000
00000000
00000000
,
00010030
00000000
00000000
00001000
00000000
00000000
01000000
00000000
00000000
00001000
00000000
00100000
01000000
00000000
00100000
00001000
00000000
00000000
02010000
00000000
03010000
10000000
00000000
00000000
,
01000000
00000000
00000000
01000000
00000000
00000000
00100000
00000000
00000000
00001000
00000000
00010000
00000100
00000000
00000100
00010000
00000000
00000000
00021000
00000000
00000000
00030100
00000000
00000100
,
00001000
00000000
00000000
00000010
00000000
00000000
00010010
00000000
00000000
00010000
00000000
00001000
00000000
00000000
00000100
00000010
00000000
00000000
00010020
00000000
00000000
00000000
00000000
00000000
,
00010030
00000000
00000000
00001000
00000000
00000000
01000000
00000000
00000000
00010000
00000000
00100000
00000000
00000000
01000000
10000000
00000000
00000000
10020000
00000000
00000000
00000000
00000000
00000000
,
00130000
00000000
00000000
01000000
00000000
00000000
00010000
00000000
00000000
00001000
00000000
00000100
00000000
00000000
00000010
00000001
00000000
00000000
00001020
00000000
00000000
00000000
00000000
00000000
,
00010030
00000000
00000000
00000010
00000000
00000000
00000100
00000000
00000000
00001000
00000000
00010000
00000000
00000000
00100000
01000000
00000000
00000000
00010000
00000000
10000000
00010000
00000000
00010000
,
10000000
00000000
01000000
00000000
00100000
00000000
00001000
00000000
00010000
00000000
00000100
00000000
00000010
00000000
00000001
00000000
00000010
00000000
00000100
00010000
00001000
00010000
00000010
00001000
,
00000100
00010000
00000010
00001000
00000100
00010000
00001000
01000000
00100000
01000000
00010000
10000000
01000000
00100000
01000000
10000000
00010000
01000000
00100000
01000000
00010000
00100000
01000000
00000000
,
11000000
00000000
00000000
01000000
00000000
00000000
00000000
00000000
00000000
00000000
00100000
00000000
00010000
00000000
00000000
00000000
00000000
00000000
00100000
00000000
00000000
00001000
00000000
00000000
00000000
00000000
00000000
00000000
00000000
00000000
00000000
00000000
00000000
00011000
00000000
00000000
00000000
00000000
00000000
00000000
00000000
00000000
00000000
00000000
00000000
00000000
00000000
00000000
,
00000010
00000000
00001000
00000000
00000010
00000000
00010000
00000000
00000010
00000000
00001000
00000000
00000010
00000000
00010000
00000000
00000010
00000000
00001000
00000000
00000010
00000000
00010000
00000000
00000010
00000100
00000010
00000000
00000100
00000000
00000001
00000000
00001000
00000000
00000100
00000000
00000020
00000000
00000000
00000000
00000000
00000000
00000000
00000000
00000000
00000000
00000000
00000000
,
00000130
00000000
00010000
00001000
00000000
00001000
00100000
00000000
00100000
01000000
00000000
01000000
00100000
00000000
00001000
00010000
00000100
00001000
00000100
00000000
00000000
00000000
00000000
00001000
,
00000100
00000000
00010000
00000000
00001000
00000000
00100000
00000000
01000000
00000000
00100000
00000000
01000000
00000000
10000000
00000000
00010000
00000000
01000000
00000000
00100000
00000000
01000000
00000000
00010000
00000000
00000000
00000000
01010000
00000000
00000000
00000000
00000000
01001000
00000000
00000000
00000000
00000000
00000000
00020000
00000000
00000000
00000000
00000000
00000000
00000000
00000000
00000000
,
00030100
00000000
00001000
00000010
00000000
00000100
00000001
00000000
00000010
00000100
00000000
00001100
00000000
00000000
00001010
00000000
00000000
00000010
00000100
00000000
00000010
00001000
00000000
00000100
,
00010000
00000000
00000000
01000000
00000000
00100000
00000000
00000000
00010000
00000000
00000000
10000000
00000000
00000000
00000000
00000000
00000000
00000000
10010000
00000000
00000000
00000000
00000000
00000000
,
00022000
00000000
00000000
00000000
00000000
00000000
00000000
00000000
00000000
00000000
00000000
00000000
00000000
00000000
00000000
00033000
00000000
00000000
00000000
00000000
00010000
00000100
00000000
00000010
,
00000000
00000000
00000100
00010000
00000000
00100000
00000000
00000000
01000000
00001000
00000000
00000010
00000000
00000000
00000000
00011000
00000000
00000000
00001100
00000000
00000000
00011000
00000000
00000000
,
00220000
00000000
00000000
00000000
00000000
00000000
00000000
00000000
00000000
00000000
00000000
00000000
00000000
00000000
00000000
00330000
00000000
00000000
00000000
00000000
00200000
00000000
00000000
00000000
,
00000000
00002000
00000000
00000000
00303000
00000000
00M0M000
00000000
,
00001000
00000000
00010000
00000100
00000000
00000000
00010000
00000000
00000000
00001000
00000000
01000000
00100000
00000000
00100000
10000000
00000000
000M0000
MMM00000
00000000
00010000
10000000
00000000
00000000
,
11000000
00000000
00100000
00001000
00000000
00000000
00010000
00000000
00001000
00010000
00000000
00000010
00000000
00000000
00000100
00000001
00000000
00000000
00001001
00000000
00000001
00000010
00000000
00000000
,
00000100
00000000
00010000
00000000
00000000
00100000
01000000
00000000
00000000
10000000
00000000
01000000
00000000
00000000
00010000
00100000
00000000
00000000
00101000
00000000
00001000
00010000
00001000
00100000
,
00010000
00000000
00000000
01000000
00000000
00000000
01100000
00000000
10000000
00010000
00000000
00200000
00000000
00000000
01300000
10000000
00000000
00000000
10010000
00000000
00010000
01000000
00000000
00000000
,
00001000
00000000
00010000
00000000
00000000
00000200
00000000
00000000
00000000
00010300
00000000
00001000
00000000
00000000
00010000
00000100
00000000
00000000
00010010
00000000
00010000
00000010
00000100
00000001
,
00000010
00000000
00000000
00000100
00000000
00000000
00010100
00000000
00001000
00100000
00000000
02000000
00000000
00000000
13000000
00010000
00000000
00000000
01010000
00000000
00001000
00000100
00000000
00000000
,
00000010
00000000
00010000
00000000
00000000
00010000
01000000
00000000
00000000
00010000
00000000
00001000
00000000
00000000
00000100
00000000
00000000
00000110
00000000
00000000
00000010
00000100
00000001
00000010
,
00000100
00000000
00000000
00000100
00000000
00000000
00011000
00000000
00001000
01000000
00000000
00200000
00000000
00000000
01300000
00100000
00000000
00000000
10100000
00000000
00010000
00000000
00000000
20020000
,
00000000
00000000
00000000
00000000
00000000
00000000
00000000
00000000
00000000
00000000
30030000
00010000
00100000
00000000
01000000
00100000
00000000
00000000
01100000
00000000
01000000
10000000
00100000
01000000
,
00020000
00000000
00000000
00000000
00030000
00010000
00100000
00000000
01000000
00100000
00000000
00002000
00000000
00000000
00000000
00000000
00000000
00000000
00000000
00003000
00001000
00000100
00000000
00000000
,
00000010
00000000
00001010
00000000
00000000
00000100
00010000
00000000
00000000
00001000
00000000
01000000
00000000
00000000
00100000
00000000
00000000
01000000
00100000
00000000
10000000
00001000
00010000
00001000
,
00200000
00000000
00000000
00000000
00000000
00301000
01000000
00000000
00001000
00010000
00000000
00020100
00000000
00000000
00000000
00000000
00030000
00010000
00000010
00000000
00000100
00000010
00000000
00000000
,
00010000
00000000
00001000
00000000
00000000
00020000
00000000
00000000
00030000
00001000
00000000
00010000
00000000
00000000
00000100
00000000
00000000
00010000
00001000
00000000
00001000
01000000
00010000
00100000
,
02000000
00000000
00000000
00000000
03000000
01000000
00010000
00000000
00001000
00010000
00000000
00020100
00000000
00000000
00000000
00000000
00030000
00010000
00001000
00000000
00000100
00000010
00000000
00000000
,
00010000
00000000
00001000
00000000
00000000
00010000
00001000
00000000
00000000
00010000
00000000
00100000
00000000
00000000
10000000
00000000
00000000
10010000
00000000
00000000
00010000
10000000
01000000
10000000
,
00020000
00000000
00000000
00000000
00030000
00010000
01000000
00000000
00001000
00010000
00000000
00020100
00000000
00000000
00000000
00000000
00030000
00010000
00000100
00000000
00000010
00000000
00000000
00001002
,
00000000
00000000
00000000
00000000
00000000
00000100
00000000
00000000
00000000
00000020
00000000
00000000
00000000
00000000
00000000
00000000
00000000
00000000
00000000
00000033
00000000
00000000
00000000
00000000
;

//---------------dance-double - M. Simmons----------------
#NOTES:
     dance-double:
     M. Simmons:
     Hard:
     8:
     0.492,0.000,0.384,0.226,0.522:
00000000
00000000
00000000
00000000
,
00000000
00000000
00000000
00000000
,
00000000
00000000
00000000
00000000
,
00000000
00000000
00000000
00000000
,
00011000
00000000
00000000
00001000
00000000
00000000
01000000
00000000
00100000
01000000
00000000
00002000
00000000
00000000
00000000
00013000
00000000
00000000
00010000
00000000
00000100
00001000
00000000
00000000
,
00000020
00000000
00000000
00000000
00000000
00000000
00000230
00000000
00000000
00000000
00000000
00000310
00000000
00000000
00000000
00001000
00000000
00000000
00001010
00000000
00000000
00000010
00000000
00000000
,
00010010
00000000
00000000
00000000
00000000
00000010
00010000
00000000
00000000
00001000
00000000
00000000
00200000
00000000
00000000
00000000
00000000
01300000
00100000
00000000
00000000
01000000
00000000
00000000
,
10000000
00000000
00000000
00000000
00000000
10010000
00000000
00000000
00000000
00000000
00000000
00021000
00000000
00000000
00000000
00000000
00000000
00000000
00030100
00000000
00000000
00010000
00000000
00000000
,
00001000
00000000
00000000
00000000
00000000
00000000
00101000
00000000
00001000
01000000
00000000
00020000
00000000
00000000
00000000
00000000
00000000
00130000
01000000
00000000
00000000
00100000
00000000
00000000
,
00001000
00000000
00010000
00000000
00000000
00001000
00010000
00000000
00000000
00000100
00000000
00010000
00000000
00000000
00000010
00000000
00000000
00010010
00000000
00000000
00000000
00000010
00000000
00000000
,
00000110
00000000
00000000
00000010
00000000
00000000
00010010
00000000
00010000
00001000
00000000
00200000
00000000
00000000
00000000
01300000
00000000
00000000
11000000
00000000
10000000
00000000
00000000
10020000
,
00000000
00100000
00130000
01000000
00100000
00001000
00101000
00000000
,
01000000
10000000
00010000
01000000
00100000
01000000
01001000
00000000
,
00001000
00010000
00000100
00000010
00000001
00001000
00001010
00000000
,
00000010
00000100
00000010
00010000
00000100
00010000
00010010
00000000
,
00000010
00000100
00000001
00001000
00000100
00010000
00011000
00000000
,
00011000
00000000
00201000
00000000
00000000
00000000
00000000
01300000
,
10000000
00000000
00000000
00000000
00000000
00000000
00000000
00000000
00000000
00100000
00000000
00000000
00000000
00000000
00000000
00000000
00000000
00000000
01000000
00000000
00000000
00000000
00020000
00000000
00000000
00000000
00000000
00000000
00000000
00000000
00000000
00000000
00000000
00000000
00000000
00000000
00130000
00000000
00000000
00000000
00000000
00000000
00000000
00000000
00000000
00000000
00000000
00000000
,
01000000
00000000
01100000
00000000
10000000
00010000
10000000
00010000
,
00100000
00000000
00000000
00000000
00000000
00000000
00000000
00000000
00000000
00001000
00000000
00000000
00000000
00000000
00000000
00000000
00000000
00000000
00010000
00000000
00000000
00000010
00000000
00000000
00000000
00000000
00000000
00000000
00000000
00000000
00000000
00000000
00000000
00000000
00000000
00000000
00000110
00000000
00000000
00000000
00000100
00000000
00000010
00000000
00000000
00000000
00000100
00000000
,
00000010
00000000
00000100
00000000
00000010
00000000
00001000
00000000
00000100
00000000
00010000
00000000
00000010
00000000
00010000
00000000
00000100
00000000
00010000
00001000
00010000
00001000
00010000
00000000
,
00001000
00000000
01000000
00000000
00001000
00000000
00100000
00000000
01000000
00000000
00010000
00000000
00001000
00000000
01000000
00000000
00100000
00000000
10000000
00010000
10000000
00010000
10000000
00000000
,
00100000
00000000
00000000
00000000
01000000
00000000
00000000
00000000
00000000
00010000
00000000
00000000
00000000
00000000
00000000
00000000
00000000
00000000
00100000
00000000
00000000
00001000
00000000
00000000
00000000
00000000
00000000
00000000
00000000
00000000
00000000
00000000
00000000
00011000
00000000
00000000
00000000
00000000
00000000
00000000
00000000
00000000
00000000
00000000
00000000
00000000
00000000
00000000
,
00010000
00001000
00010000
00001000
00010000
00001000
00010000
00001000
00010000
00001000
00010000
00004000
00040000
00000000
00000000
00000000
00000000
00000000
00033000
00000000
00000000
00000000
00000000
00000000
,
00000100
00000000
00000000
00010000
00000000
00000000
00000010
00000000
00000000
00000100
00000000
00000000
00000010
00000000
00000000
00000100
00000010
00000100
00000010
00000000
00000000
00000000
00000000
00001000
,
00000010
00000000
00000000
00000100
00000000
00000000
00000001
00000000
00000000
00001000
00000000
00000000
00000100
00000000
00000100
00000000
00000000
00010100
00000000
00000000
00010010
00000000
00000000
00000000
,
00000100
00000000
00000000
00000100
00000000
00000000
00010000
00000000
00000000
00001000
00000000
01000000
00000000
00000000
00100000
00000000
00000000
10000000
01000000
00000000
00000000
01000000
00000000
00000000
,
01000000
00000000
00000000
00100000
00000000
00001000
00000000
00000000
00101000
00000000
00000000
00110000
00000000
00000000
00000000
00000000
00000000
00000000
01100000
00000000
00000000
00000000
00000000
00000000
,
02002000
00000000
00000000
00000000
00000000
00000000
00000000
00000000
00000000
00000000
00000000
00000000
00000000
00000000
00000000
03003000
00000000
00000000
00000000
00000000
00001000
00010000
00000000
00000100
,
00000000
00000000
00010000
00001000
00000000
01000000
00000000
00000000
00001000
00010000
00000000
00000010
00000000
00000000
00000000
00010000
00000000
00000000
00001000
00000000
00000000
00100000
00000000
00000000
,
00022000
00000000
00000000
00000000
00000000
00000000
00000000
00000000
00000000
00000000
00000000
00000000
00000000
00000000
00000000
00033000
00000000
00000000
00000000
00000000
00000200
00000000
00000000
00000000
,
00000000
00000320
00000000
00000000
00000000
00000000
00000030
00000000
,
00000001
00000000
00000000
00001000
00000000
00000000
00000010
00000000
00000000
00000100
00000000
00000010
00001000
00000000
00001000
00000001
00000000
0000M000
0000000M
00000000
00000001
00001000
00000000
00000000
,
00000100
00000000
00000000
00010000
00000000
00000000
00011000
00000000
00001000
01000000
00000000
00020000
00000000
00000000
00000000
00100000
00000000
00000000
00130000
00000000
01000000
10000000
00000000
00000000
,
00010000
00000000
01000000
00000000
00000000
00010000
01000000
00000000
00000000
00001000
00000000
00010000
00000000
00000000
00000100
00000000
00000000
00010000
00000100
00000000
00000000
00000010
00000000
00000000
,
00000011
00000000
00000000
00000100
00000000
00000000
00010000
00000000
00001000
01000000
00000000
00200000
00000000
00000000
00000000
01000000
00000000
00000000
01300000
00000000
00100000
01000000
00000000
00000000
,
00010000
00000000
10000000
00000000
00000000
00020000
00000000
00000000
00000000
00100000
00000000
00130000
00000000
00000000
00000000
00000000
00000000
00000000
01100000
00000000
00000000
00100000
00000000
00000000
,
00001000
00000000
00000000
00000000
00000000
00010000
00000100
00000000
00000000
00010000
00000000
00000000
00010010
00000000
00000000
00000000
00000000
00000010
00010000
00000000
00000000
00001000
00000000
00000000
,
00001000
00000000
00100000
00000000
00000000
01000000
00100000
00000000
00000000
01000000
00000000
01100000
00000000
00000000
00100000
00000000
00000000
01100000
00000000
00000000
00000000
00100000
00000000
00000000
,
00101000
00000000
00000000
00000000
00000000
00001000
00010000
00000000
00000010
00001000
00000000
00000002
00000000
00000000
00000000
00000000
00000003
00000010
00000100
00000000
00001000
00000000
00000000
00002200
,
00000000
00000000
00000000
00003300
00000100
00010000
00001000
00000000
,
00101000
00000000
00000000
00000000
00000000
00010000
10000000
00000000
00000000
01000000
00000000
00000000
11000000
00000000
00000000
00000000
00000000
00100000
00001000
00000000
00000000
00010000
00000000
00000000
,
00002000
00000000
00000000
00000000
00000000
00000000
00023000
00000000
00000000
00000000
00000000
00030100
00000000
00000000
00000000
00000000
00000000
00000000
00010100
00000000
00000000
00010000
00000000
00000000
,
00000010
00000000
00000000
00000000
00000000
00000100
00000010
00000000
00000000
00001000
00000000
00000000
00000001
00000000
00000000
00000000
00000000
00000010
00000100
00000000
00000000
00010000
00000000
00000000
,
00001000
00000000
00010000
00000000
00000000
00001000
00000000
00000000
00000000
01000000
00000000
00100000
00000000
00000000
01000000
00000000
00000000
00000000
01100000
00000000
00000000
00100000
00000000
00000000
,
10100000
00000000
00000000
00000000
00000000
10000000
01000000
00000000
00000000
00100000
00000000
00000000
00110000
00000000
00000000
00000000
00000000
00010000
00100000
00000000
00000000
01000000
00000000
00000000
,
00020000
00000000
00000000
00000000
00000000
00000000
00032000
00000000
00000000
00000000
00003000
00000100
00000000
00000000
00000010
00000000
00000000
00001010
00000000
00000000
00000000
00000010
00000000
00000000
,
00000110
00000000
00000000
00000000
00000000
00000100
00000001
00000000
00000000
00001000
00000000
00000000
00001100
00000000
00000000
00000000
00000000
00000100
00010000
00000000
00001000
00000000
00000000
00201000
,
00000000
00000000
00000000
00000000
00000000
01000000
00000000
00000000
00000000
01300000
00000000
00000000
00000000
00000000
00000000
00000000
00000000
00000000
00000000
00000000
00000000
00000000
00000000
00000000
;

//---------------dance-double - M. Simmons----------------
#NOTES:
     dance-double:
     M. Simmons:
     Medium:
     5:
     0.328,0.000,0.201,0.159,0.163:
00000000
00000000
00000000
00000000
,
00000000
00000000
00000000
00000000
,
00000000
00000000
00000000
00000000
,
00000000
00000000
00000000
00000000
,
10000000
00000000
01000000
00100000
00010000
00000000
01000000
00001000
,
00020000
00000000
00000000
00000000
00000000
00000000
00030100
00000000
00000000
00000000
00000000
00010100
00000000
00000000
00000000
00000000
00000000
00000000
00000100
00000000
00000000
00000000
00000000
00000000
,
00000010
00000000
00000001
00000010
00000100
00000000
00010000
00000010
,
00020000
00000000
00000000
00000000
00000000
00000000
00031000
00000000
00000000
00000000
00000000
00101000
00000000
00000000
00000000
00000000
00000000
00000000
00100000
00000000
00000000
00000000
00000000
00000000
,
01000000
00000000
10000000
00010000
01000000
00000000
00100000
01000000
,
00020000
00000000
00000000
00000000
00000000
00000000
00130000
00000000
00000000
00000000
00000000
00110000
00000000
00000000
01000000
00000000
00000000
01000000
00000000
00000000
00000000
00100000
00000000
00000000
,
00001000
00000000
00010000
00000100
00010000
00000000
00000010
00010000
,
00020010
00000100
00001000
00030010
,
00000100
00000000
00000001
00000000
00001000
00000100
00001000
00000000
,
00000010
00000000
00010000
00000000
00000100
00010000
00001000
00000000
,
01000000
00000000
00100000
00000000
10000000
00010000
00100000
00000000
,
01000000
00000000
00100000
00000000
00010000
10000000
00100000
00000000
,
01000000
02001000
00100000
03100000
,
01000000
00000000
00000000
00001000
00000000
00000000
00000000
00010000
00000000
00000000
00000000
00000000
00010100
00000000
00000000
00000000
,
00000100
00000000
00000120
00000000
00000000
00000000
00000130
00001000
,
00000100
00000000
00000000
00010000
00000000
00000000
00000000
00001000
00000000
00000000
00000000
00000000
00100000
00000000
00000000
00000000
,
00001000
00010000
00001000
00010000
00001000
00010000
00001000
00010000
00001000
00100000
01000000
10000000
,
00010000
01000000
00100000
01000000
00001000
00010000
00000100
00000010
00000001
00001000
00000010
00000100
,
00000010
00001000
00001001
00000000
00000001
00000010
00000110
00000000
,
00000100
00010000
00001000
01000000
00200000
00000000
00000000
00000000
,
01300000
00010000
00100000
00010000
01000000
00001000
00010000
00000000
,
00000100
00000000
00000000
00010000
00000000
00000000
00000010
00000000
00000000
00000100
00000000
00000000
00000010
00000000
00000010
00000000
00000000
00000010
00000000
00000000
00000010
00000000
00000000
00000000
,
00010000
00000000
00000000
00000100
00000000
00000000
00010000
00000000
00000000
00001000
00000000
00010000
00000000
00000000
01000000
00000000
00000000
00000000
00100000
00000000
00000000
00100000
00000000
00000000
,
02000000
00000000
00000000
00000000
00000000
23000000
00000000
00000000
00000000
00000000
00000000
30010000
00000000
00000000
00000000
00000000
00000000
00000000
10010000
00000000
00000000
00000000
00000000
00000000
,
02200000
00000000
00000000
00000000
00000000
00000000
00000000
00000000
00000000
00000000
00000000
00000000
03300000
00000000
00000000
00000000
00000000
00000000
00000000
00000000
00000000
00000000
00000000
01100000
,
00000000
00000000
00000000
00000000
00000000
01001000
00000000
00000000
00000000
00000000
00000000
00011000
00000000
00000000
00000000
00000000
00000000
00000000
00010000
00000000
00000000
00000100
00000000
00000000
,
00020100
00000000
00000000
00000000
00000000
00000000
00000000
00000000
00000000
00000000
00030020
00000000
,
00000000
00000230
00000000
00000000
00000000
00000000
00000310
00000000
,
00001010
00001000
00000100
00010000
00000010
00010000
00000000
00011000
,
00001000
00000000
01000000
00100000
01000000
00000000
00010000
00100000
,
02000000
00000000
00000000
00000000
00000000
00000000
03100000
00000000
00000000
00000000
00000000
00110000
00000000
00000000
00000000
00000000
00000000
00000000
00010000
00000000
00000000
00000000
00000000
00000000
,
10000000
00000000
00010000
00100000
00001000
00000000
00010000
00000010
,
00020000
00000000
00000000
00000000
00000000
00000000
00030100
00000000
00000000
00000000
00000000
00010100
00000000
00000000
00000000
00000000
00000000
00000000
00000100
00000000
00000000
00000000
00000000
00000000
,
00000010
00000000
00000001
00001000
00000010
00000000
00000100
00000010
,
00020000
00000000
00000000
00000000
00000000
00000000
00030100
00000000
00000000
00000000
00000000
00010100
00000000
00000000
00000000
00000000
00000000
00000000
00000100
00000000
00000000
00000000
00000000
00000000
,
00010000
00000000
00001000
00100000
01000000
00000000
00100000
00010000
,
10010000
00100000
01000000
01001000
,
00011000
00010000
00000100
00010000
,
00000010
00000100
00000010
00000000
00000100
00000010
00000100
00000000
,
00000010
00010000
00001000
00100000
,
01000000
10000000
01000000
00000000
10000000
01000000
10000000
00000000
,
00010000
01000000
00001000
00010000
,
00000010
00001000
00000010
00000000
00001000
00000010
00001000
00000000
,
00000001
00000010
00000100
00001000
,
00002002
00000000
00000000
00003003
;

//---------------dance-double - M. Simmons----------------
#NOTES:
     dance-double:
     M. Simmons:
     Easy:
     2:
     0.185,0.000,0.109,0.092,0.000:
00000000
00000000
00000000
00000000
,
00000000
00000000
00000000
00000000
,
00000000
00000000
00000000
00000000
,
00000000
00000000
00000000
00000000
,
00001000
00000000
00010000
00000000
,
00000100
00000100
00000100
00000000
,
00000010
00000000
00000001
00000000
,
00001000
00001000
00001000
00000000
,
00000010
00000000
00010000
00000000
,
00001000
00001000
00001000
00000000
,
01000000
00000000
00100000
00000000
,
20010000
00000000
00000000
00000000
,
30010000
00100000
01000000
00100000
,
00001000
01000000
00010000
01000000
,
00001000
00010000
00000100
00000010
,
00000100
00001000
00000001
00000100
,
00000110
00000020
00000000
00010030
,
00001000
00100000
02000000
00000000
,
03100000
00010000
01000000
00001000
,
00010000
00000100
00002000
00000000
,
00003100
00000010
00000001
00001000
,
00000010
00010000
00000100
00010000
,
00001000
00100000
01000000
10000000
,
10010000
10000000
10010000
00010000
,
10000000
00100000
01000000
00002000
,
00013000
00001000
00010000
00000010
,
00000100
00000010
00000100
00000010
,
00001000
00000100
00001100
00000100
,
00020200
00000000
00000000
00030300
,
00000100
00010000
00001000
00100000
,
00202000
00000000
00000000
00303000
,
00010000
10000000
00010000
10000000
,
01000000
01000000
00100000
00000000
,
01000000
00000000
00100000
00000000
,
00001000
00001000
00001000
00000000
,
00010000
00000000
00000010
00000000
,
00010000
00010000
00010000
00000000
,
00000100
00000000
00000010
00000000
,
00000001
00000001
00000001
00000000
,
00001000
00000000
00000010
00000000
,
00001010
00000010
00001000
00001010
,
00000010
00000000
00010000
00000000
,
00011000
00001000
00001000
00000000
,
00100000
00000000
01000000
00000000
,
01100000
00100000
00100000
00000000
,
00100000
00000000
00010000
00000000
,
00110000
00100000
00100000
00000000
,
01000000
00000000
10000000
00000000
,
20020000
00000000
00000000
30030000
;
