#TITLE:You Are My Dream;
#SUBTITLE:;
#ARTIST:Bambee;
#TITLETRANSLIT:;
#SUBTITLETRANSLIT:;
#ARTISTTRANSLIT:;
#GENRE:Bubblegum Pop;
#CREDIT:Sync by HellRazor;
#BANNER:You Are My Dream-bn.png;
#BACKGROUND:You Are My Dream-bg.png;
#LYRICSPATH:;
#CDTITLE:;
#MUSIC:You Are My Dream.ogg;
#OFFSET:-2.423;
#SAMPLESTART:59.240;
#SAMPLELENGTH:12.000;
#SELECTABLE:YES;
#BPMS:0.000=135.000;
#STOPS:;
#BGCHANGES:0.000=You Are My Dream-bg.png=1.000=0=0=1=====,
16.000=In The Groove Rebirth/502_JB_HD.mpg=1.000=0=0=1=====,
32.000=In The Groove Rebirth/265_JB_HD.mpg=1.000=0=0=1=====,
48.000=In The Groove Rebirth/867_JumpBack.mpg=1.000=0=0=1=====,
64.000=In The Groove Rebirth/1130_JumpBack.mpg=1.000=0=0=1=====,
80.000=In The Groove Rebirth/260_JB_HD.mpg=1.000=0=0=1===SlideLeft==,
96.000=In The Groove Rebirth/216_JB_HD.mpg=1.000=0=0=1=====,
112.000=In The Groove Rebirth/1148_JumpBack.mpg=1.000=0=0=1===SlideRight==,
128.000=In The Groove Rebirth/510_JB_HD.mpg=1.000=0=0=1=====,
144.000=In The Groove Rebirth/406_JB_HD.mpg=1.000=0=0=1=====,
160.000=In The Groove Rebirth/243_JB_HD.mpg=1.000=0=0=1=====,
176.000=In The Groove Rebirth/502_JB_HD.mpg=1.000=0=0=1=====,
192.000=In The Groove Rebirth/1148_JumpBack.mpg=1.000=0=0=1=====,
208.000=You Are My Dream-bg.png=1.000=1=0=1===CrossFade==,
99999=-nosongbg-=1.000=0=0=0 // don't automatically add -songbackground-
;
#BGCHANGES2:16.000=flash=1.000=0=0=1====1^0^1^1=,
128.000=flash=1.000=0=0=1====1^0^1^1=,
;
#KEYSOUNDS:;

//---------------dance-single - Brandon H.----------------
#NOTES:
     dance-single:
     Brandon H.:
     Hard:
     7:
     0.459,0.000,0.137,0.314,0.079:
0000
0000
0000
0000
,
0000
0000
0000
0000
,
0000
0000
0000
0000
,
0000
0000
0000
0000
,
2002
0000
3003
0000
1000
0010
0100
0020
,
0000
0000
0000
0000
1030
0000
0000
0001
2000
0000
0000
0000
3001
0000
0000
0001
,
0020
0000
0000
0130
1000
0001
0001
0020
,
0000
0000
0100
0130
,
1000
0100
1000
0100
1000
0001
0100
0001
,
0010
0100
0010
0100
0010
0001
0100
0001
,
1000
0100
1000
0100
1000
0010
1000
0010
,
0100
0001
1000
0001
0100
0001
1000
0100
,
1000
0001
0100
0001
1000
0001
0010
0100
,
0010
0001
1000
0001
0010
0001
0100
0010
,
1000
0100
0010
0100
1000
0001
1000
0010
,
0100
0001
0100
0001
1000
0010
0100
0010
,
1001
0000
0001
0010
0001
1000
0010
0200
,
0000
0001
0301
0010
0100
0010
0001
0200
,
0000
0001
0301
1000
0010
1000
0100
2000
,
0000
0010
3010
1000
0001
0100
0010
2000
,
0000
0001
3001
0100
0010
1000
0001
2000
,
0001
0000
0000
3000
0001
0010
0100
2000
,
0000
3000
0000
1000
0100
0010
0001
2000
,
0000
3002
0000
0013
0000
0010
0001
1000
,
1001
0000
1000
0100
0010
0001
0100
0020
,
0000
0000
0130
0000
0000
0000
0000
1000
0100
0000
0000
1000
0001
0000
0000
1000
,
0010
0000
0100
0000
0100
0000
0000
0010
0100
0000
0000
0010
1000
0000
0000
0010
,
0100
0000
0001
0000
0001
0000
0000
0010
0001
0000
0000
0010
0100
0000
0000
0010
,
0001
0010
0010
0000
0001
0000
0010
0000
,
0200
0310
0001
0100
,
0020
0000
1030
0000
1000
0000
0100
2000
,
0000
0002
0000
3003
0000
0010
0100
0010
,
1001
0000
0000
0000
0001
0100
0001
1000
,
0000
0000
0000
0001
1000
0000
0001
0000
0000
0000
1000
0000
0100
0000
0010
0000
,
0001
0000
0000
1000
0001
0000
1000
0000
0000
0000
0000
0000
0000
0000
1000
0000
,
0000
0100
0000
0001
0000
0100
0000
1000
,
0000
1001
0000
0000
1000
0100
1000
0010
,
0000
0000
0000
1000
0001
0000
1000
0000
0000
0000
0001
0000
0100
0000
0010
0000
,
1000
0000
0000
0001
1000
0000
0001
0000
0000
0000
0000
0000
0000
0000
1000
0000
,
0000
0100
0000
1000
0000
0010
0000
0100
,
0000
1010
0000
0000
0010
1000
0001
0200
,
0300
0200
0300
0200
0300
0010
1000
0100
,
1001
0000
0000
1000
0100
0010
0001
2000
,
0000
0000
3010
0100
0000
0001
1000
0010
,
0000
1001
0000
0000
1000
0010
0100
0020
,
0030
0020
0030
0020
0030
0100
0001
0010
,
1001
0000
0000
0001
0100
0010
1000
0002
,
0000
0000
1003
0100
0000
1000
0001
0010
,
0000
1001
0000
0000
0001
0010
0100
0020
,
0030
0000
0000
0000
1001
0000
0000
0000
0110
0000
0000
0001
1000
0000
0010
0000
,
0100
0010
1000
0000
0100
0010
0001
2002
,
0000
0000
0000
0000
3003
0000
0100
0010
,
0000
2002
0000
0000
0000
0000
0000
0000
,
3003
0000
0000
0000
;

//---------------dance-single - D. Bernardone & R. Uchima----------------
#NOTES:
     dance-single:
     D. Bernardone & R. Uchima:
     Challenge:
     9:
     0.568,0.000,0.196,0.344,0.270: // measure 1
0000
0000
0000
0000
,  // measure 2
0000
0000
0000
0000
,  // measure 3
0000
0000
0000
0000
,  // measure 4
0000
0000
0000
0000
,  // measure 5
1000
0100
0010
0001
0000
1000
0001
0100
,  // measure 6
0010
1000
0100
1000
0000
0010
0001
0010
,  // measure 7
0100
0001
1000
0100
0000
0010
0001
1000
,  // measure 8
2002
0000
0000
0000
3003
0100
0100
0100
,  // measure 9
1001
0000
00M0
1000
0001
0000
M000
0010
0001
0000
00M0
0100
0001
0000
0100
0010
,  // measure 10
1000
0000
00M0
0001
1000
0000
000M
0100
1000
0000
0100
0010
0001
00M0
0100
0000
,  // measure 11
0110
0000
M000
0100
0001
0000
0M00
1000
0001
0000
M000
0010
0001
0000
0100
0010
,  // measure 12
1000
0000
000M
0010
0001
0000
M000
0010
1000
0000
000M
0010
0100
M000
0010
1000
,  // measure 13
0001
0000
0100
0001
1000
0000
0100
0001
1000
0000
0100
0001
1000
0000
0100
0001
,  // measure 14
0010
0000
0100
1000
0001
0000
0100
1000
0001
0000
0100
1000
0001
0010
0100
1000
,  // measure 15
0001
0000
0010
0001
1000
0000
0010
0001
1000
0000
0010
0001
1000
0000
0010
0001
,  // measure 16
0100
0000
0010
1000
0001
0000
0100
0001
1000
0000
0100
1000
0001
0010
0001
1000
,  // measure 17
0010
0000
0100
0001
1000
0100
0010
0020
,  // measure 18
0000
1000
0000
0031
1000
1000
0010
0020
,  // measure 19
0000
0000
0130
0001
0010
1000
0010
0020
,  // measure 20
0000
0100
0000
0031
0100
1000
0100
0020
,  // measure 21
0000
1000
1030
0100
0010
0001
0100
0010
,  // measure 22
0020
0000
1000
1030
0200
0001
0001
0001
,  // measure 23
0000
1300
0000
0001
0200
1000
1000
1000
,  // measure 24
0000
1000
0000
0310
0000
0010
0010
0010
,  // measure 25
1001
0000
0000
0010
1000
0000
0000
1000
0100
0000
0000
0010
0001
0000
0000
0001
,  // measure 26
1000
0000
0010
0100
0001
0000
0001
0000
0010
0000
0000
0010
0100
0000
0000
0100
,  // measure 27
1000
0000
0001
0100
0010
0000
1000
0000
0100
0000
0000
0100
0010
0000
0000
0010
,  // measure 28
0001
0000
1000
0010
0100
0000
0100
0000
0001
0000
0000
0001
1000
0000
0000
1000
,  // measure 29
0100
0000
0010
0001
0100
0000
0010
0000
1010
0000
0000
0000
1000
0000
1000
0000
,  // measure 30
1001
0000
0000
1000
0001
0010
1000
1010
,  // measure 31
0000
0011
0000
0010
0001
0100
1000
1100
,  // measure 32
0000
0220
0000
0000
0330
0010
0100
0100
,  // measure 33
1001
0000
0110
0000
0001
1000
0200
2000
,  // measure 34
0000
0010
0000
3310
0000
1000
0100
0001
,  // measure 35
0100
0000
1000
0001
0010
0000
0020
0000
1000
0000
0030
0000
0020
0000
0002
0000
,  // measure 36
0030
0003
0200
1000
0300
0200
0001
0301
,  // measure 37
0000
0010
0000
0000
0100
1000
0002
0200
,  // measure 38
0000
0010
0000
0313
0000
0001
0010
1000
,  // measure 39
0010
0000
0100
0010
0001
0000
0002
0000
0100
0000
0003
0000
0020
0000
2000
0000
,  // measure 40
0030
3000
0200
0010
0000
0301
0100
0010
,  // measure 41
0000
0001
0000
0000
0100
0010
2000
0002
,  // measure 42
0000
0010
0000
3013
0000
0001
0100
1000
,  // measure 43
0100
0000
0010
0100
0001
0010
0100
1000
,  // measure 44
1001
0000
0010
0100
0110
0000
1001
0000
,  // measure 45
0101
0000
0010
0000
1000
0010
0200
0002
,  // measure 46
0000
1000
0000
1303
0000
0001
0100
1000
,  // measure 47
0100
0000
0001
1000
0010
0000
1000
0000
0100
0000
0010
0000
0100
0000
1000
0000
,  // measure 48
0010
0000
0100
0001
0010
0100
0010
0001
,  // measure 49
1001
0000
0001
0000
0010
0001
2000
0200
,  // measure 50
0000
0001
0000
3301
0000
1000
0010
1000
,  // measure 51
0100
0000
0010
0100
1000
0000
0001
0000
0010
0000
0100
0010
0001
0000
0100
0000
,  // measure 52
0101
0000
1000
0010
0100
0000
0001
0000
0011
0000
0100
0000
1000
0000
0010
0000
,  // measure 53
2002
0000
0000
0200
0300
0000
0000
0200
,  // measure 54
0300
0000
0000
0020
0000
0000
0000
0000
,  // measure 55
3033
0000
0000
0000
;

//---------------dance-double - D. Bernardone----------------
#NOTES:
     dance-double:
     D. Bernardone:
     Easy:
     2:
     0.165,0.000,0.079,0.098,0.000:
00000000
00000000
00000000
00000000
,
00000000
00000000
00000000
00000000
,
00000000
00000000
00000000
00000000
,
00000000
00000000
00000000
00000000
,
10000000
00000000
00000000
00000000
,
00100000
00000000
00000000
00000000
,
00010000
00000000
00000000
00000000
,
00022000
00000000
00033000
00000000
,
00010000
00000000
00000100
00000000
,
00000010
00000010
00000001
00000000
,
00000100
00000000
00000010
00000000
,
00010000
00001000
00100000
00000000
,
00010000
00000000
10000000
00000000
,
00100000
00100000
01000000
00000000
,
00001000
00000000
00010000
00000000
,
00022000
00000000
00033000
00000000
,
00010000
00000000
00000000
00000000
,
00000100
00000000
00000010
00000000
,
00000001
00000000
00000000
00000000
,
00000100
00000000
00000010
00000000
,
00000010
00000000
00000000
00000000
,
00010000
00000000
00001000
00000000
,
00100000
00000000
00020000
00000000
,
20000000
00000000
30030000
00000000
,
01100000
00010000
00000000
01000000
,
00000000
00001000
00000000
00010000
,
00000000
00000100
00000000
00000010
,
00000000
00001000
00000000
00010000
,
00000000
00100000
00000000
01000000
,
00000000
00010000
00000000
00100000
,
00000000
00001000
00010000
00001000
,
00022000
00000000
00033000
00000000
,
00010000
00000000
00000100
00000100
,
00000100
00000000
00000000
00000010
,
00000001
00000000
00000100
00000000
,
00000100
00000000
00000010
00000000
,
00000010
00000000
00010000
00010000
,
00010000
00000000
00000000
00001000
,
00100000
00000000
00010000
00000000
,
00010000
00000000
01000000
00000000
,
01000000
00000000
00001000
00001000
,
00001000
00000000
00000000
00010000
,
00000100
00000000
00001000
00000000
,
00001001
00000000
00000110
00000000
,
00001001
00000000
00000001
00000100
,
00000001
00000000
00001000
00001000
,
00000100
00000000
00010000
00000000
,
00001000
00000000
00100000
00000000
,
00010000
00000000
01000000
00100000
,
01000000
00000000
00010000
00010000
,
10000000
00000000
01000000
00000000
,
00100000
00000000
00001000
00010000
,
00022000
00000000
00033000
00000000
;

//---------------dance-single - D. Bernardone----------------
#NOTES:
     dance-single:
     D. Bernardone:
     Medium:
     5:
     0.320,0.000,0.157,0.137,0.000:
0000
0000
0000
0000
,
0000
0000
0000
0000
,
0000
0000
0000
0000
,
0000
0000
0000
0000
,
1000
0100
0000
0010
0000
0000
0000
0000
,
0100
1000
0000
0001
0000
0000
0000
0000
,
0100
0010
0000
1000
0000
0000
0000
0000
,
2002
0000
0000
0000
3003
0100
0010
0000
,
1000
0100
0010
0100
,
1000
0001
0100
0001
,
0010
0100
1000
0100
,
0010
0000
0001
0000
0010
0000
0001
0001
,
1000
0010
0001
0010
,
1000
0100
0001
0100
,
0010
0001
0100
0001
,
0020
0000
1000
0001
,
0130
1000
0001
0100
,
0101
0001
0100
0010
,
1001
0010
0100
0010
,
1010
0001
1000
0010
,
0110
0100
0001
0010
,
0110
0001
1000
0100
,
0101
0001
1000
0110
,
0010
0100
1000
0010
,
0100
0000
0001
1000
0001
0000
0010
0000
,
0000
0000
0100
1000
0100
0000
0010
0000
,
0000
0000
0001
1000
0001
0000
0100
0000
,
0000
0000
0010
1000
0010
0000
0100
0000
,
0001
0000
1000
0100
1000
0000
0010
0000
,
0100
0000
0001
1000
0001
0000
0010
0000
,
0100
0000
1000
0010
1000
0000
0001
0000
,
2002
0000
0000
0000
3003
0100
0010
0000
,
0001
0000
0000
0000
2000
0000
0000
0100
,
0000
0010
0000
3001
0000
0100
0010
0000
,
1000
0000
0200
0320
,
0031
0000
0100
0010
,
0101
0000
0000
0000
0002
0000
0000
0010
,
0000
0100
0000
1003
0000
0010
0100
0000
,
0001
0000
0020
0230
,
1300
0000
0010
1000
,
0110
0000
0000
0000
0200
0000
0000
1000
,
0000
0001
0000
0310
0000
1000
0100
0000
,
1000
0000
0001
0100
0001
0100
0001
0100
,
0001
0000
1000
0100
1000
0100
1000
0100
,
0010
0000
0000
0000
0001
1000
0000
0010
,
0000
1010
0000
0010
0000
0100
0001
0000
,
0010
0000
0100
1000
0000
1000
0010
0000
,
0100
0000
0001
0010
0100
0000
0010
0000
,
1001
0000
0001
0000
1000
0010
0000
0100
,
0000
0110
0000
0100
0000
0001
0010
0000
,
0100
0000
1000
0010
0100
0010
1000
0000
,
1010
0000
0001
0100
0010
0100
0001
0000
,
0202
0000
0303
0000
;

//---------------dance-single - D. Bernardone----------------
#NOTES:
     dance-single:
     D. Bernardone:
     Easy:
     3:
     0.205,0.000,0.069,0.059,0.000:
0000
0000
0000
0000
,
0000
0000
0000
0000
,
0000
0000
0000
0000
,
0000
0000
0000
0000
,
1000
0000
0000
0001
0000
0000
0000
0000
,
0100
0000
0000
0010
0000
0000
0000
0000
,
1000
0000
0000
0100
0000
0000
0000
0000
,
2002
0000
3003
0100
,
0010
0010
0010
0000
,
1000
1000
1000
0000
,
0100
0010
0001
0000
,
1000
0010
0100
0000
,
0001
0001
0001
0000
,
0010
0010
0010
0000
,
0100
1000
0001
0000
,
1002
0000
0013
0100
,
1000
0010
0100
0001
,
0000
0010
0100
1000
,
0000
0100
1000
0010
,
0000
0100
0001
0010
,
0000
0001
1000
0010
,
0000
0100
0001
0010
,
0000
0100
1000
0001
,
0000
0100
0010
1000
,
1001
0001
0010
0100
,
1000
0000
0010
0010
,
0100
0001
0010
0100
,
1000
0000
0001
0100
,
0001
0000
0010
0100
,
1000
0000
0001
0100
,
1000
0000
1000
0100
,
0002
0000
0000
0013
,
0100
0000
1000
1000
,
0001
0000
0000
0100
,
0010
0000
0000
0000
1000
0000
0000
0100
,
0000
0000
0000
0000
0010
0000
0000
0001
,
0000
0000
0100
0100
,
0010
0000
0000
1000
,
0100
0000
0000
0000
0010
0000
0000
0001
,
0000
0000
0000
0000
1000
0000
0000
0100
,
0000
0000
0010
0001
,
0100
0000
0000
0010
,
0110
0000
0001
0010
,
1000
0000
1000
0010
,
0001
0000
0100
0010
,
1000
0000
0000
0001
,
1001
0000
0010
1000
,
0100
0000
0010
0001
,
0100
0000
0010
1000
,
0100
0000
0000
1000
,
0001
0000
0100
0001
,
0010
0000
0110
0000
,
2002
0000
3003
0000
;

//---------------dance-single - D. Bernardone----------------
#NOTES:
     dance-single:
     D. Bernardone:
     Beginner:
     1:
     0.109,0.000,0.049,0.000,0.000:
0000
0000
0000
0000
,
0000
0000
0000
0000
,
0000
0000
0000
0000
,
0000
0000
0000
0000
,
0010
0000
0000
0000
,
1000
0000
0000
0000
,
0001
0000
0000
0000
,
1001
0000
0000
0100
,
0100
0000
0000
0000
,
0010
0000
0000
0000
,
1000
0000
0000
0000
,
0100
0000
0000
0000
,
0010
0000
0000
0000
,
0001
0000
0000
0000
,
0100
0000
0000
0000
,
1001
0000
0010
0000
,
0100
0000
0000
0000
,
0000
0000
0001
0000
,
0001
0000
0000
0000
,
1000
0000
0100
0000
,
0100
0000
0000
0000
,
0010
0000
0001
0000
,
0001
0000
1000
0000
,
1000
0000
0000
0000
,
0110
0000
0000
0000
,
0001
0000
0000
0000
,
1000
0000
1000
0000
,
0100
0000
0010
0000
,
0001
0000
0000
0000
,
0100
0000
0010
0000
,
0010
0000
1000
0000
,
0100
0000
0010
0000
,
0100
0000
1000
0000
,
0001
0000
0000
0000
,
0000
0000
0100
0000
,
0010
0000
1000
0000
,
0100
0000
0010
0000
,
0001
0000
0000
0000
,
0000
0000
1000
0000
,
0010
0000
0000
0000
,
0100
0000
0001
0000
,
0010
0000
0010
0000
,
0000
0000
0100
0000
,
1000
0000
0010
0000
,
0010
0000
0100
0000
,
0100
0000
0001
0000
,
1000
0000
0100
0000
,
0010
0000
0001
0000
,
0001
0000
1000
0000
,
0010
0000
0100
0000
,
0001
0000
0010
0000
,
0110
0000
0110
0000
,
1000
0000
0000
0000
;

//---------------dance-double - D. Bernardone----------------
#NOTES:
     dance-double:
     D. Bernardone:
     Medium:
     5:
     0.278,0.000,0.108,0.128,0.000:
00000000
00000000
00000000
00000000
,
00000000
00000000
00000000
00000000
,
00000000
00000000
00000000
00000000
,
00000000
00000000
00000000
00000000
,
10000000
01000000
00010000
00000000
,
00001000
00000100
00000001
00000000
,
00000001
00000010
00001000
00000000
,
00220000
00000000
00330000
00000000
,
10000000
00010000
01000000
00010000
,
00100000
00001000
00010000
00010000
,
00000100
00001000
00000001
00001000
,
00000010
00000100
00001000
00010000
,
01000000
10000000
00100000
01000000
,
00001000
00010000
00001000
00010000
,
00000010
00000100
00000010
00000100
,
00002002
00000000
00003003
00000000
,
00000001
00000010
00000100
00000000
,
00001000
00000000
00000010
00000000
,
00010000
00001000
00100000
00000000
,
00010000
00000000
01000000
00000000
,
00100000
10000000
01000000
00000000
,
00010000
00000000
00001000
00000100
,
00000001
00000000
00000010
00001000
,
00020000
00000000
00031000
01000000
,
00010000
00100000
01000000
10000000
,
10000000
00000000
00010000
00100000
,
00001000
00000000
00010000
00001000
,
00000100
00000000
00000001
00000010
,
00000100
00000000
00010000
00001000
,
00100000
00000000
01000000
00010000
,
00001000
00000000
00000100
00001000
,
00020000
00000000
00030000
00000000
,
00001010
00000000
00000100
00000001
,
00000010
00000000
00000010
00000000
00000010
00000100
00001000
00000010
,
00010000
00001000
00100000
01000000
,
20000000
00000000
00100000
00010000
,
31000000
00000000
00100000
00001000
,
00010000
00000000
00010000
00000000
00010000
00000010
00001000
00000010
,
00000100
00000000
00000001
00000010
,
00000002
00000000
00000010
00000100
,
00001003
00000000
00000010
00010000
,
00001000
00000000
00001000
00000000
00001000
00100000
00010000
01000000
,
00100000
10000000
01000000
00100000
,
10010000
00000000
01100000
01100000
,
10010000
00000000
10000000
00000000
01000000
00100000
00010000
00000000
,
02000000
00000000
00010000
00000000
03001000
00010000
00001000
00010000
,
00000100
00000000
00000010
00000001
00001000
00000000
00000010
00000010
,
00000200
00000001
00001000
00000310
,
00000110
00000000
00001000
00000000
00000001
00000010
00000100
00000000
,
00020000
00000000
00000100
00000000
00031000
00100000
00010000
01000000
,
00100000
00000000
10000000
01000000
00100000
00000000
00010000
00010000
,
01010000
01000000
01001000
00001000
,
00022000
00000000
00033000
00000000
;

//---------------dance-double - D. Bernardone----------------
#NOTES:
     dance-double:
     D. Bernardone:
     Hard:
     7:
     0.377,0.000,0.226,0.098,0.000:
00000000
00000000
00000000
00000000
,
00000000
00000000
00000000
00000000
,
00000000
00000000
00000000
00000000
,
00000000
00000000
00000000
00000000
,
10000000
01000000
00010000
00000000
01000000
00000000
01100000
00000000
,
00001000
00010000
00001000
00000000
00010000
00000000
00010010
00000000
,
00000001
00000010
00000100
00000000
00010000
00000000
00001000
00000000
,
00022000
00000000
00033000
00000000
,
10000000
01000000
00010000
00001000
00010000
00000000
00000100
00000000
,
00000010
00000001
00000100
00000010
00010000
00000000
00011000
00000000
,
00001000
00010000
00100000
10000000
00010000
00000000
00100000
00000000
,
01000000
00010000
00001000
00010000
00000100
00000000
00001100
00000000
,
00000001
00000100
00001000
00010000
00001000
00000000
01001000
00000000
,
01000000
00100000
00010000
00100000
10000000
00000000
01000000
00010000
,
00001000
00001000
00000100
00001000
00010000
01000000
10000000
00010000
,
20020000
00000000
30030000
00000000
,
10000000
01000000
00010000
00001000
,
00010000
00000000
00000010
00000000
00000100
00000000
00000001
00000010
,
00000100
00001000
00000010
00000100
,
00001000
00000000
00010000
00000000
01000000
00000000
00010000
00001000
,
01000000
00100000
10000000
01000000
,
00010000
00000000
00001000
00000000
00010000
00000010
00001000
00000000
,
00000201
00000000
00000310
00000000
00001000
00000010
00000100
00000000
,
00020010
00000000
00031000
00000000
01000000
00010000
00010000
00010000
,
00100000
01000000
10000000
00100000
,
00010000
00000000
00001000
00000000
00010000
00001000
00010000
00000010
,
00000100
00000001
00000010
00001000
,
00010000
00000000
00001000
00000000
01000000
00010000
10000000
01000000
,
00100000
00010000
01000000
00001000
,
00010000
00000000
00000100
00000000
00000010
00000001
00000100
00000000
,
00000100
00001000
00010000
00000000
00010000
01000000
10000000
00000000
,
20020000
00000000
30030000
00000000
,
00010000
00000000
01000000
00000000
00100000
01000000
00000000
01000000
,
00001000
00001000
00001000
00001100
,
00000110
00000000
00000000
00001000
00000100
00000000
00000000
00000001
,
00000100
00000000
00000000
00010000
00001000
00000000
01000000
00000000
,
00010000
00000000
00100000
00000000
01000000
10000000
00000000
10000000
,
00010000
00010000
00010000
00110000
,
00011000
00000000
00000000
00010000
00000010
00000000
00000000
00001000
,
00000100
00000000
00000000
00000010
00000001
00000000
00000100
00000000
,
00000010
00000000
00001000
00000000
00000100
00010000
00001000
00010000
,
00001000
00001000
00001000
01001000
,
01100000
00000000
00000000
10000000
01000000
00000000
00000000
00010000
,
00001000
00000000
00000000
00010000
00011000
00000000
00010010
00000000
,
00001010
00000000
00000001
00000000
00000010
00000100
00001000
00000010
,
00000000
00000010
00000000
00000010
00010000
00001000
00100000
00010000
,
01000000
00000000
00000000
00100000
10000000
10000000
01000000
00010000
,
00001000
00000000
00000000
00010000
00000010
00000010
00000100
00000000
,
00001001
00000000
00000001
00000000
00000010
00000100
00010000
00001000
,
00000000
00001000
00000000
00001000
01000000
00100000
00010000
00001000
,
00010000
00000000
00000000
00000100
00000010
00000010
00001000
00010000
,
00011000
00000000
01000000
00100000
01100000
00000000
00001000
00010000
,
00022000
00000000
00033000
00000000
;

//---------------dance-double - D. Bernardone----------------
#NOTES:
     dance-double:
     D. Bernardone:
     Challenge:
     9:
     0.583,0.000,0.304,0.079,0.358:
00000000
00000000
00000000
00000000
,
00000000
00000000
00000000
00000000
,
00000000
00000000
00000000
00000000
,
00000000
00000000
00000000
00000000
,
10000000
00100000
00010000
00001000
00000000
00000100
00000010
00010000
,
00100000
01000000
00001000
00010000
00000000
00000010
00000100
00001000
,
01000000
00010000
00100000
01000000
00000000
10000000
00100000
00010000
,
00022000
00000000
00000000
00000000
00033000
00010000
00010000
00010000
,
00011000
00000000
00010000
00001000
00100000
00000000
01000000
00100000
00010000
00000000
10000000
01000000
00100000
00000000
01000000
10000000
,
00010000
00000000
01000000
00010000
01000000
00000000
00001000
01000000
00001000
00000000
00010000
00001000
00010000
00000100
00001000
00000010
,
00001000
00000000
00000001
00001000
00000010
00000000
00000100
00000001
00001000
00000000
00000010
00010000
00001000
00000000
00010000
00001000
,
00100000
00000000
00010000
01000000
00010000
00000000
01000000
00100000
01000000
00000000
00100000
10000000
00010000
00100000
01000000
10000000
,
00010000
00000000
10000000
01000000
00010000
00000000
01000000
00100000
00010000
00000000
00100000
00001000
00010000
00000000
00001000
00000100
,
00000010
00000000
00001000
00000010
00000001
00000000
00000010
00000100
00000001
00000000
00001000
00000100
00000010
00000100
00010000
00001000
,
00010000
00000000
00001000
00010000
01000000
00000000
00010000
00001000
00000100
00000000
00001000
00010000
00100000
00000000
00010000
00002000
,
00000020
00003030
00011000
00101000
,
11000000
00000000
10000000
00000000
00100000
01000000
00100000
00010000
,
00001000
00000000
00001000
00000000
00010000
00000010
00000100
00001000
,
00010000
00000000
00010000
00000100
00000010
00000001
00000100
00001000
,
00010000
00000000
00010000
00100000
01000000
00010000
00100000
10000000
,
00100000
00000000
00100000
00001000
00010000
00001000
00000100
00000010
,
00001000
00000000
00001001
00000000
00001100
00000100
00010000
00001000
,
01000000
00000000
01010000
00010000
00100000
01000000
00010000
00001000
,
00010000
00000100
00010000
00000100
00010000
00010010
00001010
00010010
,
00001001
00000001
00000010
00000100
00010000
00001000
00010000
00100000
,
01000000
00001000
00010000
00100000
10000000
01000000
00010000
01000000
,
00100000
00001000
00010000
00001000
00000100
00000010
00010000
00001000
,
00000100
00000010
00010000
00000100
00000001
00000100
00000010
00001000
,
00010000
00001000
01000000
10000000
01000000
00100000
00010000
00001000
,
00000100
00000010
00010000
01000000
10000000
01000000
00100000
00001000
,
00000100
00000010
00000100
00001000
00010000
00100000
01000000
00010000
,
20020000
00000000
00000000
00000000
30030000
00110000
00101000
00110000
,
10001000
00000000
00000000
10000000
01000000
00000000
00000000
01000000
00010000
00000000
00000000
00010000
00001000
00000000
00000000
00001000
,
00000100
00000000
00000000
00000100
00000010
00000000
00000000
00000010
00001000
00000000
00000100
00000000
00010000
00000000
01000000
00000000
,
00100000
00000000
00000000
00100000
00001000
00000000
00000000
00001000
00010000
00000000
00000000
00010000
00000010
00000000
00000000
00000010
,
00000100
00000000
00000000
00000100
00001000
00000000
00000000
00001000
00010000
00000000
00000000
00010000
01000000
00000000
00000000
00000000
,
10010000
00000000
00000000
00010000
10000000
00000000
00000000
10000000
01000000
00000000
00000000
01000000
00010000
00000000
00000000
00010000
,
00001000
00000000
00000000
00001000
00100000
00000000
00000000
00100000
00010000
00000000
01000000
00000000
00001000
00000000
00000100
00000000
,
00000010
00000101
00010010
00100100
,
00100000
01000000
00100000
00000010
00000100
00000010
00010000
00001000
,
00011000
00000000
00000000
00001000
01000000
00000000
00000000
01000000
10000000
00000000
00000000
10000000
00010000
00000000
00000000
00010000
,
00100000
00000000
00000000
00100000
01000000
00000000
00000000
01000000
00010000
00000000
00100000
00000000
00001000
00000000
00000010
00000000
,
00000100
00000000
00000000
00000100
00001000
00000000
00000000
00001000
00000010
00000000
00000000
00000010
00010000
00000000
00000000
00000000
,
00011000
00000000
01000000
00000000
01000010
00000010
00010010
00000000
,
00011000
00000000
00000000
00010000
00000100
00000000
00000000
00000100
00000001
00000000
00000000
00000001
00001000
00000000
00000000
00001000
,
00000010
00000000
00000000
00000010
00000100
00000000
00000000
00000100
00001000
00000000
00000010
00000000
00010000
00000000
00100000
00000000
,
01000000
00000000
00000000
01000000
00010000
00000000
00100000
00000000
00001000
00000000
00010000
00000000
00000010
00000000
00001100
00000000
,
00000001
00000000
00000100
00001000
00010000
00100000
01000000
00001000
,
00011000
00000000
00000000
00010000
00000010
00000000
00000000
00000010
00001000
00000000
00000000
00001000
00000100
00000000
00000000
00000100
,
00000010
00000000
00000000
00000010
00000001
00000000
00000000
00000001
00000100
00000000
00000001
00000000
00010000
00000000
00001000
00000000
,
10000000
00000000
00000000
10000000
01000000
00000000
00010000
00000000
00001000
00000000
00000010
00000000
00000100
00000000
00010000
00000000
,
01000100
00000000
00001000
00000000
00100010
00000000
00010000
00001000
,
00022000
00000000
00033000
00000000
;
