#TITLE:Y1;
#SUBTITLE:;
#ARTIST:Draigun;
#TITLETRANSLIT:;
#SUBTITLETRANSLIT:;
#ARTISTTRANSLIT:;
#GENRE:Trance;
#CREDIT:Sync by HellRazoR;
#BANNER:Y1-bn.png;
#BACKGROUND:Y1-bg.png;
#LYRICSPATH:;
#CDTITLE:;
#MUSIC:Y1.ogg;
#OFFSET:-2.292;
#SAMPLESTART:40.160;
#SAMPLELENGTH:12.000;
#SELECTABLE:YES;
#DISPLAYBPM:107.000;
#BPMS:0=107,63.5=96.72,63.75=85.48,64=75.44,64.25=65.841,64.5=56.021,64.75=54.601,65=47.561,65.125=46.161,65.25=44.341,65.375=40.921,65.5=107;
#STOPS:65.5=0.281;
#BGCHANGES:0.000=Y1-bg.png=1.000=0=0=1=====,
8.000=In The Groove Rebirth/165_JB_HD.mpg=1.000=1=0=1===CrossFade==,
32.000=In The Groove Rebirth/208_JB_HD.mpg=1.000=1=0=1===CrossFade==,
48.000=In The Groove Rebirth/306_JB_HD.mpg=1.000=1=0=1===CrossFade==,
63.500=In The Groove Rebirth/306_JB_HD.mpg=0.900=0=0=1=====,
63.750=In The Groove Rebirth/306_JB_HD.mpg=0.800=0=0=1=====,
64.000=In The Groove Rebirth/306_JB_HD.mpg=0.700=0=0=1=====,
64.250=In The Groove Rebirth/306_JB_HD.mpg=0.600=0=0=1=====,
64.500=In The Groove Rebirth/306_JB_HD.mpg=0.500=0=0=1=====,
64.750=In The Groove Rebirth/306_JB_HD.mpg=1.200=0=0=1=====,
65.000=Y1-bg.png=1.000=1=0=1===CrossFade==,
66.000=In The Groove Rebirth/419_JB_HD.mpg=0.400=0=0=1=Kaleidoscope2x2====,
82.000=In The Groove Rebirth/408_JB_HD.mpg=0.400=0=0=1=Kaleidoscope2x2====,
95.750=In The Groove Rebirth/408_JB_HD.mpg=1.000=0=0=1=Kaleidoscope2x2====,
96.000=Y1-bg.png=1.000=1=0=1=SongBgWithMovieViz==CrossFade==,
98.000=In The Groove Rebirth/1124_JumpBack.mpg=1.000=0=0=1=====,
114.000=In The Groove Rebirth/271_JB_HD.mpg=1.000=0=0=1=====,
130.000=In The Groove Rebirth/419_JB_HD.mpg=1.000=0=0=1=====,
138.000=In The Groove Rebirth/408_JB_HD.mpg=1.000=1=0=1===CrossFade==,
146.000=In The Groove Rebirth/208_JB_HD.mpg=1.000=1=0=1===CrossFade==,
154.000=In The Groove Rebirth/165_JB_HD.mpg=1.000=1=0=1===CrossFade==,
161.417=In The Groove Rebirth/165_JB_HD.mpg=0.500=0=0=1=====,
161.500=Y1-bg.png=1.000=1=0=1===CrossFade==,
99999=-nosongbg-=1.000=0=0=0 // don't automatically add -songbackground-
;
#BGCHANGES2:29.000=white flash=1.000=0=0=1=====,
66.000=white flash=1.000=0=0=1=====,
82.000=white flash=1.000=0=0=1=====,
114.000=white flash=1.000=0=0=1=====,
126.000=white flash=1.000=0=0=1=====,
128.000=white flash=1.000=0=0=1=====,
130.000=white flash=1.000=0=0=1=====,
;
#KEYSOUNDS:;

//---------------dance-single - R. Woods----------------
#NOTES:
     dance-single:
     R. Woods:
     Beginner:
     1:
     0.094,0.101,0.020,0.000,0.000:
0000
0000
0000
0000
,
0000
0000
0000
0000
,
0100
0000
0000
0000
,
0010
0000
0000
0000
,
1000
0000
0000
0000
,
0001
0000
0000
0000
,
0100
0000
0000
0000
,
0010
0000
0010
0000
,
0010
0000
0000
0000
,
1000
0000
1000
0000
,
0001
0000
0000
0000
,
0001
0000
0001
0000
,
0100
0000
0000
0000
,
0010
0000
0010
0000
,
0100
0000
0000
0000
,
0010
0000
0010
0010
,
0000
0000
1000
0000
,
0010
0000
0001
0000
,
0010
0000
1000
0000
,
0100
0000
0010
0000
,
0100
0000
0010
0000
,
0001
0000
1000
0000
,
0001
0000
0100
0000
,
0010
0000
1000
0000
,
0001
0000
1000
0000
,
0000
0000
0010
0010
,
0010
0010
0100
0000
,
0000
0000
0001
0001
,
0001
0000
0100
0000
,
0000
0000
0100
0100
,
0100
0100
0010
0000
,
0000
0000
1001
0000
,
0000
0000
0110
0000
,
0000
0000
1000
0000
,
0100
0000
0001
0000
,
0000
0000
1000
0000
,
0010
0000
0001
0000
,
0000
0000
0100
0000
,
0000
0000
0010
0000
,
0000
0000
1000
0000
,
0001
0000
0000
0000
;

//---------------dance-single - R. Woods----------------
#NOTES:
     dance-single:
     R. Woods:
     Medium:
     5:
     0.296,0.286,0.142,0.000,0.005:
0000
0000
0000
0000
,
0000
0000
0000
0000
,
1000
1000
0100
0100
,
0010
0010
0001
0001
,
1000
1000
0010
0010
,
1000
1000
0001
0001
,
0100
0100
0001
0001
,
1000
0001
0001
1001
,
0100
0000
0001
0000
0100
0100
0001
0000
,
1000
0000
0001
0000
1000
1000
0001
0000
,
1000
0000
0010
0000
0100
0001
0010
0000
,
0001
0000
0100
0000
0010
1000
0001
0000
,
0010
0000
0100
0000
1000
0010
0100
0000
,
0001
0000
1000
0000
0100
0010
0001
0010
,
0100
0000
1001
0000
0100
0010
1000
0000
,
0001
0000
0010
0000
0100
1000
0001
0100
,
0000
0000
0000
0000
1000
0000
1000
0100
,
0010
0000
0010
0001
1000
0000
0110
0000
,
0001
0001
0010
0010
0100
0000
0100
1000
,
0001
0000
0001
1000
0010
0000
0010
0100
,
0001
0000
1001
0000
0100
0000
0100
0001
,
0010
0000
0010
0001
1000
0000
1000
0001
,
0010
1100
0110
0001
,
1010
0100
1001
0010
,
1000
0001
1000
0001
1000
0000
0100
1000
,
0001
0000
0010
0001
1000
0000
0010
0100
,
0001
0001
0010
0010
0100
0000
0100
0010
,
0001
0000
0001
1000
0010
0000
0010
0100
,
0001
0100
0010
0000
1001
0000
1000
0100
,
0010
0000
0010
0000
1001
0000
0001
1000
,
0010
0000
0100
0000
0101
0000
1000
0100
,
0010
0000
0100
0000
0000
0000
1000
0001
1000
0000
0000
0000
1001
0000
1000
0000
,
0001
0110
1001
0001
,
0000
1000
0001
0000
1000
0000
0001
0000
,
0000
0100
0001
0000
1000
0000
0010
0000
,
0000
0100
0010
0000
1000
0000
0010
0000
,
0000
0100
0001
0000
1000
0000
0100
0000
,
0000
1000
0100
0000
0010
0000
0001
0000
,
0000
0010
0001
0000
0100
0000
0010
0000
,
0000
1000
0001
0000
1000
0000
0001
0000
,
0100
0100
0010
0010
0000
0000
0000
0000
;

//---------------dance-single - R. Woods----------------
#NOTES:
     dance-single:
     R. Woods:
     Easy:
     2:
     0.146,0.163,0.010,0.061,0.000:
0000
0000
0000
0000
,
0000
0000
0000
0000
,
1000
0000
0000
0000
,
0001
0000
0000
0000
,
0100
0000
0010
0000
,
0001
0000
0000
0000
,
1000
0000
0100
0000
,
0001
0001
0000
0001
,
0000
0001
0100
0001
,
0010
0001
1000
0001
,
0100
0000
0010
0000
,
1000
0000
1000
0000
,
0100
1000
0001
1000
,
0010
1000
0001
1000
,
0100
0000
0010
0000
,
0001
0000
2000
0000
,
0000
0000
0000
3000
2001
0000
0000
0000
,
0010
0000
0001
0000
,
0010
0000
3002
0000
,
1000
0000
0010
0000
,
1000
0000
0203
0000
,
0010
0000
0001
0000
,
0010
0000
0302
0000
,
0010
0000
1003
0000
,
4000
0000
3000
0000
,
1000
1000
0010
0010
,
0100
0100
0001
0001
,
0010
0010
0100
0100
,
1000
1000
0010
0010
,
0001
0001
0010
0010
,
1000
1000
0001
0001
,
0010
0010
0100
1000
,
0004
0000
0003
0000
,
0010
0000
0001
0000
,
0010
0000
0100
0000
,
1000
0000
0010
0000
,
0100
0000
0001
0000
,
1000
0000
0001
0000
,
0010
0000
0100
0000
,
1000
0000
0001
0100
,
0200
0300
0000
0000
;

//---------------dance-double - M. Simmons----------------
#NOTES:
     dance-double:
     M. Simmons:
     Challenge:
     10:
     0.536,0.567,0.192,0.061,0.688:
00000000
00000000
00000000
00000000
,
00000000
00000000
00000000
00000000
,
00000100
00000000
00000000
01000000
00000000
00000000
00100000
00000000
00001000
00000000
00000000
00000010
00000000
00000000
00100000
00000000
,
00000100
00000000
00000000
10000000
00000000
00000000
00010000
00000000
01000000
00000000
00000000
00000100
00000000
00000000
00010000
00000000
,
00000001
00000000
00000000
00010000
00000000
00000000
00001000
00000000
10000000
00000000
00000000
00001000
00000000
00000000
01000000
00000000
,
00100000
00000000
00000000
00001000
00000000
00000000
00000001
00000000
00000010
00000000
00000000
00010000
00000000
00000000
00100000
00000000
,
00010000
00000000
00000000
01000000
00000000
00000000
00001000
00000000
00000010
00000000
00000000
00000001
00000000
00000000
00000010
00000000
,
00000100
00000000
00000000
00010000
00000100
00000000
00000000
00000100
00000000
00000000
00010000
00000000
00000010
00000000
00000100
00000001
,
00000010
00000000
00000000
00001000
00000000
00000000
00010000
00000000
00100000
00000000
00000000
00001000
00000000
00000000
00000001
00000000
,
00010000
00000000
00000000
00000010
00000000
00000000
00010000
00000000
00100000
00000000
00000000
10000000
00000000
00000000
00100000
00000000
,
00000100
00000000
00000000
00000010
00000000
00000000
00100000
00000000
00010000
00000000
00000000
00000010
00000000
00000000
00000001
00000000
,
00000100
00000000
00000000
00010000
00000000
00000000
01000000
00000000
00001000
00000000
00000000
00100000
00000000
00000000
00000100
00000000
,
01000000
00000000
00000000
00000001
00000000
00000000
10000000
00000000
01000000
00000000
00000000
00001000
00000000
00000000
00000001
00000000
,
00000100
00000000
00000000
00010000
00000000
00000000
00000100
00000000
00000001
00000000
00000000
00100000
00000000
00000000
00000100
00000000
,
01000000
00000000
00000000
00001000
00000000
00000000
00010000
00000000
00000100
00000000
00000000
00000001
00000000
00000000
00001000
00000000
,
00100000
00000000
00000000
00000100
00000000
00000000
10000000
00000000
00100000
00000000
00000000
01000000
00000000
00000000
00000002
00000000
,
00000000
00000000
00000000
00000000
00000000
00000000
00000003
00000000
10000000
00000000
01000000
10000000
00000000
00100000
01000000
00001000
,
00010000
00000100
00001000
00000010
00000000
00000100
00000001
00000000
00001100
00000000
00010000
00000100
00000000
00010000
00000010
00000000
,
00000100
00000001
00001000
00000100
00010000
00001000
01000000
10000000
01000000
00000000
00010000
00100000
00000000
00001000
00010000
00000000
,
00000100
00001000
00000010
00000100
00000001
00001000
00000100
00010000
00001000
00000000
00010000
00100000
00000000
01000000
00010000
00000000
,
10100000
00000000
00000000
01010000
00000000
00001000
00101000
00000000
00011000
00000000
00000100
00001000
00000000
00000010
00000100
00000001
,
00000010
00001000
00010000
00100000
00000000
01000000
00010000
00000000
11000000
00000000
00100000
00001000
00000000
00010000
00000010
00000000
,
00000100
00000001
00001000
00000100
00000010
00001000
00010000
00100000
00001000
00000000
00100000
01000000
00000000
00010000
00100000
00000000
,
00001100
00000000
00000010
00000001
00000000
00000100
00000010
00010000
00000100
00000010
00001000
00010000
00000000
00001000
01000000
00000000
,
04040000
00000000
00000000
00000000
00000000
00000000
00030000
03000000
00010000
00000000
00100000
00001000
00000000
00001000
00000010
00000000
,
00000001
00000100
00000010
00000001
00000010
00010000
00000100
00000010
00001000
00000000
00000010
00000001
00000000
00000100
00000010
00001000
,
00000100
00010000
00001000
00100000
00000000
01000000
10000000
00000000
00110000
00000000
00001000
00000100
00000000
00000010
00010000
00000000
,
00001000
00010000
00000100
00000010
00001000
00000010
00000001
00000100
00001000
00000000
00000100
00000001
00000000
00001000
00000010
00000000
,
00011000
00000000
00010000
01000000
00000000
10000000
00100000
01000000
00010000
00100000
01000000
00010000
00000000
01000000
10000000
00000000
,
01010000
00000000
00001000
00010000
00000000
00000100
00001000
00000000
00000010
00000100
00000001
00000010
00001000
00000010
00000100
00010000
,
00000010
00000000
00010000
00100000
00000000
00010000
00001000
00000000
00110000
00000000
00001000
01000000
00000000
00100000
10000000
01000000
,
00010000
01000000
00100000
00001000
00000000
00100000
00001000
00000000
01010000
00000000
00000000
01001000
00000000
00000000
00011000
00000000
,
00000101
00000000
00000000
00011000
00000000
00000000
01100000
00000000
10010000
00000000
00000000
10000000
00100000
00000000
01000000
00000000
,
00001000
00000000
00000000
00010000
00000100
00000000
00000010
00000000
00000001
00000000
00000000
00000100
00000010
00000000
00010000
00000000
,
00001000
00000000
00100000
00010000
01000000
00100000
10000000
01000000
00100000
00000000
00000000
00001000
00010000
00000000
00000010
00000000
,
00001000
00000000
00000000
00000001
00000010
00000000
00001000
00000000
00010000
00000000
00000000
01000000
10000000
00000000
00001000
00000000
,
00010000
00000000
00000100
00000010
00000001
00000100
00000010
00010000
00001000
00000000
00000000
01000000
00000100
00000000
00010000
00000000
,
00000010
00000000
00000000
00000100
00000001
00000000
00010000
00000000
00001000
00000000
00000000
00100000
01000000
00000000
10000000
00000000
,
00100000
00000000
01000000
00001000
00010000
00000100
00000010
00000001
00000100
00000000
00000000
00000010
00010000
00000000
00001000
00000000
,
00100000
00000000
00000000
00010000
00100000
00000000
01000000
00000000
10000000
00000000
00000000
00100000
01000000
00000000
00001000
00000000
,
00010000
00000000
00000100
00001000
00000001
00000100
00000020
00000000
00000030
00000000
00000020
00000000
00000030
00000000
00000020
00000000
,
00000030
00000020
00000030
00000020
00000030
00000000
00000000
00000000
;

//---------------dance-double - M. Simmons----------------
#NOTES:
     dance-double:
     M. Simmons:
     Easy:
     3:
     0.240,0.207,0.152,0.020,0.000:
00000000
00000000
00000000
00000000
,
00000000
00000000
00000000
00000000
,
10000000
01000000
00010000
00001000
,
00000100
00000001
00000010
00001000
,
00010000
00100000
01000000
00001000
,
00000100
00000010
00010000
00100000
,
00001000
00000010
00000001
00000010
,
00000100
00000110
00001000
00001100
,
00010000
00001000
00100000
00010000
,
00100000
01000000
00100000
00001000
,
00010000
00000100
00001000
00000100
,
00000010
00000001
00000100
00000001
,
00000010
00001000
00100000
01000000
,
10000000
00010000
01000000
00100000
,
00001000
00000010
00000100
00000001
,
00010000
00000100
00010000
02000000
,
00000000
03000000
10000000
00100000
,
01000000
00001000
00000100
00000010
,
00010000
00000000
00001000
00010000
00001000
00000000
00100000
00000000
,
00010000
01000000
00100000
10000000
,
01000000
00110000
00101000
00000100
,
00001000
00000001
00000100
00000010
,
00000100
00000000
00000001
00000010
00001000
00000000
00000010
00000000
,
00000100
00010000
00010000
00001000
,
00100000
00110000
00110000
01000000
,
10000000
00100000
01000000
00001000
,
00010000
00000000
00000100
00010000
00001000
00000000
01000000
00000000
,
00100000
10000000
00010000
00100000
,
00001000
00001100
00011000
00001000
,
01000000
00100000
10000000
00100000
,
00010000
00000000
00001000
00010000
00001000
00000000
01000000
00000000
,
00100000
00010000
00001000
00000010
,
00000100
00000001
00000100
00001000
,
00000000
00110000
00010000
01000000
,
00000000
00001100
00000010
00000001
,
00000000
00110000
01000000
10000000
,
00000000
00011000
00000100
00001000
,
00000000
00101000
00010000
00000010
,
00000000
00010100
00001000
00010000
,
00000000
01100000
10000000
00010000
,
00100000
02000000
00000000
00000000
,
03000000
00000000
00000000
00000000
;

//---------------dance-double - M. Simmons----------------
#NOTES:
     dance-double:
     M. Simmons:
     Medium:
     6:
     0.321,0.377,0.121,0.101,0.096:
00000000
00000000
00000000
00000000
,
00000000
00000000
00000000
00000000
,
10000000
01000000
00100000
01000000
,
10000000
00010000
01000000
00001000
,
00001000
00010000
00000100
00001000
,
00000010
00000100
00000010
00000001
,
00001000
00010000
01000000
10000000
,
10000000
00000000
00000000
00000000
00020000
00000000
00000000
02000000
00000000
00000000
00030000
00000000
03010000
00000000
00000000
00000000
,
10000000
01000000
00010000
00001000
,
00000100
00000001
00001000
00000100
,
00010000
00001000
00010000
01000000
,
10000000
01000000
10000000
00100000
,
00010000
00001000
00010000
00000100
,
00000010
00000001
00000100
00000010
,
00001000
00000100
00000010
00000001
,
00001000
00000000
00000100
00000000
00010000
00000000
00001000
00020000
,
00000000
00000000
00000000
00030000
00001000
00010000
00011000
00000000
,
00020000
00000000
00000000
00000100
00031000
00000000
00001000
00000000
00000100
00000000
00000100
00000000
00000011
00000000
00000000
00000000
,
00000002
00000000
00000000
00001003
00000010
00000000
00010000
00000000
00001000
00000000
00001000
00000000
00110000
00000000
00000000
00000000
,
00200000
00000000
00000000
01300000
10000000
00000000
00010000
00000000
01000000
00000000
01000000
00000000
11000000
00000000
00000000
00000000
,
00100000
00000000
00000000
00001000
00000000
00000000
00010000
00000000
00000200
00000000
00000000
00001300
00000001
00000000
00001000
00000000
,
00000010
00000000
00000010
00000000
00011000
00000000
00000000
00000000
02000000
00000000
00000000
03010000
10000000
00000000
01000000
00000000
,
10000000
00000000
10000000
00000000
01010000
00000000
00000000
00000000
00002000
00000000
00000000
00013000
00000100
00000000
00001000
00000000
,
00000010
00000000
00000010
00000000
00000011
00000000
00000000
00000000
00001000
00000000
00000000
00000100
00000000
00000000
00000010
00000000
,
00001000
00000000
00000000
00010000
00000000
00000000
00100000
00000000
10000000
00000000
10000000
00000000
01000000
00000000
00100000
00000000
,
00001000
00001000
00010000
00000100
00000010
00000010
00000001
00001000
,
00000010
00000010
00010000
00001000
00100000
00001000
01000000
00010000
,
00100000
10000000
00100000
00010000
01000000
00100000
00010000
00001000
,
00010000
00000000
00010000
00000000
00000100
00000000
00000100
00000000
00001100
00000000
00000000
00010000
00000000
00000000
00001000
00000000
,
00100000
00000000
00000000
00010000
00000000
00000000
01000000
00000000
00100000
00000000
00000000
00010000
00000000
00000000
00001000
00000000
,
00010000
00000000
00000000
00000100
00000000
00000000
00000010
00000000
00000001
00000000
00000000
00001000
00000000
00000000
00000010
00000000
,
00010000
00000000
00000000
00000100
00000000
00000000
00010000
00000000
00011000
00000000
00000000
00000000
00101000
00000000
00000000
00000000
,
01010000
10100000
10000000
00001000
,
00000000
00010000
00010000
00000000
00010000
00000000
00000001
00000000
,
00000000
00001000
00001000
00000000
00000010
00000000
00100000
00000000
,
00000000
00000000
00010000
00000000
00010000
00000000
00000000
00000000
01000000
00000000
00000000
00000000
00000100
00000000
00000000
00010000
,
00000000
00001000
00010000
00000000
00000010
00000000
00010000
00000000
,
00000000
00001000
01000000
00000000
00100000
00000000
00001000
00000000
,
00000000
00000010
00000100
00000000
00000001
00000000
00001000
00000000
,
00000000
00000000
00000100
00000000
00000010
00000000
00000000
00000000
00001000
00000000
00000000
00010000
00000000
00000000
00100000
00000000
,
10000000
00000000
00000000
00010000
00000000
00000000
00200000
00000000
00000000
00000000
00000000
00000000
00000000
00000000
00000000
00000000
,
00000000
00000000
00000000
00300000
00000000
00000000
00000000
00000000
;

//---------------dance-double - M. Simmons----------------
#NOTES:
     dance-double:
     M. Simmons:
     Hard:
     9:
     0.448,0.498,0.162,0.101,0.410:
00000000
00000000
00000000
00000000
,
00000000
00000000
00000000
00000000
,
01000000
00000000
00000000
00010000
00000000
00000000
00100000
00000000
00010000
00000000
00000000
01000000
00000000
00000000
00100000
00000000
,
10000000
00000000
00000000
01000000
00000000
00000000
10000000
00000000
00100000
00000000
00000000
01000000
00000000
00000000
00010000
00000000
,
00000100
00000000
00000000
00000001
00000000
00000000
00000010
00000000
00001000
00000000
00000000
00000010
00000000
00000000
00000100
00000000
,
00001000
00000000
00000000
00000010
00000000
00000000
00000001
00000000
00000010
00000000
00000000
00001000
00000000
00000000
00000100
00000000
,
01000000
00000000
00000000
10000000
00000000
00000000
01000000
00000000
00010000
00000000
00000000
10000000
00000000
00000000
01000000
00000000
,
00100000
00000000
00000000
10000000
00100000
00000000
00000000
00110000
00000000
00000000
00010000
00000000
01010000
00000000
00000000
00000000
,
00001000
00000000
00000000
00000100
00000000
00000000
00000001
00000010
00001000
00000000
00000000
00000010
00000000
00000000
00000001
00000100
,
00000010
00000000
00000000
00000001
00000000
00000000
00000010
00001000
00000100
00000000
00000000
00000010
00000000
00000000
00001000
00010000
,
00100000
00000000
00000000
10000000
00000000
00000000
01000000
00100000
00010000
00000000
00000000
00100000
00000000
00000000
10000000
00010000
,
01000000
00000000
00000000
10000000
00000000
00000000
00100000
00010000
00100000
00000000
10000000
01000000
00000000
01000000
00000000
00100000
,
00001000
00000000
00000000
00000100
00000000
00000000
00000010
00001000
00000001
00000000
00000000
00000010
00000000
00000000
00000100
00001000
,
00000001
00000000
00000000
00000010
00000000
00000000
00001000
00000010
00000001
00000000
00000000
00000100
00000000
00000000
00000010
00000001
,
00001000
00000000
00000000
01000000
00000000
00000000
00010000
00100000
01000000
00000000
00000000
10000000
00000000
00000000
00100000
00010000
,
00100000
00000000
00000000
10000000
00000000
00000000
01000000
00100000
00010000
00000000
01000000
00100000
00000000
01000000
00002000
00000000
,
00000000
00000000
00000000
00000000
00000000
00000000
00003000
00000000
00010000
00000000
00000100
00000000
00000011
00000000
00000001
00000100
,
00000000
00000010
00010000
00000000
00001000
01000000
00100000
00010000
00100000
00000000
10000000
00000000
00011000
00000000
00000100
00000010
,
00000000
00000001
00000100
00000000
00000010
00010000
00001000
00000100
00000001
00000000
00010000
00000000
00001100
00000000
00100000
01000000
,
00000000
10000000
00100000
00000000
00001000
00100000
10000000
00001000
00010000
00000000
00000100
00000000
00000110
00000000
00000001
00000010
,
00000000
00001000
00000010
00000000
00000001
00010000
00000100
00000010
00000100
00000000
00010000
00000000
11000000
00000000
10000000
00001000
,
00000000
01000000
00100000
00000000
01000000
00001000
00010000
00000010
00000100
00000000
00000001
00000000
00010010
00000000
00000010
00010000
,
00000000
00000100
00000010
00000000
00000001
00000010
00001000
00010000
00100000
00000000
10000000
00000000
00011000
00000000
00000010
00000100
,
00000000
00000001
00001000
00000000
00000100
00000010
00000001
00000010
00000200
00000000
00000000
00200300
00000000
00000000
00302000
00000000
,
02003000
00000000
00000000
03200000
00000000
00000000
20300000
00000000
30001000
00000000
00100000
00000000
00001000
00000000
00000010
00000000
,
00000001
00100000
00001000
01000000
10000000
00010000
00100000
00001000
,
00000010
00000100
00000001
00000010
00010000
00001000
00100000
00001000
,
01000000
10000000
00100000
00010000
00001000
00000010
00001000
00100000
,
00000100
00010000
00000001
01000000
00100000
10000000
00000100
00000010
,
00010000
00100000
00000100
00000001
00010000
00100000
00000010
00000100
,
00001000
01000000
00000100
00000010
00010000
00001000
00010000
00000010
,
00000001
00000000
00000100
00000000
00010000
00000000
00000100
00000000
00000002
00000000
00000000
00000100
00000000
00000000
00001000
00000000
,
00010000
00000000
00000000
00100000
00000000
00000000
01000000
00000000
10000003
00000000
00000000
00000000
00000001
00000000
00000000
00000000
,
00000000
00010000
00000110
00000000
01000000
00000000
00001000
00000000
,
00000000
00100000
00000110
00001000
00000010
00000000
00100000
00000000
,
00000000
00000000
01000000
00000000
00000110
00000000
00000000
00000000
00000001
00000000
00000000
00000000
10000000
00000000
00000000
00100000
,
00000000
00100000
00000110
00000000
00000001
00000000
00001000
00000000
,
00000000
00000010
00011000
00000000
00000001
00000000
01000000
00000000
,
00000000
00000010
00011000
00000000
10000000
00000000
01000000
00000000
,
00000000
00000000
00001000
00000000
00011000
00000000
00000000
00000000
00000000
00000000
00000000
00000000
00000020
00000000
00000000
00000130
,
00000000
00000000
00000001
00000000
00010000
00001000
10000000
00020000
00000000
00000000
00000000
00000000
00000000
00000000
00000000
00000000
,
00030000
00000000
00000000
00000000
;

//---------------dance-single - D. Bernardone----------------
#NOTES:
     dance-single:
     D. Bernardone:
     Challenge:
     9:
     0.593,0.593,0.445,0.314,0.592:
0000
0000
0000
0000
,
0000
0000
0000
0000
,
2200
0000
0000
0300
0M2M
0000
0000
3030
,
2020
0000
0000
3000
M20M
0000
0000
0330
,
0220
0000
0000
0030
M0M2
0000
0000
0303
,
0202
0000
0000
0300
2MM0
0000
0000
3003
,
2002
0000
0000
3000
MM20
0000
0000
0033
,
0021
0000
0000
0000
0030
0000
0000
0000
2002
0000
3003
M00M
0000
0000
2002
0000
3003
M00M
0000
0000
M00M
0000
0000
0000
2002
0000
3003
0000
M00M
0000
0000
0000
,
1001
0000
0110
0000
0000
0100
0101
0000
,
0010
0000
0000
0000
1000
0000
0100
0000
0010
0001
0000
0010
0001
0000
0000
0000
,
1000
0000
0101
0000
0000
0010
0110
0000
,
0001
0000
0000
0000
0010
0000
0100
0000
1000
0001
0000
1000
0001
0000
0000
0000
,
0100
0000
0110
0000
0000
1000
1001
0000
,
0010
0000
0000
0000
1100
0000
0100
0000
0000
0010
0000
0000
0001
0000
0000
0000
,
0100
0000
0011
0000
0000
1000
1100
0000
,
0010
0000
0000
0000
0101
0000
0001
1000
0000
0001
1000
0000
0010
0100
0002
00M0
,
0M00
M000
0M03
00M0
000M
00M0
0M00
0000
1001
0000
0001
0100
1000
0100
0001
0100
,
0010
0000
1000
0100
0001
0100
1000
0100
0010
0000
0001
1000
0100
0001
0100
0010
,
0001
1000
1000
0010
0100
0100
0001
0000
0001
0010
1000
0010
0001
0010
0100
0000
,
1000
0010
0001
0010
1000
0010
0100
0000
0001
1000
0010
0001
0010
0100
0001
0000
,
1000
0100
0100
0010
0001
0001
0100
0000
0010
1000
0100
1000
0010
0100
0001
0000
,
0010
0001
0100
0001
0010
0100
1000
0000
0001
1000
0010
1000
0100
1000
0001
0000
,
0100
0010
0010
1000
0001
0001
0010
0000
0010
0001
0100
0010
1000
0100
0010
0000
,
0100
1000
0010
0100
0001
0010
0100
0000
1000
0001
1000
0001
0100
0010
0100
0000
,
0010
1000
0010
0100
0001
0100
0010
0000
1000
1000
0001
0100
0010
0010
1000
0000
,
0100
0100
1000
0010
0100
0100
0001
0000
0010
0010
0001
0100
0001
0001
1000
0000
,
0110
0000
0000
0101
0000
0000
0011
0000
1000
1000
0100
1000
0100
0100
1000
0000
,
0001
0001
0100
0001
0100
0100
0001
0000
1000
1000
0100
1000
0001
0001
0100
0000
,
1010
0000
1100
0000
0011
0000
0101
0000
1000
1000
0010
1000
0010
0010
1000
0000
,
0001
0001
0010
0001
0010
0010
0001
0000
1000
1000
0010
1000
0001
0001
0010
0000
,
0100
0000
1100
0000
1010
0000
0101
0000
0001
0001
1000
0001
1000
1000
0001
0000
,
0100
0100
0010
0100
0010
0010
0100
0000
0001
0001
1000
0001
0100
0100
0010
0000
,
1000
0100
0010
0001
0010
0100
1000
0001
0100
0000
0010
1000
0100
0000
1000
0001
,
0100
0000
0001
0010
0100
0000
1000
0000
1001
0000
0010
0100
1000
0000
0001
0000
,
0100
0000
0010
1000
0001
0000
0010
0000
0100
0000
1000
0010
1000
0000
0001
0000
,
0100
0000
0001
0010
0001
0000
0100
0000
0010
0000
1000
0000
2002
3003
M00M
2002
,
3003
M00M
0100
0000
1001
0000
0000
0000
0010
0000
1000
0000
1100
0000
1000
0000
,
0001
0100
0101
0000
0100
0010
1010
0000
,
1000
0100
0011
0000
0010
0000
0110
0000
,
0000
0000
0001
0000
1001
0000
0000
0000
0010
0000
0000
0000
2002
3003
M00M
2002
,
3003
M00M
0110
0000
0010
0001
0100
0100
0000
0000
0000
0000
0000
0000
0000
0000
;

//---------------dance-single - D. Bernardone----------------
#NOTES:
     dance-single:
     D. Bernardone:
     Hard:
     6:
     0.380,0.348,0.223,0.172,0.126:
0000
0000
0000
0000
,
0000
0000
0000
0000
,
2000
3010
0002
0103
,
0020
0130
2000
3001
,
0200
0310
2000
3001
,
0002
0013
2000
3100
,
0010
0000
0001
0000
0010
0000
0000
0000
0002
0000
0003
0010
0100
0000
0000
0000
,
1000
0000
0001
0000
1000
0000
0000
1000
0000
0000
0000
0000
0100
0000
0000
0000
,
0010
0000
1001
0000
0100
0010
0110
0000
,
1000
1100
0001
0101
,
1000
0001
1001
0000
0010
0100
0110
0000
,
0001
0011
1000
1010
,
1000
0100
0010
0000
0010
0100
1000
0000
,
0001
0100
0010
0000
0010
0100
0001
0000
,
1000
0010
0100
0000
0100
0010
1000
0000
,
0001
0010
0100
0000
0100
0010
0001
2002
,
0000
3003
0000
0000
0110
0001
0100
0000
,
1010
0100
0010
0000
1100
0001
0100
0000
,
0010
0100
0001
0000
0100
0010
1000
0000
0001
0000
1000
0000
0100
0000
0000
0000
,
1001
0010
0001
0000
0101
0010
0100
0000
,
0001
1000
0100
0000
1000
0100
0010
0000
0001
0000
0100
0000
1000
0000
0000
0000
,
1100
0010
0100
0000
1001
0100
1000
0000
,
0001
1000
0010
0000
1000
0010
0100
0000
0010
0000
1000
0000
0100
0000
0000
0000
,
0110
1000
0100
0000
1010
0100
0010
0000
,
1000
0001
1000
0001
0100
0010
0100
0010
1000
0000
0001
0000
0100
0000
0000
0000
,
0010
0000
0000
0010
0000
0000
1000
0000
0100
0000
0100
0000
1000
0000
0000
0000
,
0001
0000
0000
0001
0000
0000
0010
0000
0100
0000
0100
0000
0010
0000
0000
0000
,
0001
0000
0000
0001
0000
0000
1000
0000
0100
0000
0100
0000
1000
0000
0000
0000
,
0110
1000
0011
0100
1001
0000
0001
0000
,
0010
0000
0000
0010
0000
0000
0100
0000
1000
0000
1000
0000
0001
0000
0000
0000
,
0100
0000
0000
0100
0000
0000
0010
0000
1000
0000
1000
0000
0100
0000
0000
0000
,
1000
0000
0000
1000
0000
0000
0001
0000
0010
0000
0010
0000
0001
0000
0000
0000
,
0001
1000
0001
1000
0100
0010
0100
0010
0001
0000
0000
0000
0002
0000
0000
0000
,
0010
0003
1000
0000
0200
0000
0010
0000
,
0001
0300
1000
0000
0010
0000
0200
0000
,
0010
0000
0300
0000
0001
0000
0000
0000
1000
0000
0100
0000
0010
0000
0000
0110
,
0000
0100
1000
0000
0002
0000
0010
0000
,
1000
0003
0100
0000
0020
0000
0001
0000
,
0100
0030
1000
0000
0002
0000
0010
0000
,
0100
0000
0003
0000
1000
0000
0000
0000
0001
0000
0100
0000
0010
0000
0000
0010
,
0000
0000
0100
0000
0001
0000
1000
0100
0000
0000
0000
0000
0000
0000
0000
0000
;
