#TITLE:Wish;
#SUBTITLE:;
#ARTIST:Jihnsius feat. Charlotte Summer;
#TITLETRANSLIT:;
#SUBTITLETRANSLIT:;
#ARTISTTRANSLIT:;
#GENRE:Ethnic;
#CREDIT:Sync by HellRazor;
#BANNER:Wish-bn.png;
#BACKGROUND:Wish-bg.png;
#LYRICSPATH:;
#CDTITLE:;
#MUSIC:Wish.ogg;
#OFFSET:-0.105;
#SAMPLESTART:99.810;
#SAMPLELENGTH:12.000;
#SELECTABLE:YES;
#BPMS:0.000=155.000;
#STOPS:220.000=1.16129;
#BGCHANGES:0.000=Wish-bg.png=1.000=0=0=1=====,
12.000=In The Groove Rebirth/520_JB_HD.mpg=1.000=0=0=1===FadeRight==,
44.000=In The Groove Rebirth/800_JumpBack.mpg=1.000=0=0=1=====,
76.000=In The Groove Rebirth/519_JB_HD.mpg=1.000=0=0=1=====,
108.000=In The Groove Rebirth/167_JB_HD.mpg=1.000=0=0=1=====,
140.000=In The Groove Rebirth/163_JB_HD.mpg=1.000=0=0=1=SongBgWithMovieViz====,
156.000=In The Groove Rebirth/174_JB_HD.mpg=1.000=0=0=1=SongBgWithMovieViz====,
172.000=In The Groove Rebirth/252_JB_HD.mpg=1.000=1=0=1=SongBgWithMovieViz==CrossFade==,
188.000=In The Groove Rebirth/505_JB_HD.mpg=1.000=0=0=1=====,
220.000=Wish-bg.png=1.000=0=0=1=====,
221.000=In The Groove Rebirth/520_JB_HD.mpg=1.000=0=0=1=====,
253.000=In The Groove Rebirth/800_JumpBack.mpg=1.000=0=0=1=====,
285.000=Wish-bg.png=1.000=0=0=1=====,
99999=-nosongbg-=1.000=0=0=0 // don't automatically add -songbackground-
;
#BGCHANGES2:44.000=yellow flash=1.000=0=0=1=====,
76.000=white flash=1.000=0=0=1=====,
108.000=flash=1.000=0=0=1====1^0^1^1=,
140.000=white flash=1.000=0=0=1=====,
188.000=flash=1.000=0=0=1====1^0^1^1=,
220.000=white flash=0.500=0=0=1=====,
221.000=yellow flash=1.000=0=0=1=====,
253.000=white flash=1.000=0=0=1=====,
285.000=white flash=1.000=0=0=1=====,
;
#KEYSOUNDS:;

//---------------dance-double - J. Gowen & D. Bernardone----------------
#NOTES:
     dance-double:
     J. Gowen & D. Bernardone:
     Hard:
     7:
     0.524,0.537,0.319,0.266,0.160:
00000000
00000000
00000000
00000000
,
00000000
00000000
00000000
00000000
,
00000000
00000000
00000000
00000000
,
00010000
00000000
00000000
00110000
00000000
00000000
00001000
00000000
,
00000000
00010000
00000010
00001000
,
00000001
00000000
00000000
00001100
00000000
00000000
00000010
00000000
,
00000000
00000001
00000100
00001000
,
00010000
00000000
00000000
00101000
00000000
00000000
00010000
00000000
,
00000000
10000000
00100000
01000000
,
00010000
00000000
00000000
00110000
00000000
00000000
01000000
00000000
,
00000000
10000000
00100000
01000000
,
00010000
00000000
00000000
10000000
00000000
00000000
01000000
00000000
00000000
00100000
00000000
00000000
00001000
00000000
00000000
00000000
,
00010000
00000000
00000000
00000010
00000000
00000000
00010000
00000000
00001000
00000000
00100000
00000000
00010000
00000000
00000000
00000000
,
01000000
00000000
00000000
00100000
00000000
00000000
00010000
00000000
00000000
00001000
00000000
00000000
00000100
00000000
00000000
00000000
,
00000010
00000000
00000000
00010000
00000000
00000000
00000100
00000000
00001000
00000000
00000000
00000000
00000001
00000000
00000000
00000000
,
00000010
00000000
00000000
00000100
00000000
00000000
00010000
00000000
00000000
00000010
00000000
00000000
00001000
00000000
00000000
00000000
,
00000100
00000000
00000000
00000010
00000000
00000000
00001000
00000000
00010000
00000000
01000000
00000000
00100000
00000000
00000000
00000000
,
00010000
00000000
00000000
10000000
00000000
00000000
00010000
00000000
01000000
00000000
00001000
00000000
00010000
00000000
00000000
00000000
,
00000010
00001000
00000100
00000010
00000001
00000000
00001001
00000000
,
00000000
00000001
00001000
00000001
00000010
00000100
00001000
00000010
,
00000000
00011000
00000000
00010100
00000000
00000100
00001000
00000010
,
00010000
00001000
00100000
00010000
00000000
10010000
00000000
11000000
,
00000000
00100000
00000000
00010000
00000000
10000000
00000000
01000000
,
00000000
00100000
00010000
01000000
00001000
00010000
00100000
01000000
,
00000000
10010000
00000000
10100000
00000000
00000000
00000000
01000000
,
00010000
00000000
00100000
00001000
00010000
00000100
00000000
00000010
,
00000000
00000000
00000000
00000100
00001000
00000010
00000000
00000110
,
00000000
00000000
00000002
00000000
00000000
00000003
00000020
00000000
00000000
00000030
00002000
00000000
00000000
00003000
00020000
00000000
,
00000000
00030000
00000000
00000000
01000000
00000000
00000000
00000000
00100000
00000000
00010000
00000000
00000000
00000000
01010000
00000000
,
00000000
00000000
00100000
00000000
00010000
00000000
00002000
00000000
00000000
00003000
00100000
00000000
01000000
00000000
20000000
00000000
,
00000000
30000000
00000000
00000000
00000000
00000000
00010000
00000000
01000000
00000000
00100000
00000000
00000000
00000000
10100000
00000000
,
00000000
00000000
02000000
00000000
00000000
03000000
00002000
00000000
00000000
00003000
00200000
00000000
00000000
00300000
00020000
00000000
,
00000000
00030000
00000000
00000000
01000000
00000000
00000000
00000000
00001000
00000000
00010000
00000000
00000000
00000000
00010010
00000000
,
00000000
00000010
00001000
00000001
00000010
00000100
00001000
00000000
,
00000010
00010000
00001000
00100000
00010000
00000000
01000000
00000000
,
20200000
00000000
00000000
30300000
00000000
00000000
00000000
00000000
,
02000000
00000000
00000000
03000000
00000000
00000000
00000000
00000000
,
00020000
00000000
00000000
00030000
00200000
00000000
00000000
00300000
,
00002000
00000000
00000000
00003000
02000000
00000000
00000000
03000000
,
00200000
20300000
32000000
10000000
,
03200000
00302000
00023000
00000010
,
00030200
00000302
00002003
00000010
,
00023000
00000100
00000001
00000100
,
00032000
00000010
00000001
00000100
,
00023000
00100000
10000000
01000000
,
00032000
00000100
00010000
01003000
,
00100000
00010000
00001000
00000000
00010000
00001000
01000000
00000000
,
01010000
11000000
01100000
10100000
,
10000000
01000000
00100000
00010000
01000000
00001000
00010000
00000000
,
00010100
00001010
00001001
00000110
,
00000001
00000001
00000100
00000100
00001000
00010000
01000000
10000000
,
10010000
00110000
00101000
01010000
,
00010000
00100000
01000000
10000000
00100000
01000000
00010000
00000000
,
00110000
00011000
00010010
00000110
,
00001000
00000100
00000001
00000100
00010000
00001000
00100000
00001000
,
00011000
00000000
00000000
00000000
01000000
00000000
00010000
10000000
00000000
00000000
01000000
00000000
00100000
00000000
00010000
00000000
,
01000000
00000000
00000000
00000000
00001000
00000000
00010000
00000010
00000000
00000000
00001000
00000000
00000100
00000000
00000010
00000000
,
00000001
00000000
00000000
00000000
00001000
00000000
00000000
00000001
00000000
00000000
00000100
00000000
00000000
00001000
00000000
00000000
,
00010000
00000000
00001000
00000000
00100000
00000000
00000000
00010000
00000000
00000000
01000000
00000000
00000000
00001000
00000000
00000000
,
00010000
00000000
00000010
00000000
00010000
00000000
00000100
00001000
00000000
00000000
00000100
00000000
00000010
00000000
00000001
00000000
,
00000100
00000000
00000000
00000000
00000010
00000000
00001000
00000100
00000000
00000000
00000010
00000000
00001000
00000000
00010000
00000000
,
00000100
00000000
00000000
00000000
00001000
00000000
00000000
00000010
00000000
00000000
00000100
00000000
00000000
00001000
00000000
00000000
,
00010000
00000000
01000000
00000000
00100000
00000000
00000000
00001000
00000000
00000000
00010000
00000000
00000000
00000100
00000000
00000000
,
00001000
00000000
00000010
00000000
00010000
00000000
00001000
00100000
00000000
00100000
00010000
00000000
01000000
00000000
00100000
00000000
,
10000000
00000000
00000000
00000000
01000000
00000000
00100000
00010000
00000000
00010000
01000000
00000000
00100000
00000000
00010000
00000000
,
00001000
00000000
00000000
00000000
00000100
00000000
00000000
00000010
00000000
00000000
00001000
00000000
00000000
00000001
00000000
00000000
,
00000010
00000000
00001000
00000000
00010000
00000000
00000000
01001000
00000000
00000000
00100000
00000000
00000000
01010000
00000000
00000000
,
01000000
00000000
00100000
00000000
10000000
00000000
01000000
00100000
00000000
00100000
00010000
00000000
01000000
00000000
00001000
00000000
,
00010000
00000000
00000000
00000000
00000010
00000000
00001000
00000010
00000000
00000010
00010000
00000000
00001000
00000000
00100000
00000000
,
00010000
00000000
01000000
00010000
00100000
00001000
00010000
00000100
,
00001000
00000000
00000010
00000000
00010000
00000000
00001000
00000000
00100000
00000000
00010000
00000000
01000000
00100000
00000000
10000000
,
00100000
10100000
00000000
00000000
;

//---------------dance-double - J. Gowen & D. Bernardone----------------
#NOTES:
     dance-double:
     J. Gowen & D. Bernardone:
     Challenge:
     10:
     0.758,0.730,0.346,0.292,0.793:
00000000
00000000
00000000
00000000
,
00000000
00000000
00000000
00000000
,
00000000
00000000
00000000
00000000
,
02002000
00000000
00000000
00100000
00000000
03003000
10010000
00000000
,
00000000
00101000
00010100
00001010
,
00000202
00000000
00000000
00001000
00000000
00000303
00001100
00000000
,
00000000
00001001
00010010
01001000
,
20020000
00000000
00000000
00001000
00000000
30030000
01100000
00000000
,
00000000
00101000
00010010
01001000
,
00020200
00000000
00000000
00001000
00000000
00030300
00001001
00000000
,
00000000
00000110
00010100
00010010
,
00001000
00000001
00000000
00000001
00000010
00000000
00000010
00000100
00000000
00000100
00010000
00000000
00001000
00000000
00000000
00000000
,
00100000
00010000
00000000
00010000
01000000
00000000
01000000
00001000
00000000
00001000
00010000
00000000
00100000
00000000
00000000
00000000
,
10000000
01000000
00000000
01000000
00100000
00000000
00100000
00010000
00000000
00010000
01000000
00000000
00100000
00000000
00010000
00000000
,
00001000
00000100
00000000
00000100
00000010
00000000
00000010
00000001
00000000
00000000
00000110
00000000
00000000
00001001
00000000
00000000
,
00000010
00000100
00000000
00000100
00001000
00000000
00001000
00000010
00000000
00000010
00010000
00000000
00001000
00000000
00000000
00000000
,
00100000
00010000
00000000
00010000
10000000
00000000
10000000
00100000
00000000
00100000
01000000
00000000
00010000
00000000
00000000
00000000
,
00100000
00001000
00000000
00001000
00010000
00000000
00010000
00000010
00000000
00000010
00001000
00000000
00000100
00000000
00000010
00000000
,
00001000
00010000
00000000
00010000
01000000
00000000
01000000
00100000
00000000
00100000
00010000
00000000
01000000
00000000
00000000
00000000
,
00000000
10000000
01000000
00100000
00010000
00001000
00000010
00000001
,
00000000
00001100
00000000
00010010
00000000
00000100
00001000
00010000
,
00100000
01000000
00010000
10000000
00000000
00110000
00000000
00010100
,
00000000
00000000
00000020
00000000
00000000
00000030
00002000
00000000
00000000
00003000
00020000
00000000
00000000
00030000
00200000
00000000
,
00000000
00300000
01000000
00000000
00100000
00000000
00010000
00000000
00001000
00000000
00000100
00000000
00000001
00000000
00000010
00000000
,
00000000
00001010
00000000
00010100
00000000
00000000
00000000
00000010
,
00001000
00000000
00001000
00010000
00100000
10000000
00000000
11000000
,
00000000
00000000
00000000
00100000
00010000
01000000
00000000
00010010
,
00000000
00000000
00000200
00000000
00000000
00000300
00000020
00000000
00000000
00000030
00002000
00000000
00000000
00003000
00020000
00000000
,
00000000
00030000
00200000
00000000
00310000
00000000
00000000
00000000
00000100
00000000
00010000
00000000
00000000
00000000
00101000
00000000
,
00000000
01000000
00000000
00010010
00000000
00000100
00000000
00101000
,
00000000
00010010
00000000
00001000
00000100
00000010
00000000
00001010
,
00000000
00000000
00020000
00000000
00000000
00030000
00200000
00000000
00000000
00300000
00020000
00000000
00000000
00030000
00002000
00000000
,
00000000
00003000
00000200
00000000
00001300
00000000
00000000
00000000
00100000
00000000
00001000
00000000
00000000
00000000
00010010
00000000
,
00000000
00001000
00000001
00000010
00001000
00010000
00100000
10000000
,
00010000
01000000
00100000
00010000
00001000
00000010
00000001
00001000
,
00020020
00000000
00000000
00000030
,
00032000
00000000
00000000
00000000
,
02003000
00000000
03200000
00000000
,
00320000
00032000
00003020
00000230
,
00001300
00000000
00000000
00000010
00000000
00000000
00000100
00000000
00000001
00000010
00000000
00000010
00000100
00000000
00001000
00000000
,
00000010
00000000
00000000
00000100
00000000
00000000
00001000
00000000
00010000
00000100
00000000
00000100
00010000
00000000
00001000
00000000
,
01000000
00000000
00000000
00100000
00000000
00000000
00010000
00000000
00100000
01000000
00000000
01000000
00010000
00000000
00100000
00000000
,
01000000
00000000
00100000
00001000
00000000
00001000
01000000
00000000
01000000
00100000
00000000
00100000
10000000
00000000
01000000
00000000
,
00100000
00000000
00001000
00010000
00000000
00001000
00010000
00000000
00000100
00000010
00000000
00000010
00000100
00000000
00001000
00000000
,
00000010
00000000
00010000
00001000
00000000
00010000
00001000
00000000
01000000
00010000
00000000
00010000
01000000
00000000
00100000
00000000
,
10000000
00000000
01000000
00100000
00000000
00100000
01000000
00000000
10000000
00010000
00000000
00100000
00001000
00000000
00010000
00000000
,
00000010
00000000
00000001
00000010
00000000
00001000
00000100
00000000
00000010
00001000
00000000
00010000
00000100
00000000
00000010
00000000
,
00000001
00000000
00001000
00000100
00000000
00000100
00010000
00000000
00010000
00001000
00000000
00001000
00100000
00000000
00010000
00000000
,
01000000
00000000
00100000
10000000
00000000
10000000
01000000
00000000
01000000
00100000
00000000
00100000
00010000
00000000
10000000
00000000
,
00100000
00000000
01000000
00010000
00000000
00100000
00001000
00000000
00010000
00000100
00000000
00001000
00000010
00000000
00000100
00000000
,
00000001
00000000
00000010
00000100
00000000
00010000
00001000
00000000
00100000
01000000
00000000
10000000
00010000
00000000
01000000
00000000
,
00100000
00000000
00010000
00001000
00000000
00001000
00000010
00000000
00000010
00000100
00000000
00000100
00001000
00000000
00000010
00000000
,
00000100
00000000
00000001
00000010
00000000
00000010
00001000
00000000
00001000
00010000
00000000
00010000
00000100
00000000
00001000
00000000
,
00000010
00000000
00000100
00001000
00000000
00010000
00100000
00000000
01000000
00010000
00000000
00100000
01000000
00000000
10000000
00000000
,
00100000
00000000
01000000
00010000
00000000
00100000
00001000
00000000
00010000
00000010
00000000
00001000
00000100
00000000
00000010
00000000
,
00001001
00000000
00000000
00000000
00000100
00000000
00000010
00001000
00000000
00000100
00000010
00000000
00000001
00001000
00000000
00000010
,
00000100
00000010
00001000
00000000
00000100
00000000
00000010
00001000
00000000
00010000
01000000
00000000
00100000
00010000
00000000
10000000
,
01000000
10000000
00010000
10000000
00100000
00000000
00100000
01000000
00000000
01000000
00001000
00000000
00001000
00010000
00000000
00000010
,
00001000
00000010
00000100
00000000
00000001
00000000
00000001
00001000
00000000
00001000
00000010
00000000
00000010
00010000
00000000
00010000
,
00001000
00010000
00000100
00010000
00001000
00000000
01000000
00010000
00000000
00100000
01000000
00000000
00010000
00001000
00000000
00100000
,
00010000
00100000
01000000
00000000
10000000
00000000
00100000
01000000
00000000
00001000
00010000
00000000
00000010
00000100
00000000
00000001
,
00000010
00000001
00001000
00000001
00000100
00000000
00000100
00000010
00000000
00000010
00010000
00000000
00010000
00001000
00000000
00100000
,
00010000
00100000
01000000
00000000
10000000
00000000
10000000
00100000
00000000
00100000
01000000
00000000
01000000
00001000
00000000
00001000
,
00100000
00001000
00010000
00001000
00100000
00000000
00010000
01000000
00000000
00100000
00010000
00000000
00001000
00000010
00000000
00000100
,
00001000
00000100
00000010
00000000
00001000
00000000
00010000
00100000
00000000
01000000
00001000
00000000
00100000
01000000
00000000
00010000
,
00001000
00010000
00000010
00010000
00000100
00000000
00000100
00000010
00000000
00000010
00000001
00000000
00000001
00000100
00000000
00000010
,
00001000
00000010
00000100
00000000
00001000
00000000
00001000
00010000
00000000
00010000
00100000
00000000
00100000
10000000
00000000
10000000
,
01000000
10000000
00010000
10000000
01000000
00000000
00100000
00010000
00000000
01000000
00100000
00000000
00010000
00001000
00000000
00100000
,
00001000
00010000
00000100
00000000
00000010
00000000
00000001
00000100
00000000
00001000
00010000
00000000
00000100
00000010
00000000
00001000
,
00010000
00001000
00100000
00001000
01000000
00000000
01000000
00100000
00000000
00100000
00010000
00000000
00010000
00001000
00000000
00100000
,
00001000
00010000
00000100
00000000
00000010
00000000
00000010
00000001
00000000
00000001
00000100
00000000
00000100
00001000
00000000
00001000
,
00010000
00100000
02200000
00000000
00000000
03300000
00000000
00000000
;

//---------------dance-double - J. Gowen----------------
#NOTES:
     dance-double:
     J. Gowen:
     Medium:
     5:
     0.339,0.349,0.035,0.080,0.009:
00000000
00000000
00000000
00000000
,
00000000
00000000
00000000
00000000
,
00000000
00000000
00000000
00000000
,
00010000
00000000
00000000
01000000
00000000
00000000
10000000
00000000
,
00000000
00010000
00100000
00001000
,
00010000
00000000
00000000
00100000
00000000
00000000
10000000
00000000
,
00000000
01000000
00010000
00001000
,
00000010
00000000
00000000
00000001
00000000
00000000
00000100
00000000
,
00000000
00000010
00010000
00001000
,
01000000
00000000
00000000
00100000
00000000
00000000
10000000
00000000
,
00000000
01000000
00100000
00001000
,
00010000
00000000
00000000
00100000
00000000
00000000
01000000
00000000
,
00000000
00001000
00010000
00000100
,
00000010
00000000
00000000
00000001
00000000
00000000
00000100
00000000
,
00000000
00000010
00010000
00000100
,
00010000
00000000
00000000
00001000
00000000
00000000
00100000
00000000
,
00000000
01000000
10000000
00010000
,
00100000
00000000
00000000
01000000
00000000
00000000
00010000
00000000
,
00000000
00001000
00010000
00000010
,
00000000
00001000
00000100
00000000
00000010
00000000
00000001
00000100
,
00000000
00000010
00000000
00001000
00000000
00000100
00000010
00000000
,
00000100
00000000
00010000
00001000
00000000
00100000
00000000
00010000
,
00000000
00000000
00000000
01000000
00000000
00100000
10000000
00000000
,
00000000
00010000
01000000
00000000
00100000
00000000
00010000
00001000
,
00000000
00100000
00000000
00010000
00000000
00000000
00000000
01000000
,
00010000
00000000
00100000
00000000
00001000
00010000
00000000
00000010
,
00000000
00000000
00000000
00001000
00000001
00001000
00000000
00000010
,
00000000
00000100
00000000
00000001
00000000
00001000
00000000
00000010
,
00000000
00000000
00010000
00000000
00001000
00100000
00000000
01000000
,
00000000
10000000
00000000
00010000
00000000
00100000
00000000
01000000
,
00000000
00000000
00000000
00100000
00001000
00010000
00000000
00000010
,
00000000
00001000
00000000
00000100
00000000
00010000
00000000
00001000
,
00000000
00000000
00100000
00000000
00010000
01000000
00000000
00001000
,
00000000
00010000
00000000
00000010
00000000
00010000
00000000
00001000
,
00000000
00100000
00000000
00001000
00000000
00010000
00000000
00000000
,
00022000
00000000
00000000
00033000
00000000
00000000
00000000
00000000
,
00002000
00000000
00000000
00003000
00000000
00000000
00000000
00000000
,
02000000
00000000
00000000
03000000
00020000
00000000
00000000
00030000
,
00200000
00000000
00000000
00300000
02000000
00000000
00000000
03000000
,
11000000
00000000
00000000
00100000
00000000
00000000
00010000
00000000
,
01000000
00000000
00000000
00100000
00000000
00000000
00010000
00000000
,
00001000
00000000
00000000
01000000
00000000
00000000
00001000
00000000
,
00010000
00000000
00000000
00000010
00000000
00000000
00001000
00000000
,
00000001
00000000
00000000
00000010
00000000
00000000
00000100
00000000
,
00001000
00000000
00000000
00000010
00000000
00000000
00000100
00000000
,
00001000
00000000
00000000
00010000
00000000
00000000
00000010
00000000
,
00001000
00000000
00000000
00000010
00000000
00000000
00010000
00000000
00000000
00001000
00000000
00000000
01000000
00000000
00000000
00000000
,
00000000
00010000
00100000
00010000
10000000
00000000
00100000
01000000
,
00000000
00010000
00000000
00100000
00000000
00001000
00010000
00001000
,
00100000
00000000
00001000
00010000
00000000
00000100
00000000
00001000
,
00000000
00000000
00000000
00000010
00000000
00001000
00000100
00000000
,
00000000
00000000
00000010
00000100
00001000
00000000
00000001
00000000
,
00000100
00000010
00000000
00001000
00000000
00000000
00000000
00000100
,
00000010
00000000
00001000
00000000
00010000
01000000
00000000
10000000
,
00000000
00000000
00000000
00010000
00000000
00100000
00010000
00000000
,
01010000
00100000
00001000
00010000
,
00000100
00000010
00000001
00000100
,
00000010
00000000
00001000
00000001
00001000
00000000
00000100
00000000
,
00000010
00000000
00000001
00001000
00000001
00000000
00000100
00000000
,
00000010
00010000
00001000
00100000
,
01000000
10000000
01000000
00100000
,
00001000
00000000
00010000
00000100
00010000
00000000
00001000
00000000
,
00100000
00000000
00001000
00010000
00001000
00000000
00100000
00000000
,
00010000
01000000
00001000
00010000
,
00000100
00000010
00000001
00000100
,
00000010
00000000
00010000
00001000
00010000
00000000
00000010
00000000
,
00001000
00000000
00000100
00010000
00000100
00000000
00001000
00000000
,
00000010
00010000
00001000
00100000
,
01000000
10000000
00100000
01000000
,
00001000
00000000
00010000
00001000
00010000
00000000
00000010
00001000
,
00000010
00000000
00000100
00000001
00000100
00000000
00000010
00000000
,
00001000
00022000
00033000
00000000
;

//---------------dance-double - J. Gowen----------------
#NOTES:
     dance-double:
     J. Gowen:
     Easy:
     3:
     0.219,0.221,0.027,0.000,0.000:
00000000
00000000
00000000
00000000
,
00000000
00000000
00000000
00000000
,
00000000
00000000
00000000
00000000
,
00010000
00000000
00000000
00001000
,
00000000
00100000
00010000
00000000
,
10000000
00000000
00000000
01000000
,
00000000
00100000
00010000
00000000
,
01000000
00000000
00000000
00001000
,
00000000
00010000
00000010
00000000
,
00001000
00000000
00000000
00000001
,
00000000
00000010
00000100
00000000
,
00001000
00000000
00000010
00000000
,
00001000
00000100
00001000
00000000
,
00000010
00000000
00010000
00000000
,
00010000
00001000
00000000
00010000
,
00001000
00000000
00100000
00000000
,
00010000
01000000
00010000
00000000
,
00100000
00000000
01000000
00000000
,
10000000
00010000
00000000
00100000
,
00000000
01000000
00100000
01000000
,
00100000
00010000
00100000
00000000
,
00100000
00001000
00100000
00001000
,
00010000
00000000
00001000
00000000
,
00000000
00010000
00000010
00010000
,
00000010
00001000
00000010
00000000
,
00000010
00000100
00000010
00000100
,
00000001
00000000
00001000
00000010
,
00010000
00000000
00001000
00000000
,
00100000
00000000
00010000
10000000
,
01000000
00000000
00100000
00000000
,
00010000
00000000
01000000
00001000
,
00010000
00000000
00000100
00000000
,
00001000
00000000
00000001
00000010
,
00000100
00000000
00001000
00000000
,
00000001
00000000
00001000
00000000
,
00001010
00000000
00000000
00000000
,
00010000
00000000
00000000
00000000
,
00001000
00000000
00000000
00000000
,
00010000
00000000
00000000
00001000
,
01000000
00000000
00000000
00000000
,
00010000
00000000
00000000
00000000
,
10000000
00000000
00100000
00000000
,
01000000
00000000
00100000
00000000
,
10000000
00000000
00000000
00000000
,
00010000
00000000
00000000
00000000
,
00100000
00010000
00100000
00000000
,
00001000
00010000
00001000
00010000
,
00000000
00001000
00010000
00000010
,
00001000
00000010
00001000
00000000
,
00001000
00000001
00001000
00000100
,
00001000
00000000
00000010
00000000
,
00000000
00010000
00001000
01000000
,
00010000
01000000
00010000
00000000
,
00010000
10000000
00010000
00100000
,
00010000
00000000
01000000
00000000
,
01010000
10000000
00000000
00010000
,
00000000
00100000
00010000
00100000
,
00010000
01000000
00000000
00001000
,
00000000
00010000
00000000
00000100
,
00010000
00000100
00000000
00001000
,
00000000
00000010
00000100
00000010
,
00000100
00000001
00000000
00000010
,
00000000
00000100
00000000
00001000
,
00000001
00001000
00000000
00000010
,
00000000
00010000
00001000
00010000
,
00001000
01000000
00000000
00010000
,
00000000
00100000
00000000
01000000
,
10000000
01000000
00000000
00100000
,
00000000
00010000
01000000
00010000
,
01000000
00001000
00000000
00010000
,
00000000
00000010
00010000
00001000
,
00000000
00011000
00000000
00000000
;

//---------------dance-single - D. Bernardone----------------
#NOTES:
     dance-single:
     D. Bernardone:
     Beginner:
     1:
     0.110,0.126,0.035,0.000,0.000:
0000
0000
0000
0000
,
0000
0000
0000
0000
,
0000
0000
0000
0000
,
1000
0000
0000
0000
,
0100
0000
0000
0000
,
0010
0000
0000
0000
,
0001
0000
0000
0000
,
0100
0000
0000
0000
,
0010
0000
0000
0000
,
0100
0000
0000
0000
,
0001
0000
0000
0000
,
1000
0000
0000
0000
,
0100
0000
0000
0000
,
0001
0000
0000
0000
,
0100
0000
0000
0000
,
1000
0000
0000
0000
,
0010
0000
0000
0000
,
0001
0000
0000
0000
,
0010
0000
0000
0000
,
1000
0000
1000
0000
,
0100
0000
0100
0000
,
0010
0000
0010
0000
,
0001
0000
0000
0000
,
0100
0000
0100
0000
,
0010
0000
0010
0000
,
1000
0000
1000
0000
,
1000
0000
0001
0000
,
1001
0000
0000
0000
,
1000
0000
0000
0000
,
0100
0000
0000
0000
,
0010
0000
0000
0000
,
0001
0000
0000
0000
,
0100
0000
0000
0000
,
0010
0000
0000
0000
,
1000
0000
0000
0000
,
1001
0000
0000
0000
,
0010
0000
0000
0000
,
0010
0000
0000
0000
,
0010
0000
0000
0000
,
1000
0000
0000
0000
,
0001
0000
0000
0000
,
0010
0000
0000
0000
,
0100
0000
0000
0000
,
0010
0000
0000
0000
,
0001
0000
0000
0000
,
1000
0000
0000
0000
,
0010
0000
0000
0000
,
0100
0000
0100
0000
,
0010
0000
0010
0000
,
1000
0000
1000
0000
,
1000
0000
0000
0000
,
0001
0000
0001
0000
,
0010
0000
0010
0000
,
0100
0000
0100
0000
,
0100
0000
0000
0000
,
0110
1000
0000
0000
,
0000
0001
0000
0000
,
0000
0100
0000
0000
,
0000
0001
0000
0000
,
0000
0010
0000
0000
,
0000
0001
0000
0000
,
0000
1000
0000
0000
,
0000
0100
0000
0000
,
0000
1000
0000
0000
,
0000
0010
0000
0000
,
0000
1000
0000
0000
,
0000
0001
0000
0000
,
0000
0010
0000
0000
,
0000
0100
0000
0000
,
0000
1000
0000
0000
,
0000
0010
0000
0000
,
0000
0110
0000
0000
;

//---------------dance-single - D. Bernardone----------------
#NOTES:
     dance-single:
     D. Bernardone:
     Easy:
     3:
     0.246,0.254,0.044,0.089,0.000:
0000
0000
0000
0000
,
0000
0000
0000
0000
,
0000
0000
0000
0000
,
2000
0000
0000
3000
0000
0000
0001
0000
,
0000
0010
0010
0010
,
0200
0000
0000
0300
0000
0000
1000
0000
,
0000
0010
0010
0010
,
0200
0000
0000
0300
0000
0000
0001
0000
,
0000
1000
1000
1000
,
0020
0000
0000
0030
0000
0000
1000
0000
,
0000
0100
0100
0100
,
0020
0000
0000
0030
0000
0000
0001
0000
,
0000
0100
0100
0100
,
0020
0000
0000
0030
0000
0000
0100
0000
,
0000
0001
0001
0001
,
2000
0000
0000
3000
0000
0000
0001
0000
,
0000
0010
0010
0010
,
0200
0000
0000
0300
0000
0000
0010
0000
,
0000
0001
0001
0001
,
1000
0000
0100
0000
,
0010
0001
1000
0000
,
0010
0000
0100
0001
,
1000
0000
0000
0000
,
0100
0000
1000
0000
,
0001
0100
0010
0000
,
1000
0000
0001
0010
,
0100
0000
1000
0000
,
1001
0000
0001
0100
,
0010
0000
1000
0100
,
1000
0000
0001
0010
,
0100
0000
1000
0001
,
1000
0000
0010
0100
,
0001
0000
0010
0100
,
0010
0000
0100
1000
,
0001
0000
0100
0000
,
0110
0000
1000
0000
,
0100
0000
1000
1000
,
1000
0000
0001
0000
,
0100
0000
0001
0001
,
0001
0000
0010
0000
,
0100
0000
1000
1000
,
1000
0000
0010
0000
,
0100
0000
0001
0001
,
0001
0000
1000
0000
,
0100
0000
0010
0010
,
0010
0000
0001
0000
,
1000
0000
0010
0010
,
0010
0000
0100
0000
,
0001
1000
0010
0000
,
0100
0000
0001
1000
,
0001
0000
0000
0000
,
1000
0000
1000
0000
,
0010
0100
0001
0000
,
0010
0100
0010
0000
,
0001
0000
1000
0000
,
0110
0001
0000
1000
,
1000
0100
0000
1000
,
1000
0001
0000
1000
,
1000
0010
0000
0100
,
0000
0001
0001
0010
,
0000
0001
0001
1000
,
0000
0001
0001
0100
,
0000
0010
0000
0100
,
0000
0110
0000
0001
,
0001
0100
0000
0010
,
0010
1000
0000
0100
,
0100
0010
0000
0001
,
0001
1000
0000
0010
,
0010
1000
0000
0001
,
0001
0100
0000
0010
,
0000
1000
1000
0001
,
0001
2002
0000
3003
;

//---------------dance-single - D. Bernardone----------------
#NOTES:
     dance-single:
     D. Bernardone:
     Medium:
     5:
     0.404,0.350,0.328,0.177,0.000:
0000
0000
0000
0000
,
0000
0000
0000
0000
,
0000
0000
0000
0000
,
1000
0000
0000
0100
0000
0000
1100
0000
,
0000
0011
0011
0011
,
0001
0000
0000
0100
0000
0000
0101
0000
,
0000
1010
1010
1010
,
1000
0000
0000
0001
0000
0000
1001
0000
,
0000
0110
0110
0110
,
1000
0000
0000
0001
0000
0000
0110
0000
,
0000
1001
0110
1001
,
1000
0100
1000
0000
0010
0000
0100
0000
,
0001
1000
0001
0000
0100
0000
0001
0000
,
0010
0001
0010
0000
0100
0000
1000
0000
,
0010
1000
0010
0000
0100
0000
0001
0000
,
1000
0100
1000
0000
0010
0000
0100
0000
,
0001
1000
0001
0000
0010
0000
0001
0000
,
0100
0001
0100
0000
0010
0000
1000
0000
,
0100
0010
0100
0000
1000
0000
0001
0000
,
1001
0000
1000
1000
1000
0000
0001
0000
,
0100
0100
0100
0020
,
1030
1000
1000
0000
0001
0000
0100
0000
,
0101
0000
0000
0000
,
1001
0000
0001
0001
0001
0000
0010
0000
,
0100
0100
0100
2000
,
3001
0000
0100
0100
0100
0000
0010
0000
,
0110
0000
1000
0001
,
0110
0000
2000
0100
,
3001
0001
1000
0100
,
0011
0000
0002
0100
,
1000
0103
0001
0100
,
1010
0000
0002
0010
,
1003
1000
0010
0100
,
1001
1000
1000
0001
,
0001
0010
0010
0100
,
0210
0000
1300
0001
,
0200
0000
0310
0100
,
0002
0000
1003
0100
,
0110
0000
0011
0000
,
1002
0000
0103
0010
,
2000
0000
3100
0010
,
0002
0000
0103
0100
,
0010
1000
0100
0010
,
0002
0000
0103
0010
,
2000
0000
3001
0010
,
0200
0000
1300
0001
,
0100
0001
0010
0100
,
1001
0000
1000
1000
1000
0000
0001
0000
,
0010
0010
0010
0200
,
1300
1000
1000
0000
0001
0000
0010
0000
,
0011
0000
0000
0000
,
1001
0000
0001
0001
0001
0000
0100
0000
,
0010
0010
0010
2000
,
3001
0000
0010
0010
0010
0000
0100
0000
,
0110
0000
0000
0000
,
1002
0000
0103
0000
0000
0000
0010
1000
,
0010
0000
0100
0000
0000
0000
0001
1000
,
0001
0000
0010
0000
0000
0000
0100
1000
,
0100
0000
0010
0000
0000
0000
0001
0100
,
0001
0000
0010
0000
0000
0000
0001
1000
,
0001
0000
0100
0000
0000
0000
0001
0010
,
0001
0000
0100
0000
0000
0000
0010
0100
,
0010
1000
0000
0001
,
1000
0000
0110
0000
0000
0000
1000
0001
,
1000
0001
1000
0000
0000
0000
0001
0100
,
0001
0100
0001
0000
0000
0000
0100
0010
,
0100
0010
0100
0000
0000
0000
0010
1000
,
0010
1000
0010
0000
0000
0000
1000
0100
,
1000
0100
1000
0000
0000
0000
0001
0010
,
0001
0010
0001
0000
0000
0000
2000
0000
,
3100
0110
0001
0101
,
1000
2002
0000
3003
;

//---------------dance-single - D. Bernardone----------------
#NOTES:
     dance-single:
     D. Bernardone:
     Challenge:
     9:
     0.753,0.668,0.328,0.027,0.767:
0000
0000
0000
0000
,
0000
0000
0000
0000
,
0000
0000
0000
0000
,
1001
0000
0000
1100
0000
0000
1001
0000
,
0000
0110
0011
0101
,
1001
0000
0000
0011
0000
0000
1001
0000
,
0000
0110
1100
1010
,
1001
0000
0000
0101
0000
0000
1001
0000
,
0000
1010
1100
0110
,
1001
0000
0000
1010
0000
0000
1001
0000
,
0000
0101
0011
0110
,
1000
0001
0000
0001
0100
0000
0010
1000
0000
1000
0001
0000
0100
0010
0000
0000
,
1000
0100
0000
0010
0001
0000
0001
1000
0000
1000
0100
0000
0010
0001
0000
0000
,
0100
0010
0000
0010
1000
0000
0010
0100
0000
0100
0010
0000
1000
0010
0000
0000
,
0100
0001
0000
0001
0010
0000
0100
0010
0000
0010
0001
0000
0010
0100
0000
0000
,
0010
0001
0000
0001
1000
0000
0010
0100
0000
0100
0010
0000
1000
0010
0000
0000
,
0100
0001
0000
0001
0010
0000
0100
1000
0000
1000
0100
0000
0010
0100
0000
0000
,
1000
0010
0000
0010
0100
0000
0001
0100
0000
0100
0010
0000
1000
0001
0000
0000
,
1000
0100
0000
0100
0010
0000
0001
0010
0000
0010
0100
0000
1000
0001
0000
0000
,
1001
0001
0010
0001
0100
0100
0100
0001
,
0000
0010
0000
0001
0000
0100
0010
1000
,
0100
0100
0100
0010
0000
0001
0000
0100
,
0010
1000
0000
0001
1000
0000
0001
0100
0000
0001
1000
0000
0001
0010
0000
0001
,
1000
0100
0010
0001
0100
0100
0100
0010
,
0000
1000
0000
0100
0000
0000
0000
0010
,
0001
0000
0100
0100
0100
0010
0000
1001
,
0000
0000
0000
0001
0010
0100
0000
1001
,
1000
0100
0000
1000
0010
0000
1000
0100
0000
1000
0001
0000
1000
0100
0000
1000
,
0100
0000
0110
0000
0001
0100
0000
1010
,
0001
0100
0000
0001
0010
0000
0001
0100
0000
0001
1000
0000
0001
0100
0000
0001
,
0100
0010
0100
0000
0010
1000
0010
0000
1000
0000
0100
0000
0000
0000
0011
0000
,
1000
0010
0000
1000
0100
0000
1000
0010
0000
1000
0001
0000
1000
0010
0000
1000
,
0010
0000
0110
0000
0001
1000
0000
1100
,
0001
0010
0000
0001
0100
0000
0001
0010
0000
0001
1000
0000
0001
0010
0000
0001
,
0010
0100
0010
0000
0100
1000
0100
0000
1000
0000
0001
0000
0100
0000
0001
0000
,
0010
0000
0100
1000
0000
1000
0100
0000
1000
0001
0000
0001
0100
0000
0010
0000
,
1000
0000
0100
1000
0000
1000
0010
0000
0100
0001
0000
0001
1000
0000
0001
0000
,
0010
0000
0100
1000
0000
1000
0100
0000
0010
0001
0000
0001
1000
0000
0001
0000
,
0010
0000
0010
0100
0000
0100
1000
0000
0010
1000
0000
1000
0001
0000
0010
0000
,
0100
0000
1000
0010
0000
0010
0100
0000
0010
1000
0000
1000
0100
0000
0010
0000
,
0001
0000
0100
0010
0000
0010
1000
0000
0001
0010
0000
0010
0100
0000
1000
0000
,
0010
0000
0100
0001
0000
0001
1000
0000
0100
0010
0000
0010
0001
0000
0100
0000
,
0010
0000
1000
0100
0000
0100
0010
0000
0001
1000
0000
1000
0100
0000
0010
0000
,
0100
0000
0010
0001
0000
0001
0100
0000
0010
1000
0000
1000
0100
0000
0010
0000
,
0001
0000
0100
0001
0000
0001
0010
0000
0100
1000
0000
1000
0001
0000
0100
0000
,
0010
0000
1000
0010
0000
0010
0100
0000
0001
0010
0000
0010
0100
0000
1000
0000
,
0100
0000
0010
0001
0000
0001
0100
0000
0010
0100
0000
0100
0001
0000
0010
0000
,
0110
1000
0100
1000
0001
0001
0001
0100
,
0000
0010
0000
1000
0000
0001
0010
0010
,
0100
1000
0001
0100
0000
0010
0000
1000
,
0001
0000
0100
0010
0000
1000
0001
0000
0100
0010
0000
1000
0001
0000
1000
0000
,
0001
0000
0010
0100
1000
1000
1000
0001
,
0100
0010
0000
1000
0000
0000
0000
0100
,
0010
0000
0010
0000
0001
1000
0000
1001
,
1000
0000
0010
0100
0000
0001
1000
0000
0010
0100
0000
0001
1000
0000
0001
0000
,
2001
0000
0000
0000
3010
0000
0000
0010
0100
0000
0001
0000
1000
0000
0100
0000
,
0010
0001
0010
0000
0001
0000
0000
0001
0100
0000
0010
0000
1000
0000
0001
0000
,
0010
0100
0010
0000
0100
0000
0000
0100
1000
0000
0001
0000
0100
0000
0001
0000
,
0010
0100
0010
0000
0100
0000
0100
1000
0000
1000
0100
0000
1000
0001
0000
0001
,
1000
0010
1000
0000
0010
0000
0000
0010
0100
0000
0001
0000
1000
0000
0100
0000
,
1000
0010
1000
0000
0010
0000
0000
0010
0100
0000
0001
0000
0010
0000
0100
0000
,
1000
0001
1000
0000
0001
0000
0000
0001
0100
0000
0010
0000
1000
0000
0010
0000
,
0100
0001
0100
0000
0001
0000
0001
1000
0000
1000
0001
0000
0010
0100
0000
0100
,
1000
0001
1000
0000
1001
0000
0000
0001
0100
0000
0010
0000
1000
0000
0100
0000
,
0010
0100
0010
0000
0001
0000
0000
1000
0001
0000
0100
0000
0010
0000
0100
0000
,
0001
1000
0001
0000
0100
0000
0000
0010
0100
0000
0001
0000
0010
0000
0100
0000
,
0010
0100
0010
0000
0001
0000
0001
1000
0000
1000
0100
0000
1000
0001
0000
0001
,
0100
0010
0100
0000
0001
0000
0000
0001
0010
0000
0100
0000
0010
0000
0001
0000
,
1000
0010
1000
0000
0100
0000
0000
1000
0001
0000
0010
0000
0100
0000
1000
0000
,
0001
0100
0001
0000
1000
0000
0000
0010
1000
0000
0001
0000
0010
0000
0100
0000
,
1000
0001
1000
0000
0100
0000
0100
0010
0000
0010
0001
0000
0001
0010
0000
0100
,
1000
0202
0000
0303
;

//---------------dance-single - D. Bernardone----------------
#NOTES:
     dance-single:
     D. Bernardone:
     Hard:
     7:
     0.476,0.445,0.071,0.230,0.071:
0000
0000
0000
0000
,
0000
0000
0000
0000
,
0000
0000
0000
0000
,
2000
3000
0001
0100
0000
0001
0100
0000
,
0000
0000
0002
0003
0200
0300
0002
0003
,
0020
0030
0100
1000
0000
0100
1000
0000
,
0000
0000
0020
0030
0200
0300
0002
0003
,
0020
0030
0001
1000
0000
0001
1000
0000
,
0000
0000
0020
0030
0200
0300
0002
0003
,
2000
3000
0010
0100
0000
0010
0100
0000
,
0000
0000
0002
0003
0020
0030
0200
0300
,
1000
0001
1000
0000
1000
0001
0100
0000
,
0010
1000
0010
0000
0010
1000
0001
0000
,
0100
0010
0100
0000
0100
0010
1000
0000
,
0001
1000
0001
0000
0001
1000
0100
0000
,
0010
0001
0010
0000
0010
0100
1000
0000
,
0001
0100
0001
0000
0001
1000
0100
0000
,
0010
0001
0010
0000
0010
0001
1000
0000
,
0010
0100
0010
0000
0010
1000
0001
0000
,
1001
0000
0001
0000
0100
0000
0010
1000
,
0000
0001
0000
0001
0000
0100
0010
0000
,
1000
0001
0010
0100
,
2000
0000
3000
0000
0010
0100
0001
1000
,
0100
0000
0010
0000
0001
0000
0100
0010
,
0000
1000
0000
1000
0000
0000
0000
0001
,
0010
0001
0100
0010
,
2000
0000
3000
0001
0100
0001
0000
0101
,
0000
0000
0000
0000
0001
1000
0001
0010
,
0001
0000
1000
0000
0100
0010
0000
0110
,
0000
0000
0001
0100
0001
1000
0001
0010
,
0001
0000
0000
0100
0010
0100
0000
0110
,
0000
0000
1000
0001
1000
0100
1000
0000
,
0000
0000
0001
0000
0100
0010
0000
0110
,
0000
0000
0000
0000
1000
0001
1000
0100
,
1000
0010
2000
0000
3002
0000
0203
0000
,
0310
0000
0000
0000
1000
1000
0100
0000
,
0100
0000
0000
0000
0010
0010
0001
0000
,
0001
0000
0000
0000
0100
0100
0010
0000
,
0010
0000
0100
0000
0010
0100
0010
0000
,
0110
0000
0000
0000
1000
1000
0001
0000
,
0001
0000
0000
0000
1000
1000
0010
0000
,
0010
0000
0000
0000
1000
1000
0100
0000
,
0100
0000
0010
0000
0100
0010
0100
0000
,
0010
0001
0010
0000
0001
0000
0001
0000
,
0100
0010
0100
0000
0010
0000
0010
0000
,
1000
0001
1000
0000
0001
0000
0001
0000
,
0100
0010
0100
0000
0010
0000
0010
0000
,
0110
0000
1000
0000
0001
0000
0010
0100
,
0000
1000
0000
1000
0000
0001
0100
0000
,
0010
1000
0001
0010
,
0200
0000
0300
0000
1000
0001
0100
0001
,
1000
0100
0010
0001
,
0100
0010
0000
1000
0000
0000
0000
0001
,
0100
0010
1000
0001
,
0020
0000
0030
0000
0100
1000
0001
1000
,
0200
0000
0310
0000
0001
0000
1000
0001
,
0001
1000
0001
0000
1000
0000
0010
0100
,
0010
0010
0100
0000
0001
0000
1000
0100
,
1000
1000
0100
0000
0010
0000
0001
1000
,
0001
0001
1000
0000
0010
0000
0100
0001
,
0100
0100
0001
0000
0010
0000
0100
1000
,
0100
0100
1000
0000
0001
0000
0100
0010
,
0100
0100
0010
0000
1000
0000
0001
0010
,
0001
0000
0001
0000
0010
0000
0000
0000
0001
0000
0000
0000
0100
0010
0000
0000
,
0100
0010
0000
0000
1000
0000
0000
0000
0001
0000
0000
0000
0100
0010
0000
0000
,
0100
0010
0000
0000
1000
0000
0000
0000
0100
0000
0000
0000
1000
0001
0000
0000
,
1000
0001
0000
0000
0100
0000
0000
0000
0010
0000
0000
0000
1000
0001
1000
0000
,
0001
1000
0001
0000
0100
0000
0000
0000
0010
0000
0000
0000
1000
0001
0000
0000
,
1000
0001
0000
0000
0100
0000
0000
0000
0001
0000
0000
0000
0010
0100
0000
0000
,
0010
0100
0000
0000
1000
0000
0000
0000
0001
0000
0000
0000
1000
0010
0000
0000
,
1000
0010
0000
0000
0100
0000
0000
0000
0010
0000
0000
0000
1000
0001
0000
1000
,
0001
0220
0000
0330
;
