#TITLE:Wish;
#SUBTITLE:Remix;
#ARTIST:Kyrn feat. Charlotte Summer;
#TITLETRANSLIT:;
#SUBTITLETRANSLIT:;
#ARTISTTRANSLIT:;
#GENRE:Electro;
#CREDIT:Sync by HellRazoR;
#BANNER:Wish Remix-bn.png;
#BACKGROUND:Wish Remix-bg.png;
#LYRICSPATH:;
#CDTITLE:;
#MUSIC:Wish Remix.ogg;
#OFFSET:-1.807;
#SAMPLESTART:41.318;
#SAMPLELENGTH:12.000;
#SELECTABLE:YES;
#DISPLAYBPM:144.000:72.000;
#BPMS:0.000=72.000,32.000=144.000;
#STOPS:;
#BGCHANGES:-4.000=Wish Remix-bg.png=1.000=0=0=1=====,
0.000=In The Groove Rebirth/175_JB_HD.mpg=1.000=0=0=1=====,
16.000=In The Groove Rebirth/178_JB_HD.mpg=1.000=0=0=1=====,
30.000=Wish Remix-bg.png=1.000=1=0=1===CrossFade==,
32.000=In The Groove Rebirth/164_JB_HD.mpg=1.000=0=0=1=====,
48.000=In The Groove Rebirth/1124_JumpBack.mpg=1.000=0=0=1=====,
64.000=In The Groove Rebirth/901_JumpBack.mpg=1.000=0=0=1=====,
80.000=In The Groove Rebirth/163_JB_HD.mpg=1.000=0=0=1=====,
95.000=Wish Remix-bg.png=1.000=0=0=1=====,
96.000=In The Groove Rebirth/165_JB_HD.mpg=1.000=0=0=1=====,
112.000=In The Groove Rebirth/1166_JumpBack.mpg=1.000=0=0=1=====,
128.000=In The Groove Rebirth/164_JB_HD.mpg=1.000=0=0=1=====,
144.000=In The Groove Rebirth/901_JumpBack.mpg=1.000=0=0=1=====,
160.000=In The Groove Rebirth/175_JB_HD.mpg=1.000=0=0=1=====,
176.000=In The Groove Rebirth/178_JB_HD.mpg=1.000=1=0=1===CrossFade==,
192.000=In The Groove Rebirth/164_JB_HD.mpg=1.000=0=0=1=====,
208.000=In The Groove Rebirth/1166_JumpBack.mpg=1.000=0=0=1=====,
224.000=In The Groove Rebirth/165_JB_HD.mpg=1.000=1=0=1===CrossFade==,
240.000=In The Groove Rebirth/1124_JumpBack.mpg=1.000=0=0=1=====,
256.000=Wish Remix-bg.png=1.000=0=0=1=====,
99999=-nosongbg-=1.000=0=0=0 // don't automatically add -songbackground-
;
#BGCHANGES2:0.000=flash=1.000=0=0=1====1^0^1^1=,
16.000=white flash=1.000=0=0=1=====,
64.000=yellow flash=1.000=0=0=1=====,
95.000=white flash=2.000=0=0=1=====,
;
#KEYSOUNDS:;

//---------------dance-single - D. Kincel & D. Bernardone----------------
#NOTES:
     dance-single:
     D. Kincel & D. Bernardone:
     Challenge:
     9:
     0.750,0.155,0.635,0.193,0.735: // measure 1
2000
0000
3000
0000
,  // measure 2
0020
0000
0030
0200
,  // measure 3
0302
0000
0003
0000
,  // measure 4
2000
0000
0000
0000
0000
0000
0000
0000
0000
0000
0000
0000
3100
0010
0001
1000
,  // measure 5
0010
0000
0100
0000
1010
0000
0001
0000
0100
0010
0000
1000
1100
0000
0001
0010
,  // measure 6
0100
0000
1000
0000
0011
0000
0100
0010
1001
0000
0000
0100
1001
0000
0011
0001
,  // measure 7
1000
0000
0001
0000
0100
0000
0100
0000
0010
0000
1000
0000
0100
0000
0010
0000
0001
0000
1000
0000
0010
0000
0100
0000
0001
0000
1000
0000
0100
0000
0010
0001
,  // measure 8
0010
0100
1000
1000
0001
0100
0010
0010
1001
0000
0000
0000
0000
0000
0000
0000
,  // measure 9
1000
0000
0001
0100
0000
0100
0010
0000
1000
0000
0001
0010
0000
0010
0100
0000
,  // measure 10
1000
0001
1000
0001
0000
0001
0100
0000
0010
0000
1000
0100
0000
0100
1000
0001
,  // measure 11
0100
0000
0001
0010
0000
0010
0100
0000
1000
0000
0001
0100
0000
0100
0010
0000
,  // measure 12
1000
0001
1000
0000
0010
0000
0100
0000
0001
1000
0001
0000
0010
0100
0010
0000
,  // measure 13
1001
0000
0001
0100
0000
0010
0100
0000
0001
0000
1000
0100
0000
0010
0100
0000
,  // measure 14
1000
0001
0100
0010
1000
0010
0100
0000
0001
1000
0100
0010
0001
0010
0100
0000
,  // measure 15
1000
0000
0001
0100
0001
0100
0001
1000
0100
0000
1000
0100
1000
0100
1000
0010
,  // measure 16
0100
1010
1000
0011
0001
1100
1001
0101
,  // measure 17
0110
0000
0100
0001
0100
0000
1010
0000
1002
0000
0000
0000
0010
0000
0000
0000
,  // measure 18
0013
0000
0100
1000
0000
1000
0100
0000
0010
0000
0001
0100
0000
0100
0001
0000
,  // measure 19
1000
0000
0010
0100
0001
0000
1001
0000
2100
0000
0000
0000
0010
0000
0000
0000
,  // measure 20
3010
0000
0000
1000
0000
0000
0100
0000
0000
0010
0000
0000
0001
1000
0100
1000
,  // measure 21
0100
0000
0000
0010
0001
0000
0011
0000
1001
0000
0000
0100
0001
0000
0010
0000
,  // measure 22
1001
0000
0000
0100
1000
0000
1010
0000
1001
0000
0001
0100
0000
0010
0000
1000
,  // measure 23
00M1
001M
00M1
001M
01M0
0M10
01M0
0M10
,  // measure 24
00M1
1000
0001
1000
0001
0100
0001
0100
0010
0000
00M0
0000
1001
0000
0000
0000
,  // measure 25
0010
1000
0000
0100
1000
0000
0010
0000
0110
0000
0000
0100
0001
0000
0010
0000
,  // measure 26
0110
0000
0001
1000
0001
0000
0100
0000
0010
0000
1000
0000
1000
0000
0100
0000
,  // measure 27
0011
0000
0000
0100
1000
0000
0010
0000
1010
0000
M0M0
0000
0101
0000
0010
0000
,  // measure 28
1001
0000
1000
0100
1000
0000
0001
0100
0010
0000
1000
0000
0100
0000
0M00
0000
,  // measure 29
1000
0010
0000
0100
0010
0000
1000
0001
1000
0000
M000
0001
0010
0000
0110
0000
,  // measure 30
0011
0000
0001
1000
0001
0000
0100
0000
0010
0000
1000
0100
0000
1000
0000
0010
,  // measure 31
0100
0000
0000
1000
0100
0000
0001
0100
0001
0000
1000
0000
0100
0000
0010
0000
,  // measure 32
0011
0000
0001
1000
0001
0000
0100
0010
1000
0000
0100
0000
0010
0100
00M0
0100
,  // measure 33
0010
0000
0000
0001
1000
0000
0010
0000
1010
0000
0000
0100
0001
0000
0010
0000
,  // measure 34
0011
0000
0001
1000
0001
0000
0100
0000
0010
0000
1000
0000
0001
0000
0010
0000
,  // measure 35
0100
0000
0000
0M00
0000
0000
0100
0000
1000
0000
0000
0000
0010
0000
0000
0000
0110
0000
0000
00M0
0000
0000
0010
0000
0100
0000
0000
0000
0001
0000
0000
0000
,  // measure 36
1001
0000
1000
0100
1000
0000
0010
0100
0001
0000
1000
0000
1001
0000
M00M
0000
,  // measure 37
0001
0100
0000
0010
0100
0000
0001
0000
1000
0000
0000
0100
0010
0000
0100
0000
,  // measure 38
1001
0000
0001
1000
0001
0000
0100
0000
0010
0000
1000
0100
0000
1000
0000
0010
,  // measure 39
0100
0M01
010M
00M1
0M11
010M
0M10
010M
,  // measure 40
1001
0000
0001
0100
0000
0010
0000
0000
1001
0000
1000
0100
0000
0010
0001
0010
,  // measure 41
0100
0000
0100
0000
1000
0001
0000
0101
0000
0000
0100
0000
0010
1000
0000
1100
,  // measure 42
0000
0000
0100
0000
0010
0001
0000
1001
0000
0000
0010
0100
0002
0010
0000
0013
,  // measure 43
0000
0000
0100
0000
1000
0001
0000
1001
0000
0000
0010
0000
0100
0000
0001
1000
,  // measure 44
0000
0000
0100
0000
1000
0001
0000
1001
0000
0100
0010
1000
0100
0010
0001
0000
,  // measure 45
0000
0000
1000
0000
0001
0100
0000
0100
0000
0000
0001
0000
0010
0100
0000
1000
,  // measure 46
0000
0000
0010
0000
1000
0100
0000
0010
0000
0000
0100
1000
0020
0100
0000
0130
,  // measure 47
0000
0000
0100
0000
0001
1000
0000
1001
0000
0000
1000
0000
0001
0000
0100
0010
,  // measure 48
0000
0000
1000
0000
0001
0010
0000
0010
0200
0000
0000
0000
1300
0001
MMM0
0001
,  // measure 49
1000
0000
0010
0000
0100
0001
0000
1100
0000
0000
0100
0000
0010
0001
0000
1010
,  // measure 50
0000
0000
0010
0000
0100
0001
0000
1001
0000
0000
0010
0001
0200
0010
0000
0310
,  // measure 51
0000
0000
1000
0000
0010
1000
0000
0101
0000
0000
0010
0000
0100
0000
1000
0001
,  // measure 52
0000
0000
0000
0000
0000
0000
0000
0000
0100
0000
0000
0000
0000
0000
0000
0000
0010
0000
0000
0000
0000
0000
0000
0000
1000
0000
0000
0000
0100
0000
0000
0000
0000
0000
0000
0000
0000
0000
0000
0000
0220
0000
0000
0000
0000
0000
0000
0330
2002
0000
0000
0MM0
0000
0000
0000
0000
0000
0000
0000
0000
0000
0000
0000
0000
,  // measure 53
3003
0000
0001
0000
0100
0010
0000
10M1
0000
0000
0100
0000
1000
0001
0000
011M
,  // measure 54
0000
0000
0100
0000
0010
0001
0000
110M
0000
0000
0010
0100
0001
0010
0100
0000
,  // measure 55
2100
0MM1
0MM1
0MM1
0MM1
0MM1
0MM1
3MM1
,  // measure 56
0110
0000
0000
0000
1000
0000
0000
0000
0100
0000
0000
0000
1000
0000
0000
0000
0000
0000
0000
0000
0000
0000
0000
0000
0100
0000
0000
0000
0010
0000
0000
0000
0001
0000
0000
0000
0100
0000
0000
0010
0000
0000
0100
0000
0000
0000
0000
0000
,  // measure 57
1001
0000
2000
0010
3100
0000
0020
1000
,  // measure 58
1030
0000
0000
0000
0020
0000
1000
0000
0031
0000
0000
0000
1000
0100
1000
0010
,  // measure 59
0100
0000
0002
0010
0103
0000
0010
0110
,  // measure 60
1000
0000
0000
0000
1001
0000
1001
0000
0101
0000
0101
0000
0010
1000
0001
0010
,  // measure 61
0100
0000
0000
0000
0000
0000
0000
0000
0000
0000
0000
0000
0000
0000
0000
0000
2001
0000
0000
0000
0000
0000
0000
0000
0100
0000
0000
0000
0000
0000
0000
3000
0110
0000
0000
0000
0000
0000
0000
0000
0000
0000
0000
0000
0000
0000
0000
0000
0110
0000
0000
0000
0000
0000
0000
0000
0100
0000
0000
0000
0000
0000
0000
0000
,  // measure 62
1001
0000
0000
0000
0000
0000
0000
0000
0000
0000
0000
0000
0000
0000
0000
0000
0012
0000
0000
0000
0000
0000
0000
0000
1000
0000
0000
0000
0000
0000
0000
0003
1100
0000
0000
0000
0000
0000
0000
0000
0000
0000
0000
0000
0000
0000
0000
0000
0010
0000
0000
0000
0100
0000
0000
0000
0001
0000
0000
0000
0010
0000
0000
0000
,  // measure 63
0100
0000
0000
0000
0000
0000
0000
0000
0000
0000
0000
0000
0000
0000
0000
0000
2010
0000
0000
0000
0000
0000
0000
0000
0001
0000
0000
0000
0000
0000
0000
3000
0101
0000
0000
0000
0000
0000
0000
0000
0000
0000
0000
0000
0000
0000
0000
0000
1010
0000
0000
0000
0000
0000
0000
0000
0100
0000
0000
0000
0000
0000
0000
0000
,  // measure 64
0110
0000
0000
0000
0101
0000
1100
0000
0101
0000
1100
0000
0010
0M01
1000
0000
,  // measure 65
0200
0300
0000
0000
;

//---------------dance-double - M. Simmons----------------
#NOTES:
     dance-double:
     M. Simmons:
     Challenge:
     11:
     0.821,0.646,0.458,0.201,1.000:
00000000
00010000
10000000
01000000
00100000
00010000
00001000
00000100
00000000
00000010
00000000
00000001
00000000
00000010
00000100
00001000
,
00010000
00100000
01000000
10000000
00000000
01000000
00000000
00200000
00000000
00310000
00000000
00200000
00000000
00310000
00000000
00200000
,
00000000
00310000
10000000
00010000
01000000
00001000
00010000
00000100
00000000
00000010
00000000
00000001
00000000
00000000
00000000
00001000
,
00001100
00000000
00000100
00010000
00001000
01000000
00000000
00200000
00000000
10300000
00000000
00200000
00000000
10300000
00000000
00200000
,
00000000
10300000
00010000
00100000
00001000
00010000
00000100
00000010
00000000
00000001
00000000
00000020
00000000
00000031
00000100
00000010
,
00001000
00000010
00000100
00000001
00000000
00010000
00000000
00002000
00000000
00013000
00000000
00002000
00000000
00013000
00000000
00002000
,
00000000
00013000
00001000
00100000
00010000
10000000
01000000
10000000
00010000
01000000
00000000
10010000
00000000
00000000
00000000
01000000
,
01010000
00000000
00010000
00000000
00100000
00001000
00000000
02000000
00000000
03000000
00200000
00000000
10300000
00010000
00000000
00000000
,
10000000
00010000
01000000
00100000
10000000
00100000
01000000
00010000
00000000
10000000
01000000
00100000
00010000
00100000
01000000
00100000
,
00000000
00001000
00010000
00000100
00000010
00000001
00001000
00000010
00000000
00000100
00000010
00001000
00000010
00000100
00000001
00001000
,
00000000
00000001
00001000
00000100
00001000
00000010
00000100
00000010
00000000
00001000
00000001
00001000
00000100
00010000
00001000
00100000
,
00000000
00010000
10000000
00010000
01000000
00100000
01000000
00100000
00000000
10000000
00010000
01000000
00100000
01000000
00010000
10000000
,
00000000
01000000
00100000
00010000
00100000
01000000
10000000
01000000
00000000
00100000
00010000
10000000
00100000
01000000
00100000
10000000
,
00000000
00010000
01000000
00001000
00010000
00000100
00000010
00000001
00000000
00001000
00000010
00000100
00000001
00001000
00000100
00010000
,
00000000
00001000
00100000
00010000
01000000
00001000
00010000
00000100
00000000
00000010
00001000
00010000
00000100
00010000
00001000
01000000
,
00100000
01010000
00110000
00101000
02000200
00000000
00000000
03000300
,
00100000
00000000
00001000
00010000
00000010
00000000
00000100
00000000
00002002
00000000
00000000
00000000
00000010
00000000
00003003
00000000
,
00000001
00000000
00000100
00000010
00000000
00010000
00000100
00010000
00000000
00001000
01000000
00000000
00100000
10000000
00100000
01000000
,
00010000
00000000
10000000
01000000
00010000
00000000
00001000
00000000
00022000
00000000
00000000
00000000
00000010
00000000
00033000
00000000
,
00000010
00000000
00000000
00000000
00000100
00000000
00000000
00000000
00000001
00000000
00000000
00000000
00000000
00000000
00000000
00000000
00000000
00000000
00001100
00000000
00000000
00000000
00000000
00000000
00000000
00000000
00000000
00011000
00000000
00000000
00000000
00000000
00000000
00001000
00000000
00000000
00100000
00000000
00000000
00000000
00000000
00000000
00010000
00000000
00000000
10000000
00000000
00000000
,
00100000
01000000
00000000
00100000
10000000
00000000
00010000
00000000
01001000
00000000
00000000
00001000
00010000
00000000
00000100
00000000
,
00000011
00000000
00000000
00000010
00001000
00000000
00010000
00000000
01100000
00000000
00010000
10000000
000M0000
10000000
00000000
10000000
,
01000000
00010000
00001000
00000100
00000001
00000011
00000110
00000110
,
00001000
00000100
00010000
00001000
01000000
00100000
10000000
00020000
00200000
00000000
00000000
00000000
00001000
00000000
00330000
00000000
,
11000000
00000000
00000000
00100000
00001000
00000000
00010000
00000000
00000100
00000000
00000000
00000000
00000110
00000000
00000100
00000000
,
00001001
00000000
00000001
00001000
00000001
00000000
00000100
00000000
00001100
00000000
00010100
00000000
00011000
00000000
00101000
00000000
,
00010000
00000000
00000000
10000000
01000000
00000000
00010000
00000000
00001000
00000000
00000000
00000000
00001100
00000000
00000100
00000000
,
00000010
00000000
00001000
00000001
00001000
00000000
00000100
00010000
00000100
00000000
00101000
00000000
00010100
00000000
00000000
00001000
,
00010000
00000000
00001000
01000000
00100000
00000000
10000000
00010000
01000000
00000000
00010000
00000000
00101000
00000000
00001000
00000000
,
00001000
00000000
00010000
00000100
00001000
00000000
00000010
00000000
00001001
00000000
00000010
00001000
000000M0
00001000
00000000
00001000
,
00000001
00000000
00000000
00000000
00000000
00000000
00000010
00000000
00001000
00000000
00000000
00000000
00010000
00000000
00001000
00000000
00100000
00000000
00000000
00000000
01100000
00000000
00000000
00000000
10010000
00000000
00000000
00000000
01000000
00000000
00100000
01000000
,
00100000
00000000
01000000
00001000
00100000
00000000
00001000
00010000
00001000
00000000
00010100
00000000
00010010
00010000
00000000
00000000
,
00011000
00000000
00000000
00000010
00000100
00000000
00000001
00000100
00000010
00000000
00000000
00001000
00000100
00000000
00010000
00001000
,
00010000
00000000
00001000
01000000
00100000
00000000
01010000
00000000
00110000
00000000
11000000
00000000
10001000
00000000
00110000
00000000
,
01001000
00000000
00000000
00100000
00001000
00000000
00010000
00000000
00000200
00000000
00000000
00000000
00000310
00000000
00000001
00000000
,
00001000
00000000
00000010
00010000
00000100
00000000
00010000
00001000
00010000
00000000
01001000
00000000
00010100
00000000
00000000
00000000
,
00001000
00000000
00000000
01000000
00010000
00000000
10000000
00000000
02000000
00000000
00000000
00000000
03010000
00000000
00001000
00000000
,
00000100
00000000
00000010
00000001
00000010
00000000
00001000
00000000
00000100
00000000
00010000
00001000
000M0000
00001000
00000000
00001000
,
00010000
00000000
00000000
01000000
10000000
00000000
00100000
01000000
00100000
00000000
01001000
00000000
00011000
00000000
00010000
00000100
,
00001000
00000000
00000010
00000100
00000000
00000000
00000000
00000001
00001000
00000000
00000010
00010000
00000000
00000000
00000100
00010000
,
00000100
00000000
00001000
00000000
00000100
00010000
00000000
00001000
00000000
00000000
00100000
00000000
00010000
10000000
00000000
00100000
,
00000000
00000000
01000000
00000000
00100000
10000000
00000000
00010000
00000000
00000000
00100000
00001000
00010000
00000100
00000000
00001100
,
00000000
00000000
00000010
00000000
00010000
00001000
00000000
00100000
00000000
00000000
01000000
00000000
10000000
00000000
00010000
01000000
,
00000000
00000000
00001000
00000000
00010000
00000010
00000000
00000100
00000000
00000010
00001000
00000001
00000100
00001000
00010000
01000000
,
00100000
00000000
00010000
00000000
10000000
01000000
00000000
00100000
00000000
00000000
00010000
00000000
10000000
01000000
00000000
00100000
,
00000000
00000000
00001000
00000000
00010000
00000100
00000000
00000010
00000000
00000000
00000001
00001000
00000100
00001000
00000000
00001010
,
00000000
00000000
00000010
00000000
00010000
00001000
00000000
01000000
00000000
00000000
00100000
00000000
10000000
00000000
01000000
00010000
,
00000000
00000000
00001000
00000000
00000100
00000010
00000000
00001000
00000020
00000000
00000000
00000000
00001000
00000000
00000100
00000130
,
00000000
00000000
00000010
00000000
00010000
00001000
00000000
01000000
00000000
00000000
00100000
00000000
10000000
00010000
10000000
01000000
,
00000000
00000000
00010000
00000000
00001000
00010000
00000000
00010000
00000000
00000000
00001000
00000000
01000000
00010000
00000000
01000000
,
00000000
00000000
00100000
00000000
10000000
01000000
00000000
00010000
00000000
00000000
00001000
00000000
00000100
00000000
00000010
00001000
,
00000000
00000000
00000001
00000000
00000100
00000001
00000000
00000100
00000000
00000000
00000010
00000000
00001020
00000000
00000000
00000000
,
00000130
00000000
00000001
00000000
00001000
00000100
00000000
00001100
00000000
00000000
00010000
00000000
00001000
00010000
00000000
00011000
,
00000000
00000000
00001000
00000000
01000000
00100000
00000000
10100000
00000000
00000000
01000000
00010000
01000000
00100000
00000000
00000000
,
10100000
01000000
00010000
00100000
00001000
00010000
00000010
00000100
,
00000010
00000100
00000001
00000101
00000000
00000000
00000001
00001000
00000100
00001100
00000000
00000000
,
00000100
00000000
00010000
00001000
00100000
00000000
00010000
10000000
00010000
00000000
01000000
00100000
01000000
00000000
00010000
01000000
,
00001000
00000000
00010000
00000100
00001000
00000000
00000010
00001000
00000010
00000000
00000100
00000010
00001000
00000001
00000100
00000010
,
00001000
00000000
00001000
00000100
00010000
00000000
00001000
00100000
00010000
00000000
10000000
00010000
10000000
00000000
00100000
01000000
,
00100000
00000000
01000000
00010000
10000000
00000000
01000000
00100000
00010000
00000000
00100000
00001000
00010000
00001000
00100000
00000000
,
00001000
00000000
00010000
00000100
00001000
00000000
00000010
00000100
00000010
00000000
00001000
00000001
00000010
00000000
00000100
00010000
,
00001000
00000000
01000000
00010000
10000000
00000000
01000000
00100000
01000000
00000000
00010000
00001000
00000100
00000010
00001000
00000001
,
00000100
00000000
00000010
00001000
00000010
00000000
00010000
00000100
00010000
00000000
00001000
01000000
00100000
00000000
10000000
00010000
,
01000000
00000000
00000000
00000000
01010000
00000000
00110000
00000000
00101000
00000000
00010100
00000000
00001000
00000100
00001000
00000000
,
00000200
00000300
00000000
00000000
;

//---------------dance-double - M. Simmons----------------
#NOTES:
     dance-double:
     M. Simmons:
     Hard:
     9:
     0.568,0.155,0.056,0.169,0.402:
22000000
00000000
00000000
00000000
,
00001000
00000000
00000000
33010000
,
00220000
00000000
00000000
00000000
,
00001000
00000000
00000000
00000000
00330000
00000000
00000000
00000000
00000000
00000000
00000000
00000000
00000100
00010000
00001000
00010000
,
00000100
00000000
00010000
00000000
00001000
00000000
01000000
00000000
00000000
00000000
00000000
00100000
10000000
00000000
00010000
00000000
,
01000000
00000000
00001000
00000000
00010000
00000000
00000000
00000000
00000100
00000000
00000000
00000010
00000001
00000000
00001000
00000100
,
00001000
00000000
00000010
00000000
00001000
00000000
00000100
00000000
00000000
00000000
00000000
00010000
00001000
00010000
00000000
00001000
,
01000000
00100000
20000000
00000000
00010000
00000000
30000000
00000000
,
10000000
00000000
01000000
00100000
00000000
00010000
00100000
00000000
00001000
00000000
00010000
00000000
00000100
00000000
00000010
00000000
,
00000001
00000000
00001000
00000010
00000000
00000100
00000010
00000000
00010000
00000000
00001000
00000000
01000000
00000000
00010000
00000000
,
10000000
00000000
01000000
00100000
00000000
00010000
00100000
00000000
00001000
00000000
00010000
00000000
00000010
00000000
00000100
00000000
,
00000010
00000000
00001000
00000010
00000000
00000100
00000010
00000000
00001000
00000000
00000001
00000000
00000100
00000000
00000001
00000000
,
00001000
00000000
00000100
00010000
00000000
00001000
00010000
00000000
00001000
00000000
01000000
00000000
00100000
00000000
10000000
00000000
,
00010000
00000000
00100000
01000000
00000000
10000000
00100000
00000000
01000000
00000000
00001000
00000000
00010000
00000000
00000100
00000000
,
00000010
00000000
00001000
00000010
00000000
00000001
00000010
00000000
00000100
00000000
00010000
00000000
00001000
00000000
01000000
00000000
,
00200000
20300000
32000000
03020000
00032000
00000000
00000000
00000000
,
00013000
00000000
00000100
00010000
00000100
00000000
00000010
00000000
00001001
00000000
00000000
00000000
0000001M
00000000
00000000
00000000
,
00001001
00000000
00000001
00000100
00000000
00000000
00000000
00000000
00001001
00000000
00000001
00000010
00000000
00000000
00000000
00000000
,
00000100
00000000
00000100
00010000
00000100
00000000
00100000
00000000
00110000
00000000
00000000
00000000
010M0000
00000000
00000000
00000000
,
10000000
00000000
00000000
00000000
01000000
00000000
00000000
00000000
00100000
00000000
00000000
00000000
00000000
00000000
00000000
00000000
00000000
00000000
00001000
00000000
00000000
00000000
00000000
00000000
00000000
00000000
00000000
00010000
00000000
00000000
00000000
00000000
00000000
00001000
00000000
00000000
00010000
00000000
00000000
00000000
00000000
00000000
00010000
00000000
00000000
00000000
00000000
00000000
,
00011000
00000000
00000000
00001000
00010000
00000000
00000100
00000000
00001000
00000000
00000000
00000001
00001000
00000000
00000010
00000000
,
00001000
00000000
00000000
00000010
00010000
00000000
00001000
00000000
00100000
00000000
00010000
10000000
00000000
00100000
00000000
01000000
,
00100000
01000000
00010000
01000000
00001000
00010000
00000100
00001000
,
00000001
00001000
00000001
00001000
00000001
00001000
00000001
00001000
00000002
00000000
00000000
00000000
00000010
00000000
00000000
00000000
,
00000013
00000000
00000000
00000100
00010000
00000000
00001000
00000000
00100000
00000000
00000000
00000000
00010000
00000000
10000000
00000000
,
00100000
00000000
01000000
00100000
01000000
00000000
00010000
00000000
10000000
00000000
01000000
00000000
00010000
00000000
00001000
00000000
,
00000100
00000000
00000000
00000010
00001000
00000000
00000001
00000000
00000100
00000000
00000000
00000000
00000010
00000000
00010000
00000000
,
00001000
00000000
00100000
00010000
00100000
00000000
01000000
10000000
01000000
00000000
10000000
00000000
00100000
00000000
00000000
01000000
,
00010000
00000000
00000000
00001000
00100000
00000000
00001000
00000000
00010000
00000000
00000000
00000000
00000100
00000000
00000010
00000000
,
00000001
00000000
00001000
00000001
00001000
00000000
00000010
00000000
00000100
00000000
00000010
00010000
00000000
00001000
00000000
00010000
,
00001000
00000000
00000000
01000000
00010000
00000000
10000000
01000000
10000000
00000000
00010000
00000000
01000000
00000000
00010000
00000000
,
00100000
00000000
00001000
00010000
00001000
00000000
00010000
00000000
00000100
00000000
00000010
00000000
00000001
00000000
00000000
00000000
,
00001000
00000000
00000000
00000010
00000100
00000000
00000010
00000000
00010000
00000000
00000000
00000000
00001000
00000000
01000000
00000000
,
00010000
00000000
10000000
00010000
10000000
00000000
00100000
00000000
01000000
00000000
00010000
00000000
00100000
00000000
00001000
00000000
,
00010000
00000000
00000000
00000010
00000100
00000000
00000001
00000000
00001000
00000000
00000000
00000000
00000100
00000000
00000010
00000000
,
00001000
00000000
00010000
00001000
00010000
00000000
00100000
00000000
01000000
00000000
00010000
00000000
10000000
00000000
00000000
00000000
,
10000000
00000000
00000000
01000000
00100000
00000000
00010000
00000000
01000000
00000000
00000000
00000000
00001000
00000000
00010000
00000000
,
00000010
00000000
00000100
00000010
00000100
00000000
00000010
00000000
00001000
00000000
00000001
00001000
00000000
00000100
00000000
00001000
,
00000001
00000000
00000000
00000100
00000010
00000000
00001000
00000000
00000100
00000000
00000000
00000000
00010000
00000000
00001000
00000000
,
00100000
00000000
00010000
01000000
00000000
00000000
00000000
00000000
00010000
00000000
01000000
00100000
00000000
00000000
00000000
00000000
,
10000000
00000000
01000000
00000000
00100000
00000000
00000000
00010000
00000000
00000000
01000000
00000000
00100000
00000000
00000000
01000000
,
00000000
00000000
00010000
00000000
00100000
00000000
00000000
00001000
00000000
00000000
00010000
00000000
00000100
00000010
00000000
00000010
,
00000000
00000000
00000001
00000000
00001000
00000000
00000000
00000010
00000000
00000000
00010000
00000000
00001000
00000000
00000000
00010000
,
00000000
00000000
00000100
00000000
00010000
00000000
00000000
00001000
00000000
00000000
01000000
00100000
00000000
00100000
10000000
00000000
,
00010000
00000000
00100000
00000000
00001000
00000000
00000000
00010000
00000000
00000000
00000100
00000000
00000010
00000000
00000000
00000001
,
00000000
00000000
00001000
00000000
00000010
00000000
00000000
00000100
00000000
00000000
00000010
00000000
00010000
00001000
00000000
00001000
,
00000000
00000000
01000000
00000000
00100000
00000000
00000000
10000000
00000000
00000000
00010000
00000000
01000000
00000000
00000000
00001000
,
00000000
00000000
00010000
00000000
00001000
00000000
00000000
00100000
00020000
00000000
00000000
00000000
00000000
00000000
00000000
00000000
,
10030000
00000000
01000000
00000000
00100000
00000000
00000000
00010000
00000000
00000000
01000000
00000000
00001000
00000000
00000000
00010000
,
00000000
00000000
00000100
00000000
00000010
00000000
00000000
00000001
00000000
00000000
00000010
00000000
00000100
00010000
00000000
00010000
,
00000000
00000000
00001000
00000000
00100000
00000000
00000000
00010000
00000000
00000000
10000000
00000000
00100000
00000000
00000000
00010000
,
00000000
00000000
00001000
00000000
00010000
00000000
00000000
00000010
00000000
00000000
00000200
00000000
00000320
00000030
00000000
00000000
,
00000000
00000000
00000010
00000000
00001000
00000000
00000001
00001000
00000000
00000000
00000100
00000000
00000010
00000000
00001000
00010000
,
00000000
00000000
00001000
00000000
00010000
00000000
00001000
01000000
00000000
00000000
00100000
00000000
10000000
00000000
01000000
00010000
,
00000000
00001000
00000100
00000010
00001000
00000001
00000100
00000010
,
00001000
00000100
00001000
00000100
00000000
00000000
00000100
00001000
00000100
00001000
00000000
00000000
,
00000100
00010000
00001000
01000000
00100000
10000000
00010000
00100000
,
00001000
00010000
00000010
00000100
00000010
00001000
00000001
00000100
,
00000001
00001000
00000100
00010000
00001000
01000000
00100000
10000000
,
01000000
10000000
00010000
01000000
00100000
10000000
00010000
01000000
,
00001000
00010000
00000010
00000100
00000001
00000100
00000010
00000100
,
00000001
00001000
00000100
00000010
00001000
00010000
00100000
01000000
,
00100000
10000000
00010000
01000000
00010000
10000000
01000000
00100000
,
00010000
00100000
00002000
00023000
00030020
00000230
00000320
00002030
,
00003200
00000300
00000000
00000000
;

//---------------dance-double - M. Simmons----------------
#NOTES:
     dance-double:
     M. Simmons:
     Easy:
     3:
     0.308,0.077,0.072,0.289,0.000:
10000000
00000000
00000000
00000000
,
01000000
00000000
00000000
00100000
,
00001000
00000000
00000000
00000000
,
00010000
00000000
00000000
00000200
,
00001300
00000001
00000100
00000010
,
00010000
00001000
01000000
00000000
,
00100000
10000000
00010000
01000000
,
00100000
10000000
00010000
00200000
,
00301000
00000000
00010000
00001000
00000000
00000000
00010000
00000000
,
00000100
00000000
00000010
00000100
00000000
00000000
00000010
00000000
,
00000001
00000000
00001000
00000010
00000000
00000000
00001000
00000000
,
00000100
00000000
00010000
00001000
00000000
00000000
01000000
00000000
,
00100000
00000000
01000000
00100000
00000000
00000000
10000000
00000000
,
00010000
00000000
01000000
00010000
00000000
00000000
00100000
00000000
,
00001000
00000000
00010000
00000100
00000000
00000000
00001000
00000000
,
00002002
00000000
00000000
00003003
,
00000010
00000100
00000110
00000000
,
00000010
00010000
00001000
00100000
,
00010000
10000000
10010000
00000000
,
02000000
00000000
03100000
00010000
,
00100000
00001000
00010000
00001000
,
00010000
00000100
00000010
00000001
,
00001000
00000010
00000100
00000010
,
00001000
00000100
00010000
00011000
,
00001000
00100000
00010000
01000000
,
00100000
00000000
10000000
00000000
00010000
10000000
00010000
00000000
,
01000000
00010000
00100000
00001000
,
00010000
00000000
00000100
00000000
00001000
00000100
00001000
00000000
,
00000001
00000100
00000010
00010000
,
00001000
00000000
00010000
00000000
00001000
00010000
00001000
00000000
,
00100000
00010000
10000000
00100000
,
01000000
00000000
00010000
00000000
00100000
00001000
00100000
00000000
,
00001000
00010000
00001000
00010000
,
00000100
00000000
00000010
00000000
00000001
00001000
00000001
00001000
,
00000001
00000100
00000010
00010000
,
00001000
00000000
01000000
00000000
00001000
00010000
00001000
00000000
,
00100000
00010000
10000000
00100000
,
01000000
00000000
00010000
00000000
00100000
00001000
00100000
00000000
,
00001000
00010000
00000010
00000100
,
00000010
00001000
00001001
00001001
,
00000002
00000000
00000023
00000000
,
00000230
00000000
00020300
00000000
,
00032000
00000000
02003000
00000000
,
03200000
00000000
10300000
10010000
,
00020000
00000000
02030000
00000000
,
03002000
00000000
00023000
00000000
,
00030200
00000000
00000320
00000000
,
00000032
00000000
00002003
00000010
,
00003020
00000000
00000230
00000000
,
00000320
00000000
00020030
00000000
,
00032000
00000000
02003000
00000000
,
03200000
00000000
20300000
00010000
,
30020000
00000000
02030000
00000000
,
03020000
00000000
00230000
00000000
,
00302000
00000000
00023000
00000000
,
00030100
00001100
00001000
00001010
,
00000001
00001000
00000100
00010000
,
00001000
00000000
01000000
00000000
00100000
00000000
10000000
00010000
,
10000000
01000000
00100000
00010000
,
00100000
00001000
00020000
00031000
,
00010000
00000100
00000010
00000001
,
00001000
00000000
00000010
00000000
00000100
00000000
00000010
00000100
,
00000010
00001000
00000100
00010000
,
00001000
01000000
00100000
10000000
,
00020000
00030000
00000000
00000000
;

//---------------dance-double - M. Simmons----------------
#NOTES:
     dance-double:
     M. Simmons:
     Medium:
     5:
     0.393,0.310,0.032,0.113,0.100:
00020000
00000000
00100000
00000000
00100000
00000000
00000000
01000000
00000000
00000000
00000000
00100000
00000000
00000000
00000000
00000000
,
02030000
00000000
00000000
00010000
00000000
00010000
00000000
00100000
00000000
00000000
00000000
03010000
00000000
00000000
00000000
00000000
,
00200000
00000000
00001000
00000000
00001000
00000000
00000000
00001000
00000000
00000000
00000000
00010000
00000000
00300000
00000000
00000000
,
00000200
00000000
00000000
00000000
00000010
00000000
00000000
00000010
00000000
00000300
00000000
00000000
00000000
00000000
00000000
00000000
,
00000001
00000000
00000100
00000000
00000000
00000000
00000010
00000000
00001000
00000100
00000000
00010000
00001000
00000000
00001000
00000000
,
00100000
00000000
00010000
00000000
10000000
01000000
00000000
00100000
00000000
00000000
00000000
00000000
00010000
00000000
10000000
00000000
,
10010000
00000000
01000000
00000000
00010000
00000000
00000000
00000000
00100000
00000000
00000000
00001000
00000000
00000000
00000000
00000000
,
00010000
00001000
00010000
00000100
00020000
00000000
00000000
00000000
,
00031000
01000000
00001000
00010000
00001000
00000000
00010000
00000000
,
00001000
00010000
00000100
00001000
00000100
00000000
00010000
00000000
,
00001000
01000000
00100000
01000000
00010000
00000000
10000000
00000000
,
01000000
00100000
00010000
00100000
01000000
10000000
00010000
00000000
,
01000000
00001000
00010000
00001000
00010000
00000000
00000100
00000000
,
00000010
00000001
00001000
00000010
00000100
00000000
00000010
00000000
,
00010000
00001000
00010000
00000100
00000010
00000000
00000001
00000000
,
00002000
00003020
00000230
00000320
00002030
00000000
00000000
00000000
,
00003100
00010000
00010100
00000000
,
00001000
00000000
00000000
00010000
00000000
00000000
00000000
00000000
00010000
00000000
00000000
00001000
00000000
00000000
00000000
00000000
,
01000000
00100000
10010000
00000000
,
01000000
00000000
00000000
00000000
00010000
00000000
00000000
00000000
01000000
00000000
00000000
00000000
00000000
00000000
00000000
00000000
00000000
00000000
00010000
00000000
00000000
00000000
00000000
00000000
00000000
00000000
00000000
00100000
00000000
00000000
00000000
00000000
00000000
00000000
00000000
00000000
00001000
00000000
00000000
00000000
00000000
00000000
00010000
00000000
00000000
00000000
00000000
00000000
,
00001000
00100000
00010000
10000000
,
01000000
00010000
00001000
00000100
,
00000010
00001000
00000001
00000100
,
00000010
00000100
00000010
00000100
00000010
00000100
00000110
00000000
,
00000010
00000000
00010000
00001000
00010000
00000000
00000100
00000000
,
00010000
00000000
00001000
01000000
00001000
01000000
00001000
00000000
,
00010000
00000000
00001000
00100000
00001000
00000000
00100000
00000000
,
00010000
00000000
01000000
00001000
01000000
00001000
01000000
00000000
,
00001000
00000000
00010000
00000100
00010000
00000000
00000100
00000000
,
00000010
00000000
00000100
00000010
00000100
00000010
00000100
00000000
,
00000010
00000000
00000001
00001000
00000001
00000000
00001000
00000000
,
00000010
00000000
00010000
00000010
00010000
00000010
00010000
00000000
,
00001000
01000000
00100000
10000000
,
00010000
00000000
00100000
00000000
01000000
00010000
00001000
00000100
,
00000010
00001000
00000001
00000100
,
00000010
00000000
00000001
00000010
00001000
00000100
00010000
00000000
,
00001000
01000000
00100000
10000000
,
01000000
00000000
00010000
00001000
00000100
00000010
00000001
00000000
,
00000010
00001000
00000001
00000100
,
00000001
00000000
00000000
00001000
00000000
00000000
00000000
00000000
00000100
00000000
00000000
00001000
00000000
00000000
00000000
00000000
,
00000100
00010000
00001000
01000000
,
00100000
00000000
10000000
00000000
00010000
00000000
00100000
01000000
,
00100000
00010000
10000000
00100000
,
01000000
00000000
00001000
00000000
00010000
00000000
00001000
00010000
,
00001000
00010000
00000100
00000010
,
00000001
00000000
00001000
00000000
00000010
00000000
00000100
00000010
,
00000100
00000010
00010000
00001000
,
01000000
00100000
20000000
00000000
,
31000000
00010000
00001000
00000100
,
00000010
00000000
00001000
00000000
00000001
00000000
00000100
00000001
,
00000100
00000010
00010000
00001000
,
00100000
00000000
01000000
00000000
10000000
00010000
00020000
00000000
,
01030000
00000000
00001000
00010000
00001000
00000000
00010000
00000000
,
00000100
00000000
00000010
00000100
00000010
00000000
00000001
00000000
,
00001000
00000000
00000010
00000100
00000010
00000000
00010000
00000000
,
00001000
00010000
00001000
00010000
00000000
00000000
00010000
00001000
00010000
00001000
00000000
00000000
,
01000000
00100000
10000000
01000000
,
00100000
00000000
00001000
00000000
00010000
00000000
00000100
00001000
,
00000100
00000010
00000001
00001000
,
00000010
00000000
00000100
00000000
00000010
00000100
00000010
00000100
,
00000010
00001000
00000001
00000100
,
00000001
00000000
00001000
00000000
00000100
00000000
00000010
00000100
,
00000010
00000100
00010000
00001000
,
02000000
00000000
03100000
01000000
00100000
01000000
00100000
01000000
,
00200000
00300000
00000000
00000000
;

//---------------dance-single - D. Bernardone----------------
#NOTES:
     dance-single:
     D. Bernardone:
     Beginner:
     1:
     0.103,0.000,0.024,0.000,0.000: // measure 1
0000
0000
0000
0000
,  // measure 2
0000
0000
0000
0000
,  // measure 3
1000
0000
0000
0000
,  // measure 4
0001
0000
0000
0000
,  // measure 5
1000
0000
0010
0000
,  // measure 6
0100
0000
0001
0000
,  // measure 7
0010
0000
0100
0000
,  // measure 8
1000
0000
0001
0000
,  // measure 9
1000
0000
0000
0000
,  // measure 10
0010
0000
0000
0000
,  // measure 11
0100
0000
0000
0000
,  // measure 12
0010
0000
0000
0000
,  // measure 13
1000
0000
0000
0000
,  // measure 14
0001
0000
0000
0000
,  // measure 15
1000
0000
0000
0000
,  // measure 16
0010
0000
0100
0000
,  // measure 17
0001
0001
0001
0000
,  // measure 18
1001
0000
0000
0000
,  // measure 19
1000
1000
1000
0000
,  // measure 20
1001
0000
0000
0000
,  // measure 21
0010
0000
0010
0000
,  // measure 22
0010
0000
0100
0000
,  // measure 23
0100
0000
0001
0000
,  // measure 24
1000
0000
0000
0000
,  // measure 25
0001
0000
0001
0000
,  // measure 26
0001
0000
0000
0000
,  // measure 27
0100
0000
0100
0000
,  // measure 28
0100
0000
0000
0000
,  // measure 29
0010
0000
0010
0000
,  // measure 30
0010
0000
0000
0000
,  // measure 31
1000
0000
1000
0000
,  // measure 32
1000
0000
0000
0000
,  // measure 33
0001
0000
0010
0000
,  // measure 34
0001
0000
0000
0000
,  // measure 35
1000
0000
0100
0000
,  // measure 36
1000
0000
0000
0000
,  // measure 37
0010
0000
1000
0000
,  // measure 38
0010
0000
0000
0000
,  // measure 39
0100
0000
0001
0000
,  // measure 40
0100
0000
0000
0000
,  // measure 41
0010
0000
0000
0000
,  // measure 42
1000
0000
0000
0000
,  // measure 43
0100
0000
0000
0000
,  // measure 44
0010
0000
0000
0000
,  // measure 45
0001
0000
0000
0000
,  // measure 46
0100
0000
0000
0000
,  // measure 47
0010
0000
0000
0000
,  // measure 48
1000
0000
0000
0000
,  // measure 49
0100
0000
0000
0000
,  // measure 50
0010
0000
0000
0000
,  // measure 51
0001
0000
0000
0000
,  // measure 52
0100
0000
0000
0000
,  // measure 53
0001
0000
0000
0000
,  // measure 54
0010
0000
0000
0000
,  // measure 55
0100
0000
0000
0000
,  // measure 56
1000
0000
0000
0000
,  // measure 57
0001
0000
0001
0000
,  // measure 58
0100
0000
0100
0000
,  // measure 59
0001
0000
0001
0000
,  // measure 60
1000
0000
1000
0000
,  // measure 61
0010
0000
0000
0000
,  // measure 62
0010
0000
0000
0000
,  // measure 63
0100
0000
0000
0000
,  // measure 64
0100
0000
0000
0000
,  // measure 65
1001
0000
0000
0000
;

//---------------dance-single - D. Bernardone----------------
#NOTES:
     dance-single:
     D. Bernardone:
     Easy:
     3:
     0.225,0.103,0.096,0.032,0.000: // measure 1
1001
0000
0000
0000
,  // measure 2
1000
0000
0000
0001
,  // measure 3
0001
0000
0020
0000
,  // measure 4
0130
0000
0000
1000
,  // measure 5
0001
0100
0000
0010
,  // measure 6
1000
0001
0010
0100
,  // measure 7
1000
0001
0000
0010
,  // measure 8
0100
0000
1000
0000
,  // measure 9
0001
0001
0000
1000
,  // measure 10
1000
0100
0010
0010
,  // measure 11
0001
0001
0000
0100
,  // measure 12
0100
0010
1000
1000
,  // measure 13
0001
0001
0000
0010
,  // measure 14
0010
0100
1000
1000
,  // measure 15
0001
0001
0000
0100
,  // measure 16
0001
1000
1001
0000
,  // measure 17
1000
0100
1000
0000
,  // measure 18
1001
0000
0000
0000
,  // measure 19
0001
0100
0001
0000
,  // measure 20
1001
0000
0000
0000
,  // measure 21
1000
0010
1000
0001
,  // measure 22
0001
0010
0010
0100
,  // measure 23
1000
0100
0001
0100
,  // measure 24
2000
0000
0000
3001
,  // measure 25
0100
0010
0100
0000
,  // measure 26
0010
1000
0001
0000
,  // measure 27
1000
0100
1000
0000
,  // measure 28
0010
0100
0001
0010
,  // measure 29
0100
1000
0100
0000
,  // measure 30
1000
0010
0100
0000
,  // measure 31
0001
0000
1000
0000
,  // measure 32
0100
0010
0001
1000
,  // measure 33
0100
0100
0100
0000
,  // measure 34
0010
0001
0100
0010
,  // measure 35
1000
1000
1000
0000
,  // measure 36
0001
0100
0010
1000
,  // measure 37
0001
0001
0001
0000
,  // measure 38
0010
0100
1000
0001
,  // measure 39
0100
0100
0010
1000
,  // measure 40
0200
0000
0000
0320
,  // measure 41
0031
0000
0001
0000
,  // measure 42
1000
0000
1000
0000
,  // measure 43
0010
0000
0010
0000
,  // measure 44
0100
0000
0100
0001
,  // measure 45
1000
0000
1000
0000
,  // measure 46
0100
0000
0100
0000
,  // measure 47
0010
0000
0010
0000
,  // measure 48
0001
0000
0001
0100
,  // measure 49
0010
0000
1000
0000
,  // measure 50
0001
0000
0010
0000
,  // measure 51
0100
0000
0010
0000
,  // measure 52
0001
0100
0001
1001
,  // measure 53
1000
0000
0100
0000
,  // measure 54
0010
0000
0100
0000
,  // measure 55
1000
0000
0010
0000
,  // measure 56
0100
0110
0010
0110
,  // measure 57
1000
0000
1001
0000
,  // measure 58
0001
0100
0010
0000
,  // measure 59
0100
0000
0110
0000
,  // measure 60
0100
0001
1000
0000
,  // measure 61
0001
0000
1001
0000
,  // measure 62
1000
0010
0100
0000
,  // measure 63
0010
0000
0110
0000
,  // measure 64
0100
0001
1000
1000
,  // measure 65
1001
0000
0000
0000
;

//---------------dance-single - D. Bernardone----------------
#NOTES:
     dance-single:
     D. Bernardone:
     Medium:
     5:
     0.338,0.103,0.281,0.032,0.008: // measure 1
1001
0000
0000
0000
,  // measure 2
0001
0000
0000
0010
,  // measure 3
0100
0000
2000
0000
,  // measure 4
3001
0000
0000
0000
0000
0000
0100
0010
,  // measure 5
1000
1000
1001
0001
0000
0000
0001
0001
,  // measure 6
1000
0100
0010
0000
0001
0000
0100
0100
,  // measure 7
0010
0000
1000
0100
1000
0000
0001
0000
,  // measure 8
0010
0100
1100
0000
,  // measure 9
0001
0000
0100
0000
0001
0000
1000
0100
,  // measure 10
0010
0000
0001
0000
0100
0000
0010
1000
,  // measure 11
0001
0000
0010
0000
0100
0000
1000
0001
,  // measure 12
0100
0000
0010
0000
1000
0000
0100
0010
,  // measure 13
0001
0000
0100
0000
0001
0000
0010
0100
,  // measure 14
1000
0000
0010
0000
0100
0000
0010
1000
,  // measure 15
0001
0000
0010
0000
0100
0000
1000
0010
,  // measure 16
0100
0100
0100
0100
0002
0000
0000
0003
,  // measure 17
0011
1010
0011
0000
,  // measure 18
1001
0000
0100
0000
,  // measure 19
1100
0101
1100
0000
,  // measure 20
1001
0000
0010
0000
,  // measure 21
0101
1010
0101
1000
,  // measure 22
1100
0011
1100
0001
,  // measure 23
0101
0011
1100
1010
,  // measure 24
0110
0000
0100
0100
0001
0000
2000
0000
,  // measure 25
3100
0000
0000
0000
0010
0000
0000
0010
,  // measure 26
0001
0100
1000
0100
,  // measure 27
0001
0000
0000
0001
0010
0000
0000
0000
,  // measure 28
0100
1000
0010
1000
,  // measure 29
0100
0000
0010
0000
0010
0000
0000
0010
,  // measure 30
0001
1000
0010
0100
,  // measure 31
0001
0000
0001
0000
0100
0000
0000
0100
,  // measure 32
0001
0010
0100
1000
,  // measure 33
0001
0000
1000
0000
1000
0000
0000
1000
,  // measure 34
0010
0100
0001
1000
,  // measure 35
0100
0000
1000
0000
1000
0000
0000
1000
,  // measure 36
0010
0100
0001
0010
,  // measure 37
0100
0000
1000
0000
1000
0000
0000
1000
,  // measure 38
0001
0010
1000
0010
,  // measure 39
0001
0000
1000
0001
1000
0000
1000
0001
,  // measure 40
1000
0000
0000
1000
0000
0000
0000
0000
0001
0000
0000
0001
0000
0000
0000
0000
,  // measure 41
0110
0000
0000
1000
,  // measure 42
0001
0000
0000
0001
,  // measure 43
0010
0000
0000
0100
,  // measure 44
1000
0000
1000
0001
,  // measure 45
0100
0110
0000
0110
,  // measure 46
0000
1010
0000
1010
,  // measure 47
0000
0101
0000
0101
,  // measure 48
0001
0000
0000
0000
1000
0000
0100
0010
,  // measure 49
0001
1001
0000
1001
,  // measure 50
0000
0011
0000
0011
,  // measure 51
0000
1100
0000
1100
,  // measure 52
1000
0000
0000
0000
0001
0100
0200
0000
,  // measure 53
0310
1000
0100
0000
0100
0010
0001
0000
,  // measure 54
0001
0100
0010
0000
0010
1000
0001
0000
,  // measure 55
0001
0010
0100
0000
0100
0000
1000
0010
,  // measure 56
0100
0010
0100
0000
0001
1000
0001
0000
,  // measure 57
0100
0000
0010
0000
1000
0000
0100
0010
,  // measure 58
0010
0000
0001
0000
0100
0000
0010
1000
,  // measure 59
0001
0000
0010
0000
0100
0000
0010
0010
,  // measure 60
0001
0000
1000
0000
0010
0000
0100
0001
,  // measure 61
1000
0000
0100
0000
0010
0000
0001
0001
,  // measure 62
0100
0000
0010
0000
1000
0000
0100
0010
,  // measure 63
0001
0000
0010
0000
0100
0000
1000
1000
,  // measure 64
0010
0000
0100
0000
0001
0000
0010
0100
,  // measure 65
1000
0000
0000
0000
;

//---------------dance-single - D. Bernardone----------------
#NOTES:
     dance-single:
     D. Bernardone:
     Hard:
     7:
     0.495,0.181,0.362,0.273,0.149: // measure 1
0202
0000
0000
0000
,  // measure 2
0010
0000
0303
2000
,  // measure 3
0200
0000
0000
0000
,  // measure 4
0010
0000
0000
0000
0000
0000
0000
0000
3300
0000
0000
0000
0001
0010
0100
1000
,  // measure 5
0001
0000
0010
0000
0110
0000
1000
0000
0000
0000
0000
0001
0100
0000
0010
0000
,  // measure 6
1000
0000
0000
0000
0100
0000
0000
1000
0001
0000
0000
0000
0000
0000
0000
0000
0100
0000
0000
0000
0000
0000
0010
0000
1000
0000
0000
0000
0100
0000
0010
0000
,  // measure 7
0001
0000
0000
0000
0100
0000
0000
0001
1000
0000
0000
0000
0100
0000
0000
0000
0000
0000
0000
0000
0000
0000
1000
0000
0001
0000
1000
0000
0000
0000
0010
0000
,  // measure 8
0100
0001
0110
0000
,  // measure 9
1000
0100
0001
0100
0000
1000
0010
0100
,  // measure 10
0000
0010
1000
0001
0000
0100
1000
0100
,  // measure 11
0000
0010
1000
0001
0000
0010
1000
0010
,  // measure 12
0000
0001
0100
0010
0000
1000
0100
0010
,  // measure 13
0001
0000
0100
0010
0100
0000
0001
0010
,  // measure 14
0100
0000
1000
0010
0100
0000
0010
1000
,  // measure 15
0100
0000
0010
0001
0100
0000
0110
0000
,  // measure 16
1001
0001
1001
1000
2020
0000
0000
3030
,  // measure 17
0001
0000
0100
0001
0100
0000
0001
0000
0100
0000
0000
0000
0000
0000
0000
0000
,  // measure 18
2002
0000
0000
0000
0010
0000
3003
1000
,  // measure 19
0010
0000
1000
0010
1000
0000
0010
0000
1000
0000
0000
0000
0000
0000
0000
0000
,  // measure 20
2200
0000
0000
0000
0001
0000
3300
0100
,  // measure 21
1000
0000
0000
0100
1000
0000
0100
0000
1000
0000
0000
0100
0001
0000
0100
0000
,  // measure 22
0001
0000
0000
0100
0010
0000
0100
0000
0010
0000
0000
0000
1100
0000
0000
0000
,  // measure 23
0001
0100
1000
0100
0001
0100
1000
0200
,  // measure 24
0002
0000
0000
1303
,  // measure 25
0001
0000
0010
0010
0100
0000
1000
0010
,  // measure 26
0100
0101
1100
0011
,  // measure 27
1000
0000
0001
1000
1010
0000
1000
0100
,  // measure 28
0002
0023
2030
3001
,  // measure 29
0100
0000
0110
0000
1000
0000
0001
0010
,  // measure 30
0100
1100
0001
0110
,  // measure 31
1000
0000
0110
0010
1000
0000
0001
0100
,  // measure 32
2000
3020
0032
1003
,  // measure 33
0100
0000
0011
0000
1000
0000
0010
0100
,  // measure 34
0001
1010
0100
1001
,  // measure 35
0001
0000
0110
0100
1000
0000
0001
0010
,  // measure 36
2000
3200
0302
1003
,  // measure 37
0010
0000
0101
0000
0010
0000
1100
0100
,  // measure 38
0100
0000
0010
0000
0001
0100
0010
0010
,  // measure 39
1000
1100
1100
0010
,  // measure 40
0001
0100
1000
0000
0001
0100
1000
0000
,  // measure 41
0001
0010
1000
0010
,  // measure 42
0001
0000
0000
0000
1000
0000
0000
0000
0010
0000
0100
0001
0100
0001
0100
0000
,  // measure 43
0010
1000
0001
0010
,  // measure 44
0100
0000
1000
0000
0010
0001
0010
1000
,  // measure 45
0100
0110
0001
1010
,  // measure 46
0100
0000
0000
0000
1001
0000
0000
0000
1000
0000
0010
0100
0010
0100
0010
0000
,  // measure 47
1000
1001
0010
0102
,  // measure 48
1003
0000
0000
0000
0100
0000
0100
0000
0020
0000
0000
0000
0031
0100
0000
0001
,  // measure 49
0100
0000
0000
0010
1000
0000
0010
0000
1000
0000
0000
0100
1000
0000
0100
0000
,  // measure 50
1000
0000
0000
0100
0001
0000
0100
0000
0001
0000
0000
0010
0001
0000
0010
0000
,  // measure 51
0001
0000
0000
0010
0100
0000
0010
0000
0100
0000
0000
1000
0001
0000
1000
0000
,  // measure 52
0001
0100
0010
1000
0100
0110
1001
0000
,  // measure 53
0001
0100
0101
0000
1000
0100
1100
0000
,  // measure 54
0001
0010
0011
0000
1000
0010
1010
0000
,  // measure 55
2000
0001
0001
3001
,  // measure 56
0100
0010
0100
0010
0000
0000
0100
0010
0100
0010
0000
0000
,  // measure 57
1001
2000
3100
0002
,  // measure 58
0103
0000
0000
0000
2000
0000
0000
0000
3001
0000
0000
0000
0100
0010
0100
0010
,  // measure 59
0100
0002
1003
1020
,  // measure 60
0130
0000
0000
0000
0001
0000
0010
0000
0001
0000
0010
0000
0001
1000
0001
0000
,  // measure 61
1000
2100
3001
0102
,  // measure 62
1003
0000
0000
0000
2010
0000
0000
0000
3001
0000
0000
0000
0010
0100
0010
0100
,  // measure 63
0010
0012
1003
1001
,  // measure 64
0110
0000
0000
0000
0001
0000
0100
0000
0001
0000
0100
0000
0001
0100
0001
0000
,  // measure 65
2000
3000
0000
0000
;
