#TITLE:We Met Dat Night;
#SUBTITLE:;
#ARTIST:Vospi;
#TITLETRANSLIT:;
#SUBTITLETRANSLIT:;
#ARTISTTRANSLIT:;
#GENRE:House;
#CREDIT:Sync by HellRazoR;
#BANNER:We Met Dat Night-bn.png;
#BACKGROUND:We Met Dat Night-bg.png;
#LYRICSPATH:;
#CDTITLE:;
#MUSIC:We Met Dat Night.ogg;
#OFFSET:-0.088;
#SAMPLESTART:73.676;
#SAMPLELENGTH:13.140;
#SELECTABLE:YES;
#DISPLAYBPM:111.000;
#BPMS:0.000=111.000,77.500=55.500,78.500=111.000,92.500=55.500,93.500=111.000;
#STOPS:;
#BGCHANGES:0.000=We Met Dat Night-bg.PNG=1.000=0=0=1=====,
12.000=In The Groove Rebirth/165_JB_HD.mpg=1.000=1=0=1===CrossFade==,
20.000=In The Groove Rebirth/216_JB_HD.mpg=1.000=0=0=1=====,
36.000=In The Groove Rebirth/249_JB_HD.mpg=1.000=0=0=1===SlideDown==,
52.000=In The Groove Rebirth/1142_JumpBack.mpg=1.000=0=0=1===SlideUp==,
64.000=In The Groove Rebirth/174_JB_HD.mpg=1.000=0=0=1=====,
72.000=In The Groove Rebirth/179_JB_HD.mpg=1.000=0=0=1=====,
77.500=In The Groove Rebirth/179_JB_HD.mpg=0.500=0=0=1=====,
78.500=In The Groove Rebirth/179_JB_HD.mpg=1.000=0=0=1=====,
87.000=In The Groove Rebirth/216_JB_HD.mpg=1.000=0=0=1=====,
92.500=In The Groove Rebirth/216_JB_HD.mpg=0.500=0=0=1=====,
93.500=In The Groove Rebirth/216_JB_HD.mpg=1.000=0=0=1=====,
102.000=In The Groove Rebirth/165_JB_HD.mpg=0.400=0=0=1=Checkerboard2File2x2=We Met Dat Night-bg.PNG===,
110.000=We Met Dat Night-bg.PNG=1.000=0=0=1=====,
118.000=In The Groove Rebirth/1142_JumpBack.mpg=1.000=1=0=1===CrossFade==,
134.000=In The Groove Rebirth/179_JB_HD.mpg=1.000=0=0=1=====,
150.000=In The Groove Rebirth/174_JB_HD.mpg=1.000=0=0=1=====,
166.000=We Met Dat Night-bg.PNG=1.000=0=0=1=====,
168.000=We Met Dat Night-bg.PNG=1.000=0=0=1====1^0^0^1=,
170.000=We Met Dat Night-bg.PNG=1.000=0=0=1====0^1^0^1=,
172.000=We Met Dat Night-bg.PNG=1.000=0=0=1====0^0^1^1=,
173.000=We Met Dat Night-bg.PNG=1.000=0=0=1=====,
99999=-nosongbg-=1.000=0=0=0 // don't automatically add -songbackground-
;
#BGCHANGES2:70.000=white flash=0.300=0=0=1=====,
87.000=white flash=1.000=0=0=1=====,
102.000=white flash=1.800=0=0=1=====,
104.000=flash=1.800=0=0=1====1^1^0^1=,
106.000=flash=1.800=0=0=1====0^1^1^1=,
108.000=flash=1.800=0=0=1====1^0^1^1=,
109.000=flash=1.800=0=0=1====0^1^1^1=,
110.000=white flash=0.200=0=0=1=====,
150.000=yellow flash=1.000=0=0=1=====,
166.000=white flash=1.800=0=0=1=====,
168.000=flash=1.800=0=0=1====1^0^0^1=,
170.000=flash=1.800=0=0=1====0^1^0^1=,
172.000=flash=1.800=0=0=1====0^0^1^1=,
173.000=white flash=1.800=0=0=1=====,
174.000=white flash=0.200=0=0=1=====,
;
#KEYSOUNDS:;

//---------------dance-single - S. Venkat----------------
#NOTES:
     dance-single:
     S. Venkat:
     Challenge:
     12:
     0.977,0.437,0.825,0.197,1.000:
0000
0000
0000
0000
0000
0000
0000
0000
0000
0000
0000
0000
0000
0000
0000
0000
0000
0000
0001
0100
0001
1000
0100
1000
,
0010
0000
0100
0001
0000
0010
0100
0000
0000
0000
0000
0010
0001
0000
0100
0010
0000
1000
0010
0000
1010
0000
0000
0010
,
0100
0000
0000
0000
0001
0000
0010
0000
0000
0000
0100
0000
1000
0000
0000
0000
0000
0000
0000
0000
0000
0000
0010
0000
0100
0000
0000
0000
0001
0000
1000
0000
0000
0000
0100
0000
1100
0000
0000
0000
0000
0000
1001
0000
0000
0000
1000
0001
,
1000
0000
0100
0010
0000
0001
0100
0000
0000
0000
0000
0010
1000
0000
0100
1000
0000
0010
0100
0000
0110
0000
0000
0000
,
1001
0000
0000
0000
0000
1000
1100
0000
0000
0011
0000
0000
0000
0000
0000
1001
0000
0000
0001
0010
0001
1000
0010
1000
,
0100
0000
0100
0010
0001
1000
0010
0000
0010
0100
0001
0100
0010
0000
0010
1000
0100
1000
0001
0000
0001
0010
0100
1000
,
0100
0000
0100
0010
1000
0010
0100
0000
0100
0010
0001
0100
0010
0000
0010
0100
1000
0100
0010
0000
0010
1000
0100
0010
,
0001
0000
0001
0100
0010
1000
0100
0000
0100
1000
0010
0100
0001
0000
0001
0010
0100
1000
0100
0000
0100
0010
0001
1000
,
0001
0000
0001
0100
0010
0100
1000
0000
1000
0100
0010
0100
0001
0000
0000
0101
0000
0000
0110
0000
1010
0000
0000
0000
,
1100
0000
0000
0000
0000
0000
0000
0000
0000
0000
0000
0000
1100
0000
0000
0000
0000
0000
0000
0000
0000
0000
0000
0000
2200
0000
0000
0000
0000
0000
0000
0000
0000
0010
0000
0000
3300
0000
0000
0000
0010
0000
0100
0000
0000
0000
0000
0000
,
0110
0000
0000
0000
0000
0000
0000
0000
0000
0000
0000
0000
0110
0000
0000
0000
0000
0000
0000
0000
0000
0000
0000
0000
0220
0000
0000
0000
0000
0000
0000
0000
0000
1000
0000
0000
0330
0000
0000
0000
1000
0000
0001
0000
0000
0000
0000
0000
,
1001
0000
0000
0000
0000
0000
0000
0000
0000
0000
0000
0000
1001
0000
0000
0000
0000
0000
0000
0000
0000
0000
0000
0000
2002
0000
0000
0000
0000
0000
0000
0000
0000
0010
0000
0000
3003
0000
0000
0000
0001
0000
1000
0000
0000
0000
0010
0000
,
0100
0000
0001
0010
0000
1000
0010
0000
0001
0100
0000
1000
0100
0000
0000
0010
0000
0110
0000
0000
1001
0000
0000
0000
,
1010
0000
0000
0000
0000
0000
0000
0000
0000
0000
0000
0000
1010
0000
0000
0000
0000
0000
0000
0000
0000
0000
0000
0000
2020
0000
0000
0000
0000
0000
0000
0000
0000
0001
0000
0000
3030
0000
0000
0000
0001
0000
0010
0000
0000
0000
0000
0000
,
0011
0000
0000
0000
0000
0000
0000
0000
0000
0000
0000
0000
0011
0000
0000
0000
0000
0000
0000
0000
0000
0000
0000
0000
0022
0000
0000
0000
0000
0000
0000
0000
0000
1000
0000
0000
0033
0000
0000
0000
1000
0000
0001
0000
0000
0000
0000
0000
,
1001
0000
0000
0000
0000
0000
0000
0000
0000
0000
0000
0000
1001
0000
0000
0000
0000
0000
0000
0000
0000
0000
0000
0000
2002
0000
0000
0000
0000
0000
0000
0000
0000
0010
0000
0000
3003
0000
0000
0000
1000
0000
0100
0000
0000
0000
0010
0000
,
0100
0000
0001
0100
0000
0010
0100
0000
1000
0100
0000
0010
0011
0000
0000
1000
0000
0000
0101
0000
0000
0010
0000
0000
,
1100
0000
0000
0001
0000
0000
1010
0000
0000
0100
0000
0000
0001
0010
0100
1000
0100
0010
0001
0100
0010
1000
0010
0100
,
0001
0000
0000
0000
0000
1001
0000
0000
0001
0010
0000
0000
0011
0000
0101
0000
0000
0011
0000
0000
0010
0001
1000
0001
,
0010
0000
0000
0011
0000
0000
1001
0000
0000
2200
0000
0000
3300
0000
0000
1000
0100
0010
0001
0000
0000
1000
0000
0011
,
0000
0000
0100
1000
0000
0000
1100
0000
1010
0000
0000
1100
0000
0000
0100
1000
0001
1000
0100
0000
0000
1100
0000
0000
,
0011
0000
0000
1001
0000
0000
0110
0000
0000
0000
0000
1010
0000
0000
0010
0100
0001
0010
0100
0000
1000
0010
0100
0001
,
0010
0000
0100
1000
0000
0000
1001
0000
0110
0000
0000
1001
0000
0000
0001
0100
0010
1000
0100
0000
0000
1100
0000
0000
,
0110
0000
0000
0022
0000
0000
0033
0000
0000
0001
0010
0100
1000
0000
0000
0100
0000
1001
0000
0000
0010
0100
0000
0000
,
0011
0000
1100
0000
0000
0011
0000
0000
0001
0100
0010
0001
0010
0000
0000
0110
0000
0000
1010
0000
0000
1100
0000
0000
,
0011
0000
0000
0000
0000
1100
0000
0000
0000
0001
0000
0000
0101
0000
0100
0000
0010
0000
1010
0000
0000
0000
0000
0000
,
1010
1000
0100
0110
0000
0000
0110
0010
0001
1001
0000
0000
,
1100
0000
0000
0000
0000
0000
0000
0000
0000
0000
0100
0010
0002
0000
0000
0000
0000
0000
0000
0000
0000
0000
0000
0000
2000
0000
0000
0000
0000
0000
0000
0000
0000
0000
0000
0000
0000
0000
0000
0000
0000
0000
0000
0000
0000
0000
0000
0000
,
0000
0000
3003
0000
,
0000
0000
0000
0000
0000
0000
0000
0000
0000
0000
0000
0000
0001
0100
0001
1000
0100
1000
0001
0010
0001
1000
0010
1000
,
0100
0010
0100
0010
0001
0010
0001
0100
0001
0100
0010
0100
0010
1000
0100
0010
0001
0100
0010
1000
0100
0010
0001
0100
,
0010
0000
0010
1000
0000
1000
0100
0000
0000
1100
0000
0000
1000
0100
1000
0010
0100
0010
1000
0001
1000
0100
0010
0100
,
1000
0001
0100
0001
1000
0010
1000
0001
0100
0010
1000
0100
0010
0100
1000
0010
0100
0001
0010
0100
1000
0010
0100
0001
,
1000
0001
1000
0001
1000
0001
1000
0001
1000
0001
1000
0001
1000
0100
0010
0001
0010
0100
1000
0100
0010
0001
0010
0100
,
1000
0010
0100
0001
0100
0010
1000
0010
0100
0001
0100
0010
1000
0010
0100
0010
1000
0100
0010
0100
1000
0010
0100
0010
,
1000
0000
1000
0100
0000
0100
0010
0000
0000
0011
0000
0000
0001
0010
0100
1000
0100
0010
0001
0010
0100
1000
0100
0010
,
0001
0100
0010
1000
0010
0100
0001
0100
0010
1000
0010
0100
0001
0100
0010
0100
0001
0010
0100
0010
0001
0100
0010
0100
,
0001
0000
0001
0010
0000
0010
0100
0000
0100
1000
0000
1000
0001
0100
0010
0001
0010
0100
0001
0010
0100
0001
0100
0010
,
0001
0100
0010
0001
0010
0100
0001
0010
0100
0001
0100
0010
0001
1000
0001
0100
0010
0100
0001
1000
0001
0100
0010
0100
,
0001
0010
0001
0010
0100
0010
0100
1000
0100
0010
0100
1000
0010
0100
1000
0100
0010
1000
0100
0010
1000
0010
0100
1000
,
0010
0100
1000
0100
0010
1000
0100
0010
1000
0010
0100
1000
0010
0100
0010
1000
0001
1000
0010
0100
0010
1000
0001
1000
,
0100
0010
0100
0010
0001
0010
0001
0100
0001
0100
0010
0100
0010
0000
0000
0000
0000
0000
0000
0000
1010
0000
0110
0000
,
0101
0000
0000
0000
0101
1001
1100
0000
0000
0000
1100
0110
,
0011
0000
0000
0000
0000
0000
0000
0000
0000
0000
0010
0100
2000
0000
0000
0000
0000
0000
0000
0000
0000
0000
0000
0000
0002
0000
0000
0000
0000
0000
0000
0000
0000
0000
0000
0000
0000
0000
0000
0000
0000
0000
0000
0000
0000
0000
0000
0000
,
0000
0000
3003
0000
;

//---------------dance-single - S. Venkat----------------
#NOTES:
     dance-single:
     S. Venkat:
     Hard:
     9:
     0.689,0.219,0.491,0.098,0.899:
0000
0000
0000
0000
,
1000
0000
0000
0100
0000
0000
0011
0000
0000
0000
0000
0000
0001
0000
0000
0100
0000
0000
1010
0000
0010
0000
0000
0100
,
0001
0010
1100
0000
1000
0010
0101
1010
,
0010
0000
0000
0100
0000
0000
1001
0000
0000
0000
0000
0000
1000
0000
0000
0001
0000
0000
0110
0000
0010
0000
0000
0000
,
0011
0000
0000
0000
0000
0000
1001
0000
0000
0110
0000
0000
0000
0000
0000
0000
0000
0000
0001
1000
0001
1000
0001
1000
,
0001
0000
0001
0010
0000
0010
0200
0000
0000
0300
0000
1000
0100
0000
0100
0010
0000
0010
0001
0000
0001
0100
0000
0100
,
0010
0000
0010
1000
0000
1000
0002
0000
0000
0003
0000
0010
0001
0000
0001
0100
0000
0100
0020
0000
0030
1000
0001
1000
,
0100
0000
0100
0010
0000
0010
0002
0000
0000
0003
0000
0010
0001
0000
1000
0001
0000
0100
0001
0000
1000
0001
0000
0010
,
0001
0000
0000
0000
0000
0000
1001
0000
0000
1001
0000
0000
0000
0000
0000
1000
0000
0000
0010
0000
0100
0000
0000
0000
,
1010
0000
0000
0000
0000
0000
0000
0000
0000
0000
0000
0000
1001
0000
0000
0000
0000
0000
0000
0000
0000
0000
0000
0000
1100
0000
0000
0000
0000
0000
0000
0000
0000
0011
0000
0000
0000
0000
0000
0000
0001
0000
0010
0000
0000
0000
0000
0000
,
0011
0000
0000
0000
0000
0000
0000
0000
0000
0000
0000
0000
1001
0000
0000
0000
0000
0000
0000
0000
0000
0000
0000
0000
0101
0000
0000
0000
0000
0000
0000
0000
0000
1010
0000
0000
0000
0000
0000
0000
0010
0000
1000
0000
0000
0000
0000
0000
,
1010
0000
0000
0000
0000
0000
0000
0000
0000
0000
0000
0000
0101
0000
0000
0000
0000
0000
0000
0000
0000
0000
0000
0000
0110
0000
0000
0000
0000
0000
0000
0000
0000
1001
0000
0000
0000
0000
0000
0000
1000
0000
0001
0000
0000
0000
0000
0000
,
1000
0000
0010
0100
0000
0000
0001
0000
0010
0100
0000
0000
1000
0000
0000
0010
0000
0100
0000
0000
0001
0000
0000
0000
,
0101
0000
0000
0000
0000
0000
0000
0000
0000
0000
0000
0000
1001
0000
0000
0000
0000
0000
0000
0000
0000
0000
0000
0000
0011
0000
0000
0000
0000
0000
0000
0000
0000
1100
0000
0000
0000
0000
0000
0000
0100
0000
1000
0000
0000
0000
0000
0000
,
1100
0000
0000
0000
0000
0000
0000
0000
0000
0000
0000
0000
1001
0000
0000
0000
0000
0000
0000
0000
0000
0000
0000
0000
1010
0000
0000
0000
0000
0000
0000
0000
0000
0101
0000
0000
0000
0000
0000
0000
0100
0000
0001
0000
0000
0000
0000
0000
,
0101
0000
0000
0000
0000
0000
0000
0000
0000
0000
0000
0000
1010
0000
0000
0000
0000
0000
0000
0000
0000
0000
0000
0000
1001
0000
0000
0000
0000
0000
0000
0000
0000
0110
0000
0000
0000
0000
0000
0000
0010
0000
0100
0000
0000
0000
0000
0000
,
0010
0000
1000
0100
0000
0000
0010
0000
0001
0100
0000
0000
0010
0000
0000
0100
0000
0000
0001
0000
0000
0010
0000
0000
,
1000
0000
0000
0010
0000
0000
0001
0000
0000
0100
0000
0000
0010
1000
0001
0100
0000
0000
0001
0010
0100
1000
0000
0000
,
1100
0000
0000
0100
0000
0000
0010
0000
0000
0001
0000
0000
0100
0000
0010
0000
0000
0001
0000
0000
0010
1000
0000
0000
,
0100
0000
0000
0000
0000
0000
0010
0000
0000
0000
0000
0000
0002
0000
0000
0000
0000
0000
2000
0000
0000
0000
0000
0000
3003
0000
0000
0000
0000
0010
0100
0000
0000
0000
0000
0000
0110
0000
0000
0000
0000
0000
0010
0000
0000
0000
0000
0000
,
1000
0000
0000
0001
0000
0000
0010
0000
0100
0000
0000
1000
0000
0000
0010
0100
0000
0000
1000
0000
0000
0100
0000
0000
,
0001
0000
0000
0010
0000
0000
0011
0000
0000
0000
0000
1100
0000
0000
0000
0110
0000
0000
0011
0000
0000
0010
0000
0000
,
0100
0000
0000
1000
0000
0000
0010
0000
0100
0000
0000
1000
0000
0000
0100
0001
0000
0000
0010
0000
0000
0100
0000
0000
,
2000
0000
0000
0000
0000
0000
0002
0000
0000
0000
0000
0000
3003
0000
0000
0000
0000
0100
0010
0000
0000
0000
0000
0000
0110
0000
0000
0000
0000
0000
0010
0000
0000
0000
0000
0000
1000
0000
0000
0000
0000
0000
0001
0000
0000
0000
0000
0000
,
0010
0000
0100
0000
0000
1000
0000
0000
0010
0100
0000
0000
0001
0000
0000
0010
0000
0000
0100
0000
0000
1000
0000
0000
,
1010
0000
0000
0000
0000
0110
0000
0000
0000
0101
0000
0000
0004
0000
0000
0000
0000
0000
0003
0000
0010
0000
0100
0000
,
4000
0000
0000
3000
0010
0100
0004
0000
0000
0003
0100
1000
,
0001
0010
2000
0000
,
0000
0000
3000
0000
,
0000
0000
0000
0000
0000
0000
0000
0000
0000
0000
0000
0000
0001
0000
0010
0100
0000
1000
0010
0000
0100
0001
0000
0100
,
0010
0000
1000
0010
0000
1000
0100
0000
0010
0001
0000
0010
0100
0000
1000
0001
1000
0001
1000
0000
0001
1000
0001
1000
,
0001
0000
1000
0100
0000
1000
0001
0000
0000
1100
0000
0000
0100
0000
0010
0001
0000
1000
0001
0000
0100
0001
0000
0100
,
0010
0000
1000
0010
0000
1000
0100
0000
0010
0001
0000
0001
0100
0000
0010
1000
0010
1000
0010
0000
0100
0001
0100
0001
,
0100
0000
0001
0000
0010
0000
0100
0000
1000
0000
0010
0000
1010
0000
0010
1000
0000
1000
0001
0000
0001
0100
0000
0100
,
0010
0000
0010
0001
0000
0001
0010
0000
0010
1000
0000
1000
0010
0000
1000
0100
1000
0100
1000
0000
0010
0100
0010
0100
,
0010
0000
0010
0100
0000
0100
0001
0000
0000
0101
0000
0000
0100
0000
0100
0010
0000
0010
1000
0000
1000
0100
0000
0100
,
0010
0000
0010
1000
0000
1000
0010
0000
0010
0001
0000
0001
0100
0000
0001
0010
0001
0010
0001
0000
0100
0010
0100
0010
,
0100
0000
0100
0001
0000
0001
1000
0000
1000
0010
0000
0010
1000
0000
0100
0010
0000
0001
0010
0001
1000
0010
0000
0100
,
0010
0000
0100
0001
0000
1000
0100
1000
0001
0100
0000
0001
1000
0000
0010
0100
0000
0001
0010
0000
0100
1000
0000
0100
,
1000
0100
0010
0001
0000
0000
0001
0010
0100
1000
0000
0000
0001
0000
0100
0010
0000
1000
0100
0010
0100
1000
0000
0100
,
0010
0000
0010
0001
0000
0100
0001
0100
0010
0100
0000
0010
1000
0000
0010
0100
0000
0001
0010
0000
0001
0100
0000
0001
,
0100
0010
1000
0010
0000
0000
1000
0010
0100
0001
0000
0000
0401
0000
0000
0000
0000
0000
0300
0000
0010
0000
0100
0000
,
0004
0000
0000
0003
0010
0100
4000
0000
0000
3000
0100
0001
,
1000
0010
0002
0000
,
0000
0000
0003
0000
;

//---------------dance-single - S. Venkat----------------
#NOTES:
     dance-single:
     S. Venkat:
     Medium:
     6:
     0.469,0.153,0.590,0.373,0.074:
0000
0000
0000
0000
,
1000
0000
1001
0000
1000
0010
0100
0001
,
0100
0000
0101
0000
0001
0010
0100
0100
,
1000
0000
1100
0000
1000
0100
0010
0000
,
0022
0033
0001
2000
3000
0100
1000
0001
,
0100
0100
0010
0010
1000
1000
0100
0100
,
0010
0010
0001
0001
0100
0100
0010
0010
,
1000
1000
0001
0001
0010
0010
0100
0100
,
1000
1000
0001
0001
0100
0010
1000
0000
,
1001
0000
0000
0000
1001
0000
0000
0000
1001
0000
0000
0101
0000
0000
0000
0000
,
1001
0000
0000
0000
1001
0000
0000
0000
1001
0000
0000
1100
0000
0000
0000
0000
,
1001
0000
0000
0000
1001
0000
0000
0000
1001
0000
0000
0110
0000
0000
0000
0000
,
0010
0000
0000
0100
0000
0000
0001
0000
0000
1000
0000
0000
0200
0000
0000
0000
0000
0020
0000
0000
0000
0330
0000
0000
,
1001
0000
0000
0000
1001
0000
0000
0000
1001
0000
0000
0011
0000
0000
0000
0000
,
1001
0000
0000
0000
1001
0000
0000
0000
1001
0000
0000
1010
0000
0000
0000
0000
,
1001
0000
0000
0000
1001
0000
0000
0000
1001
0000
0000
0110
0000
0000
0000
0000
,
0100
0010
1000
0001
0010
0010
0100
0100
,
1000
1000
0001
0001
0200
0000
0000
0300
,
0110
0000
0000
0000
0000
0000
1010
0000
0000
0000
0000
0000
1000
0000
0001
0000
0000
0010
0000
0000
0000
0000
0000
0000
,
0001
0010
0100
2000
0000
3000
1010
0000
,
0101
0000
0000
0000
0000
0000
0001
0000
1000
0000
0000
0100
0000
0000
0000
0000
0000
0000
1000
0000
0000
0100
0000
0000
,
0010
0001
0010
0000
0001
0100
0101
0000
,
0110
0000
0000
0000
0000
0000
0010
0000
1000
0000
0000
0100
0000
0000
0000
0000
0000
0000
0010
0000
0000
0001
0000
0000
,
1000
0200
0000
0300
1100
0000
0011
0000
,
0001
0000
0100
0000
0000
0010
0000
0000
0000
0000
0000
0000
0100
0000
0000
0010
0000
0000
1000
0000
0000
0100
0000
0000
,
0010
0000
0001
1000
2002
0000
3003
0000
,
0202
0303
2020
3030
,
0022
0033
2020
3030
2002
0000
0000
0000
,
0000
0000
3003
0000
,
0000
0000
0000
0000
1000
1000
0010
0010
,
0100
0100
0001
0001
0010
0100
0010
0001
,
1000
0001
1000
0000
0010
0010
0100
0100
,
0001
0001
0010
0010
0200
1300
0002
1003
,
0200
0000
0300
0000
1000
0010
1010
0000
,
1000
0010
0110
0000
0100
0001
0101
0000
,
0001
0010
0100
1000
0100
0010
0110
0000
,
0010
0001
0011
0000
2002
3003
1000
0020
,
0030
0100
0001
1000
0100
0010
0110
0010
,
0001
1000
1001
1000
0010
0100
0110
0100
,
0001
0001
0010
0010
0100
1000
1100
1000
,
0010
1000
1010
0010
0100
0001
0101
0001
,
0100
0100
0010
0010
2020
0000
3030
0000
,
0202
0303
2002
3003
,
0022
0033
0220
0330
2200
0000
0000
0000
,
0000
0000
3300
0000
;

//---------------dance-single - D. Bernardone----------------
#NOTES:
     dance-single:
     D. Bernardone:
     Easy:
     3:
     0.265,0.131,0.265,0.167,0.000:
0000
0000
0000
0000
,
1000
1001
0100
0110
,
0001
1001
0010
0110
,
1000
1001
0001
1001
,
0110
0000
0000
0110
0000
0000
1000
1000
,
1000
0001
0000
0100
0000
0001
0000
0010
,
0000
0100
0000
0010
0000
0001
0000
1000
,
0000
0010
0000
0100
0000
0010
0000
1000
,
0000
0001
0000
0010
0000
0100
0000
1000
,
0001
0000
0000
0000
0001
0000
0000
0000
0002
0000
0000
0003
0000
0000
0000
0000
,
0100
0000
0000
0000
0100
0000
0000
0000
0200
0000
0000
0300
0000
0000
0000
0000
,
0010
0000
0000
0000
0010
0000
0000
0000
0020
0000
0000
0030
0000
0000
0000
0000
,
1000
0001
1000
0000
0001
1000
0001
0000
,
1000
0000
0000
0000
0100
0000
0000
0000
2000
0000
0000
3000
0000
0000
0000
0000
,
0010
0000
0000
0000
0100
0000
0000
0000
0020
0000
0000
0030
0000
0000
0000
0000
,
1000
0000
0000
0000
0001
0000
0000
0000
2000
0000
0000
3000
0000
0000
0000
0000
,
0100
0010
0100
0000
0010
0000
0001
0000
,
0100
0010
2000
0000
,
3001
0000
0100
0010
,
1000
0000
0000
1100
0000
0000
0010
0000
,
0001
1000
0010
1001
,
0000
1001
0000
0000
0100
0000
1001
0000
,
0000
0001
0100
0010
,
0000
1010
0000
0000
0001
0000
0010
0000
,
0100
0000
1000
0000
0110
0000
0000
0110
,
0000
0000
1001
0000
,
0110
0000
1001
0000
,
0110
1001
0110
0000
,
0000
0000
0000
0000
,
0000
0000
1000
0000
,
0100
0000
0010
0001
,
0100
0100
0010
0000
2000
0000
0000
0000
,
3002
0000
0013
0010
,
0020
0000
0130
1000
,
0001
0100
1000
0100
,
0001
0001
1000
0000
0100
0000
0001
0000
,
0100
1000
0100
0010
,
0002
1003
0010
0010
,
1000
1000
0001
0001
,
0100
0010
2000
3100
,
0002
0103
2000
3001
,
0200
0310
0110
0000
,
1001
0000
0110
0000
,
1001
0110
2002
0000
,
0000
0000
3003
0000
;

//---------------dance-single - S. Venkat----------------
#NOTES:
     dance-single:
     S. Venkat:
     Beginner:
     1:
     0.101,0.021,0.138,0.000,0.000:
0000
0000
0000
0000
,
0010
0000
0000
0000
,
0100
0000
0000
0000
,
0001
0000
0000
0000
,
1000
0000
0000
0000
,
0100
0000
0000
0000
,
0010
0000
0000
0000
,
0001
0000
0000
0000
,
1000
0000
0000
0000
,
1001
0000
0000
0000
,
0110
0000
0000
0000
,
1001
0000
0000
0000
,
0001
0000
1000
0000
,
1001
0000
0000
0000
,
0110
0000
0000
0000
,
1001
0000
0000
0000
,
1000
0000
0001
0000
,
1000
0000
0001
0000
,
0100
0000
0000
0000
,
1001
0000
0000
1000
,
0000
0000
0000
0001
,
0000
0000
0000
1000
,
0000
0000
0000
1001
,
0000
0000
1000
0000
,
0000
0000
0100
0000
,
0000
0000
1001
0000
,
1001
0000
1001
0000
,
0010
0010
0010
0000
,
0000
0000
0000
0000
,
0000
0000
0001
0000
,
0000
0000
0100
0000
,
0000
0000
0010
0000
,
1000
0000
0010
0000
,
1000
0000
0100
0000
,
0000
0000
0010
0000
,
0000
0000
0001
0000
,
0000
0000
0100
0000
,
0000
0000
0010
0000
,
1000
0000
0010
0000
,
0100
0000
0001
0000
,
0010
0000
0001
0000
,
1000
0000
1001
0000
,
1001
0000
1001
0000
,
0100
0100
0100
0000
;

//---------------dance-double - M. Simmons----------------
#NOTES:
     dance-double:
     M. Simmons:
     Medium:
     6:
     0.400,0.000,0.216,0.206,0.221:
00000000
00000000
00000000
00000000
,
00000000
00000000
00000000
00000000
,
00000000
00000000
00000000
00000000
,
00000000
00000000
00000000
00000000
,
00000000
00000000
00000000
00000000
,
00001000
00000000
00000000
00000000
00000000
00000000
00010000
00000000
00000000
00000000
00000000
00000000
00000100
00000000
00000000
00000000
00000000
00000000
00000010
00000000
00000100
00000000
00000000
00001000
,
00000001
00000000
00000000
00000000
00000000
00000000
00000100
00000000
00000000
00000000
00000000
00000000
00000010
00000000
00000000
00000000
00000000
00000000
00010000
00000000
00001000
00000000
00000000
01000000
,
00010000
00000000
00000000
00000000
00000000
00000000
10000000
00000000
00000000
00000000
00000000
00000000
01000000
00000000
00000000
00000000
00000000
00000000
00100000
00000000
01000000
00000000
00000000
10000000
,
01000000
00000000
00000000
00000000
00000000
00000000
00100000
00000000
00000000
00110000
00000000
00000000
00000000
00000000
00000000
00010000
00000000
00000000
10000000
00000000
00100000
00000000
00000000
10000000
,
00020000
00000000
00000000
00000000
00000000
00000000
00000000
00000000
00000000
00000000
00000000
00000000
00130000
00000000
00000000
00000000
00000000
00000000
00000000
00000000
00000000
00000000
00000000
00000000
02000000
00000000
00000000
00000000
00000000
00000000
00000000
00000000
00000000
03100000
00000000
00000000
00000000
00000000
00000000
00000000
01000000
00000000
10000000
00000000
00000000
00000000
00000000
00000000
,
00020000
00000000
00000000
00000000
00000000
00000000
00000000
00000000
00000000
00000000
00000000
00000000
01030000
00000000
00000000
00000000
00000000
00000000
00000000
00000000
00000000
00000000
00000000
00000000
00200000
00000000
00000000
00000000
00000000
00000000
00000000
00000000
00000000
01300000
00000000
00000000
00000000
00000000
00000000
00000000
01000000
00000000
00001000
00000000
00000000
00000000
00000000
00000000
,
00020000
00000000
00000000
00000000
00000000
00000000
00000000
00000000
00000000
00000000
00000000
00000000
00030100
00000000
00000000
00000000
00000000
00000000
00000000
00000000
00000000
00000000
00000000
00000000
00000020
00000000
00000000
00000000
00000000
00000000
00000000
00000000
00000000
00000130
00000000
00000000
00000000
00000000
00000000
00000000
00000010
00000000
00000001
00000000
00000000
00000000
00000000
00000000
,
00001000
00000000
00000000
00001000
00000000
00000000
00000010
00000000
00000000
00000010
00000000
00000000
00010010
00000000
00000000
00010000
00000000
00001000
00000000
00000000
00101000
00000000
00000000
00000000
,
00021000
00000000
00000000
00000000
00000000
00000000
00000000
00000000
00000000
00000000
00000000
00000000
00030100
00000000
00000000
00000000
00000000
00000000
00000000
00000000
00000000
00000000
00000000
00000000
00000020
00000000
00000000
00000000
00000000
00000000
00000000
00000000
00000000
00000031
00000000
00000000
00000000
00000000
00000000
00000000
00000010
00000000
00000001
00000000
00000000
00000000
00000000
00000000
,
00002000
00000000
00000000
00000000
00000000
00000000
00000000
00000000
00000000
00000000
00000000
00000000
00003100
00000000
00000000
00000000
00000000
00000000
00000000
00000000
00000000
00000000
00000000
00000000
00020000
00000000
00000000
00000000
00000000
00000000
00000000
00000000
00000000
00031000
00000000
00000000
00000000
00000000
00000000
00000000
01000000
00000000
00010000
00000000
00000000
00000000
00000000
00000000
,
00200000
00000000
00000000
00000000
00000000
00000000
00000000
00000000
00000000
00000000
00000000
00000000
01300000
00000000
00000000
00000000
00000000
00000000
00000000
00000000
00000000
00000000
00000000
00000000
20000000
00000000
00000000
00000000
00000000
00000000
00000000
00000000
00000000
30010000
00000000
00000000
00000000
00000000
00000000
00000000
10000000
00000000
00100000
00000000
00000000
00000000
00000000
00000000
,
01000000
00010000
00100000
01000000
00100000
00001000
00100000
00001000
,
00010000
00001000
00010000
00001000
00010000
00000100
00010000
00000100
,
00010100
00000000
00000000
00000000
00000000
00000000
00010010
00000000
00000000
00000000
00000000
00000000
00000010
00000000
00001000
00000000
00000000
00001001
00000000
00000000
00000000
00000000
00000000
00000000
,
00000001
00000001
00000001
00000020
00000000
00000130
00001000
00000000
,
00001100
00000000
00000000
00000000
00000000
00000000
00000100
00000000
00010000
00000000
00000000
00011000
00000000
00000000
00000000
00000000
00000000
00000000
00001000
00000000
00000000
01000000
00000000
00000000
,
00100000
00000000
00000000
10000000
00000000
00000000
01000000
00000000
00000000
00000000
01010000
00000000
00000000
00000000
00000000
00000000
00000000
00000000
10010000
00000000
00000000
00000000
00000000
00000000
,
10100000
00000000
00000000
00000000
00000000
00000000
01000000
00000000
00010000
00000000
00000000
00210000
00000000
00000000
00000000
00000000
00000000
00000000
01300000
00000000
00000000
01000000
00000000
00000000
,
01000000
00020000
00000000
00031000
00000100
00000000
00001010
00000000
,
00000001
00000000
00000010
00000000
00000000
00000011
00000000
00000000
00000000
00000000
00000000
00000000
00000100
00000000
00000000
00001000
00000000
00000000
00000010
00000000
00000000
00000001
00000000
00000000
,
00000010
00000000
00000000
00000000
00001010
00000000
00000000
00000000
00000000
00000000
00000000
00000001
00001000
00000000
00000000
00000000
00000000
00000000
00000000
00000000
00000100
00000000
00000100
00000000
,
00000200
00000000
00000000
00000300
00000000
00000000
00000000
00000000
00010000
00000000
00010000
00000000
00020000
00000000
00000000
00030000
00000000
00000000
00000000
00000000
00001000
00000000
00001000
00000000
,
00001000
00101000
02002000
00000000
,
00000000
00000000
03003000
00000000
,
00000000
00000000
00000000
00000000
00100000
10000000
00010000
00100000
,
01000000
00100000
00001000
01000000
00100000
01000000
00001000
00010000
,
00000100
00000100
00000100
00010100
00000100
00000010
00000001
00001000
,
00000010
00000100
00000010
00010000
00000100
00000010
00000001
00001000
,
00000010
00001000
00000010
00001000
00000010
00010000
00001000
00100000
,
00010000
10000000
00100000
01000000
00010000
10000000
01000000
00100000
,
01000000
01000000
01000000
11000000
01000000
00100000
00001000
00100000
,
01000000
10000000
00010000
01000000
00100000
00010000
00001000
00010000
,
00000100
00010000
00000010
00010000
00000100
00000010
00000001
00001000
,
00000010
00000100
00000001
00000100
00000010
00001000
00000100
00000010
,
00000400
00000000
00000000
00000000
00001300
00000001
00001000
00000010
,
00010000
00000100
00010000
00001000
01000000
00100000
10000000
01000000
,
00400000
00000000
00000000
00000000
00000000
00000000
01300000
00000000
00000000
00000000
10000000
00010000
,
10000000
00000000
00000000
00000000
00010000
00100000
00010000
00000000
00000000
00000000
00100000
00001000
,
00100000
00101000
00022000
00000000
,
00000000
00000000
00033000
00000000
;

//---------------dance-double - K. Gilmore----------------
#NOTES:
     dance-double:
     K. Gilmore:
     Challenge:
     11:
     0.792,0.197,0.521,0.088,1.000: // measure 1
00000000
00000000
00000000
00000000
,  // measure 2
00001000
00000000
00010000
00000000
00000000
00000100
00000010
00000000
00000000
00000000
00000000
00001000
00010000
00000000
00001000
00010000
00000000
00000000
00000100
00000000
00000000
00000000
00000000
00000000
,  // measure 3
00010000
00000000
00001000
00000000
00000000
01000000
00100000
00000000
00000000
00000000
00000000
00010000
00001000
00000000
00010000
00001000
00000000
00000000
01000000
00000000
00000000
00000100
00000000
00000000
,  // measure 4
01000100
00000000
00000000
00000000
00000000
00000000
00100010
00000000
00000000
00000000
00000000
00000010
01000000
00000000
00000010
01000000
00000000
00000000
01000010
00000000
00000000
00000000
00000000
00000000
,  // measure 5
00101000
00000000
00000000
00000000
00000000
00000000
00000000
00000000
00000000
00010010
00000000
00000000
00000000
00000000
00000000
00000000
00000000
00000000
00100000
00001000
00010000
00000010
00010000
00001000
,  // measure 6
00100000
00000000
00000000
01000000
10000000
01000000
10000000
00000000
00000000
00010000
01000000
00010000
01000000
00000000
00000000
00001000
00100000
00001000
00100000
00000000
00000000
00000100
00010000
00000100
,  // measure 7
00010000
00000000
00000000
00000010
00001000
00000010
00001000
00000000
00000000
00000001
00001000
00000001
00001000
00000000
00000000
00000100
00010000
00000100
00010000
00000000
00000000
00011000
00000000
00000000
,  // measure 8
00011000
00000000
00000000
01000000
00001000
01000000
00001000
00000000
00000000
10000000
00010000
10000000
00010000
00000000
00000000
01000000
00010000
01000000
00010000
00000000
00000000
00100000
00001000
00100000
,  // measure 9
00001000
00000000
00000000
00010000
00000100
00010000
00000100
00000000
00000000
00000010
00000001
00000010
00000001
00000000
00000000
00000010
00000000
00000000
00000200
00000000
00100000
00000000
00000000
00000000
,  // measure 10
0100030M
00000000
00000000
00000000
01M01000
00000000
00000000
00000000
M0001010
00000000
00000000
00000101
0000M000
00000000
00000000
00000000
,  // measure 11
0M010010
00000000
00000000
00000000
0010010M
00000000
00000000
00000000
100100M0
00000000
00000000
01001000
00M00000
00000000
00000000
00000000
,  // measure 12
1100M000
00000000
00000000
00000000
M0011000
00000000
00000000
00000000
00M00101
00000000
00000000
00001001
000000M0
00000000
00000000
00000000
,  // measure 13
00010010
00000000
00000010
00100000
00000000
00001000
01000000
00000000
00100000
10000000
00000000
01000000
00010000
00000000
00000000
00000100
00000000
00000110
00000000
00000000
00001100
00000000
00000000
00000000
,  // measure 14
00000200
00000000
00000000
00000000
00000010
00000000
00000000
00000000
00100000
00000000
00000000
01000000
00000300
00000000
00000M00
00000000
,  // measure 15
02000000
00000000
00000000
00000000
00100000
00000000
00000000
00000000
00000010
00000000
00000000
00000100
03000000
00000000
0M000000
00000000
,  // measure 16
00100100
00000000
00000000
00000000
01000010
00000000
00000000
00000000
01000100
00000000
00000000
00100010
00000000
00000000
00011000
00000000
,  // measure 17
01001000
00000000
01000000
00100000
00000000
01000000
00010000
00000000
01000000
00001000
00000000
01000000
00000100
00000000
00000000
00000100
00000000
00000000
00001000
00000000
00000000
00001000
00000000
00000000
,  // measure 18
00100000
00000000
00000000
00100000
00000000
00000000
00010000
00000000
00000000
00011000
00000000
00000000
00001000
00010000
00001000
00100000
00000010
00010000
00001000
01000000
00010000
01000000
00001000
00010000
,  // measure 19
00000100
00000000
00000000
00000010
00000000
00000000
00000001
00000000
00000000
00010000
00000000
00000000
00001000
00000000
0011M000
00000000
00000000
00100010
00000000
00000000
00000000
00100000
00000000
00000000
,  // measure 20
01000000
00000000
00000000
00000000
00000000
00000000
10000000
00000000
00000000
00000000
00000000
00000000
00100000
00000000
00000000
00000000
00000000
00000000
00010000
00000000
M0000M00
00000000
00M000M0
00000000
0M00M000
00000000
000M0000
00000000
00000000
00000010
00000001
00000000
00000000
00000000
00000000
00000000
00010001
00000000
00000000
00000000
00000000
00000000
00010000
00000000
00000000
00000000
00000000
00000000
,  // measure 21
00000100
00000000
00000000
00001000
00000000
00000000
00000010
00000000
000010M1
00000000
00000000
00010100
00000000
00000000
00000000
00000000
00000000
00000000
00100100
00000000
00000000
00001000
00000000
00000000
,  // measure 22
00010000
00000000
00000000
01000010
00000000
00000000
00010000
00000000
00000000
00001000
00000000
00000000
00100000
00000000
00000000
01000000
00000000
00000000
10010000
00000000
00000000
10000000
01000000
00100000
,  // measure 23
00010000
00000000
00000000
01000000
00000000
00000000
00001000
00000000
0001M100
00000000
00000000
00001010
00000000
00000000
00000000
00000000
00000000
00000000
00000010
00000000
00000000
00000001
00000000
00000000
,  // measure 24
00000100
00000000
00000000
00000000
00000000
00000000
00000010
00000000
0000M000
00000000
0M00000M
00000000
000M00M0
00000000
00M00M00
00000000
M0000000
01000000
00100000
00000000
00000000
00000000
00000000
00000000
10010000
00000000
00000000
00000000
00000000
00000000
00010000
00000000
00100000
00000000
00001000
00000000
00010000
00000000
00000000
00000000
00000000
00000000
00000010
00000000
00000000
00000000
00000000
00000000
,  // measure 25
00000100
00000000
00001M01
00000000
00000000
00010010
00000000
00000000
00000010
00001000
00000000
00000100
00010000
00000000
00000000
00001000
00000000
00000000
00100000
00000000
00000000
10010000
00000000
00000000
,  // measure 26
01010000
00000000
00000000
00000000
00000000
00000000
00000000
00000000
00000000
00101000
00000000
00000000
00000000
00000000
00000000
00000000
00000000
00000000
00001100
00000000
00000000
00000000
00000000
00000000
00000011
00000000
00000000
00000000
00000100
00000000
00000000
00000000
00010000
00000000
00000000
00000000
01000000
00000000
00000000
00000000
00000000
00000000
00000000
00000000
00000000
00000000
00000000
00000000
,  // measure 27
10100000
00000000
01000000
00000000
00001000
00000000
00000100
00000000
00000000
00000000
00000000
00000000
00001010
00000000
00001000
00000100
00010000
00000000
00001000
00000000
00100000
00000000
00010000
00000000
,  // measure 28
10010000
00011000
00001001
00000000
,  // measure 29
00000000
00000000
00000000
00000000
,  // measure 30
00000000
00000000
00000000
00000000
00000000
00000000
00000000
00000000
00000000
00000000
00000000
00000000
10000000
01000000
10000000
01000000
10000000
01000000
00100000
01000000
00100000
01000000
00100000
01000000
,  // measure 31
00100000
00010000
00100000
00010000
00100000
00010000
01000000
00010000
01000000
00010000
01000000
00010000
10000000
01000000
00100000
00010000
01000000
00100000
10000000
01000000
00100000
00010000
01000000
00100000
,  // measure 32
10000000
00000000
10000000
00001000
00000000
00001000
00010000
00000000
00000000
00000001
00000000
00000000
00000001
00000100
00000001
00000100
00000001
00000100
00000010
00000100
00000010
00000100
00000010
00000100
,  // measure 33
00000010
00001000
00000010
00001000
00000010
00001000
00000100
00001000
00000100
00001000
00000100
00001000
00000100
00000010
00000001
00000100
00000010
00001000
00000100
00000010
00000001
00000100
00000010
00001000
,  // measure 34
00000100
00000000
00000000
00010000
00000000
00000000
00001000
00000000
00000000
00100000
00000000
00000000
01000000
10000000
01000000
10000000
01000000
10000000
01000000
10000000
01000000
10000000
01000000
10000000
,  // measure 35
00010000
01000000
00010000
01000000
00010000
01000000
00010000
01000000
00010000
01000000
00010000
01000000
00010000
00100000
01000000
10000000
01000000
00100000
00010000
00100000
01000000
10000000
01000000
00100000
,  // measure 36
00010000
00000000
00010000
00100000
00000000
00100000
00000100
00000000
00000000
00001000
00000000
00000000
00001000
00000100
00001000
00000100
00001000
00000100
00001000
00000100
00001000
00000100
00001000
00000100
,  // measure 37
00000010
00000001
00000010
00000001
00000010
00000001
00000010
00000001
00000010
00000001
00000010
00000001
00000010
00000100
00001000
00000100
00000010
00000001
00000010
00000100
00001000
00000100
00000010
00000100
,  // measure 38
00020000
00000000
00000000
00000000
00000000
00000000
00001000
00000000
00000000
00000000
00000000
00000000
00130000
10000000
01000000
00100000
01000000
10000000
01000000
00100000
00010000
00100000
00000000
00000000
,  // measure 39
00000100
00010000
00001000
00100000
00001000
00010000
00000010
00010000
00001000
01000000
00000000
00000000
00000100
00001000
00000010
00000100
00000001
00000010
00000100
00001000
00000100
00000010
00000000
00000000
,  // measure 40
00000001
00000010
00000100
00010000
00001000
00010000
00001000
00100000
00010000
01000000
00100000
10000000
01000000
00100000
00010000
01000000
00100000
10000000
01000000
00100000
00010000
00100000
00000000
00000000
,  // measure 41
00001000
00010000
00001000
00100000
00010000
00100000
00001000
00010000
00000100
00010000
00000000
00000000
00000010
00010000
00001000
01000000
00001000
00010000
00000010
00010000
00001000
00010000
00000010
00001000
,  // measure 42
00000010
00000100
00000001
00000010
00000001
00000100
00000010
00001000
00000100
00001000
00000010
00001000
00000200
00000000
00000000
00000000
00000000
00000000
00000000
00000000
01000000
00000000
01000000
00000000
,  // measure 43
02000000
00000000
00000000
00000000
00000010
00000010
00000020
00000000
00000000
00000000
00100000
00100000
,  // measure 44
03100330
01011100
M21MM21M
00000000
,  // measure 45
00000000
00000000
03000300
00000000
;

//---------------dance-double - M. Simmons----------------
#NOTES:
     dance-double:
     M. Simmons:
     Hard:
     9:
     0.597,0.000,0.275,0.236,0.732:
00000000
00000000
00000000
00000000
,
00000000
00000000
00000000
00000000
,
00000000
00000000
00000000
00000000
,
00000000
00000000
00000000
00000000
,
00110000
00000000
00000000
00000000
00000000
00000000
00100000
00000000
00000000
01100000
00000000
00000000
00000000
00000000
00000000
01000000
00000000
00000000
10000000
00000000
00000000
00100000
00000000
10000000
,
00010000
00000000
00000000
00100000
00000000
00001000
00010000
00000000
00000000
00001000
00000000
00010000
00000100
00000000
00000000
00000010
00000000
00000001
00001000
00000000
00000010
00000000
00000000
00000100
,
00000010
00000000
00000000
00001000
00000000
00000100
00010000
00000000
00000000
00001000
00000000
00010000
00001000
00000000
00000000
01000000
00000000
00100000
10000000
00000000
01000000
00000000
00000000
00100000
,
00010000
00000000
00000000
00100000
00000000
01000000
10000000
00000000
00000000
00010000
00000000
01000000
00100000
00000000
00000000
01000000
00000000
00010000
10000000
00000000
01000000
00000000
00000000
00100000
,
00010000
00000000
00000000
00100000
00000000
00001000
00010000
00000000
00000000
00010010
00000000
00000000
00000000
00000000
00000010
00001000
00000000
00000010
00000100
00000000
00000001
00000000
00000000
00001000
,
00000200
00000000
00000000
00000000
00000000
00000000
00000000
00000000
00000000
00000000
00000000
00000000
00000020
00000000
00000000
00000000
00000000
00000000
00000300
00000000
00000000
00000000
00000000
00000000
00000002
00000000
00000000
00000000
00000000
00000000
00000030
00000000
00000000
00001000
00000000
00000000
00000003
00000000
00000000
00000000
00000010
00000000
00001000
00000000
00000000
00000000
00000100
00000000
,
00020000
00000000
00000000
00000000
00000000
00000000
00000000
00000000
00000000
00000000
00000000
00000000
00200000
00000000
00000000
00000000
00000000
00000000
00030000
00000000
00000000
00000000
00000000
00000000
02000000
00000000
00000000
00000000
00000000
00000000
00300000
00000000
00000000
00010000
00000000
00000000
03000000
00000000
00000000
00000000
10000000
00000000
01000000
00000000
00000000
00000000
10000000
00000000
,
00200000
00000000
00000000
00000000
00000000
00000000
00000000
00000000
00000000
00000000
00000000
00000000
00020000
00000000
00000000
00000000
00000000
00000000
00300000
00000000
00000000
00000000
00000000
00000000
00002000
00000000
00000000
00000000
00000000
00000000
00030000
00000000
00000000
01000000
00000000
00000000
00003000
00000000
00000000
00000000
00001000
00000000
00010000
00000000
00000000
00000000
00000000
00000000
,
00001000
00000000
00000000
00100000
00000000
00000000
01000000
00000000
00000000
00010000
00000000
00000000
00001000
00000000
00000000
00000100
00000000
00000010
00000000
00000000
00001010
00000000
00000000
00000000
,
00002001
00000000
00000000
00000000
00000000
00000000
00000000
00000000
00000000
00000000
00000000
00000000
00000200
00000000
00000000
00000000
00000000
00000000
00003000
00000000
00000000
00000000
00000000
00000000
00000020
00000000
00000000
00000000
00000000
00000000
00000300
00000000
00000000
00001000
00000000
00000000
00000030
00000000
00000000
00000000
00010000
00000000
00001000
00000000
00000000
00000000
00000000
00000000
,
02000000
00000000
00000000
00000000
00000000
00000000
00000000
00000000
00000000
00000000
00000000
00000000
00200000
00000000
00000000
00000000
00000000
00000000
03000000
00000000
00000000
00000000
00000000
00000000
20000000
00000000
00000000
00000000
00000000
00000000
00300000
00000000
00000000
01000000
00000000
00000000
30000000
00000000
00000000
00000000
10000000
00000000
01000000
00000000
00000000
00000000
10000000
00000000
,
00200000
00000000
00000000
00000000
00000000
00000000
00000000
00000000
00000000
00000000
00000000
00000000
02000000
00000000
00000000
00000000
00000000
00000000
00300000
00000000
00000000
00000000
00000000
00000000
00002000
00000000
00000000
00000000
00000000
00000000
03000000
00000000
00000000
00100000
00000000
00000000
00003000
00000000
00000000
00000000
00100000
00000000
00001000
00000000
00000000
00000000
00010000
00000000
,
00001000
00010000
00000100
00000010
00000001
00000001
00001000
00001000
,
00000100
00000000
00000000
00000100
00000000
00000000
00010000
00000000
00000000
00010000
00000000
00000000
00400000
04000000
00000000
00000000
00000000
00000000
00000000
00000000
00000000
03300000
00000000
00000000
,
10010000
00000000
00000000
10000000
00000000
00000000
10000000
00000000
00000000
00000000
00000000
00000000
01000000
00000000
00100000
00000000
00000000
00001000
00000000
00000000
00010000
00000100
00000000
00000000
,
00000010
00000010
00000010
00002000
00000000
00003000
0001M000
00100000
,
00110000
00000000
00000000
00000000
00000000
00000000
00100000
00000000
10000000
00000000
00000000
11000000
00000000
00000000
01000000
00100000
00000000
00000000
00010000
00000000
00000000
00010000
00000000
00000000
,
10010000
00000000
00000000
00010000
00000000
00000000
10010000
00000000
00000000
00000000
00110000
00000000
00000000
00000000
00001000
01000000
00000000
00001000
00100000
00000000
00000000
00100000
00000000
00000000
,
01100000
00000000
00000000
00000000
00000000
00000000
00100000
00000000
00001000
00000000
00000000
00011000
00000000
00000000
00010000
00000010
00000000
00000000
00000100
00000000
00000000
00000100
00000000
00000001
,
00000100
00002000
00000000
00003000
0000M101
00000001
00001000
00000000
,
00000100
00000000
00000010
00000000
00000000
00001000
00000000
00000000
00000010
00000100
00000000
00000000
00010000
00000000
00000000
00010000
00000000
00000000
00001000
00000000
00000000
00001000
00000000
00000000
,
01001000
00000000
00000000
00000000
00000000
00011000
00000000
00000000
00010000
00000100
00000000
00010000
00000010
00000000
00000000
00000000
00000000
00000000
00000000
00000000
00010000
00000000
00000100
00000000
,
00011000
00000000
00000000
00000000
00001000
01000000
01100000
00000000
00000000
00000000
00100000
00010000
,
00011000
00101000
20020000
00000000
,
00000000
00000000
00000000
00000000
,
30030000
00000000
00000000
00000000
00010000
00100000
01000000
00010000
,
00001000
00000100
00000010
00001000
00000001
00000010
00000100
00001000
,
00000010
00000000
00010000
00000100
00000000
00010000
00001000
00000000
00000000
00101000
00000000
00000000
00010000
00000000
00000000
10000000
00000000
00000000
01000000
00000000
00000000
10000000
00000000
00000000
,
00100000
01000000
00001000
00100000
00010000
00100000
00001000
00010000
,
00000010
00000000
00000000
00000000
00000000
00000000
00000100
00000000
00000010
00000000
00000100
00000000
00000010
00000000
00000100
00000000
00000010
00000000
00000100
00000000
00000010
00000000
00000100
00000000
00000010
00000000
00000000
00001000
00000000
00000000
00000001
00000000
00000000
00001000
00000000
00000000
00000100
00000000
00000000
00001000
00000000
00000000
00000001
00000000
00000000
00001000
00000000
00000000
,
00000010
00010000
00001000
00010000
00001000
01000000
00100000
10000000
00010000
00100000
01000000
10000000
01000000
00100000
00010000
10000000
,
00100000
00000000
00000000
00000000
01000000
00000000
00010000
00000000
00000000
00000000
01000000
00000000
00010000
00000000
00000000
00000000
00000000
00000000
10010000
00000000
00000000
00000000
00000000
00000000
00010000
00000000
00000000
01000000
00000000
00000000
00100000
00000000
00000000
01000000
00000000
00000000
00001000
00000000
00000000
00010000
00000000
00000000
00000100
00000000
00000000
00010000
00000000
00000000
,
00000010
00000100
00000001
00001000
00000100
00000010
00000100
00001000
00000001
00001000
00000010
00010000
00000100
00010000
00000010
00000100
,
00000010
00000000
00000000
00000000
00000100
00000000
00000010
00000000
00000000
00000000
00010000
00000000
00000010
00000000
00000000
00000000
00010000
00000000
00001000
00000000
00000000
00000000
00100000
00000000
00001000
00000000
00000000
00010000
00000000
00000000
00001000
00000000
00000000
01000000
00000000
00000000
00100000
00000000
00000000
10000000
00000000
00000000
00010000
00000000
00000000
00100000
00000000
00000000
,
01000000
10000000
01000000
00100000
00001000
01000000
00100000
01000000
00001000
00010000
00000100
00010000
00001000
00010000
00000010
00000100
,
00000001
00000000
00000010
00000000
00000001
00000000
00000010
00000000
00000001
00000000
00000010
00000000
00000001
00000000
00000010
00000000
00000001
00000000
00000010
00000000
00000001
00000000
00000010
00000000
00000001
00000000
00000000
00001000
00000000
00000000
00000010
00000000
00000000
00010000
00000000
00000000
00000100
00000000
00000000
00010000
00000000
00000000
00001000
00000000
00000000
00010000
00000000
00000000
,
00001000
01000000
00100000
10000000
00010000
00100000
01000000
10000000
01000000
00100000
00001000
00010000
01000000
00100000
00010000
10000000
,
00100000
01000000
00100000
01000000
00100000
01000000
00100000
01000000
00100000
01000000
00100000
01000000
00100000
00000000
00000000
00000000
00000000
00000000
00000000
00000000
01000000
00000000
00001000
00000000
,
01001000
00000000
00000000
00000000
00001000
00010000
00010100
00000000
00000000
00000000
00000100
00000010
,
00000110
00000011
00002002
00000000
,
00000000
00000000
00000000
00000000
00000000
00000000
00000000
00003003
00000000
00000000
00000000
00000000
;

//---------------dance-double - M. Simmons----------------
#NOTES:
     dance-double:
     M. Simmons:
     Easy:
     5:
     0.316,0.000,0.098,0.236,0.044:
00000000
00000000
00000000
00000000
,
00000000
00000000
00000000
00000000
,
00000000
00000000
00000000
00000000
,
00000000
00000000
00000000
00000000
,
00000100
00000000
00000010
00000010
00000000
00000000
00000100
00000000
,
00010000
00010000
00001000
00001000
,
01000000
01000000
00100000
00100000
,
10000000
01000000
00100000
00010000
,
10000000
00100000
01000000
00010000
,
00200000
00000000
02300000
13000000
,
00020000
00000000
02030000
03100000
,
02000000
00000000
03002000
00013000
,
00000100
00000010
00000001
00001000
00000010
00000100
00000010
00000000
,
00002000
00000000
00003200
00010300
,
00000200
00000000
00010300
00002000
,
00203000
00000000
00310000
00200000
,
01300000
10000000
00010000
10000000
00100000
00100000
01000000
01000000
,
00010000
01000000
00010000
01000000
00100000
01000000
00010000
00100000
,
00001000
00000000
00000000
00000000
00000000
00000000
00010000
00000000
00000000
00000000
00000000
00000000
00010000
00000000
00001000
00000000
00000000
00010000
00000000
00000000
00000000
00000000
00000000
00000000
,
00000100
00010000
00000100
00020000
00000000
00000000
00030100
00000000
,
00000010
00000000
00000000
00000000
00000000
00000000
00000001
00000000
00001000
00000000
00000000
00000001
00000000
00000000
00000000
00000000
00000000
00000000
00001000
00000000
00000000
00000010
00000000
00000000
,
00001000
00000010
00010000
00000000
00011000
00000000
00011000
00000000
,
00001000
00000000
00000000
00000000
00000000
00000000
00100000
00000000
00010000
00000000
00000000
00100000
00000000
00000000
00000000
00000000
00000000
00000000
01000000
00000000
00000000
10000000
00000000
00000000
,
01000000
20000000
00000000
00000000
30010000
00000000
01000000
00000000
,
00100000
00000000
10000000
00000000
00000000
00100000
00000000
00000000
00000000
00000000
00000000
00000000
01000000
00000000
00000000
00010000
00000000
00000000
01000000
00000000
00000000
00010000
00000000
00000000
,
00100000
00000000
00000000
00110000
00000000
00000000
00000000
00000000
00200000
00000000
00000000
00000000
00000000
00000000
00000000
00000000
,
02300000
00000000
03020000
00000000
,
00031000
00011000
00022000
00000000
,
00000000
00000000
00033000
00000000
,
00000000
00000000
00010000
00000100
,
00000010
00000100
00001000
00000001
,
00001000
00000010
00001000
00001010
00000010
00000000
00010000
00000000
,
00001000
00100000
01000000
00100000
,
00010000
00100000
00010000
00100000
00010000
10000000
00010000
00000000
,
01000000
00010000
01000000
00000000
00001000
00010000
00001000
00000000
,
00010000
00010000
00010000
00011000
00010000
00000100
00010000
00000000
,
00000100
00000010
00000100
00000000
00000010
00000001
00000010
00000000
,
00000001
00001000
00000010
00001000
00000001
00000010
00000001
00000010
,
00000100
00000010
00000100
00000010
00000100
00001000
00000100
00001000
,
00000100
00010000
00000100
00010000
00010100
00001000
00100000
00001000
,
00010000
00001000
01000000
00001000
00010000
00001000
00100000
00001000
,
00010000
00001000
01000000
00001000
00020000
00000000
00000000
00000000
,
00032000
00000000
00203000
00000000
,
01300000
01100000
02200000
00000000
,
00000000
00000000
03300000
00000000
;
